#TITLE:The Hills;
#SUBTITLE:(Rock Cover);
#ARTIST:Fame On Fire, Ft.Rain Paris & Arcaeus;
#TITLETRANSLIT:;
#SUBTITLETRANSLIT:;
#ARTISTTRANSLIT:;
#CREDIT:;
#BANNER:remix hills.png;
#BACKGROUND:hills.png;
#LYRICSPATH:;
#CDTITLE:;
#MUSIC:The Weeknd- The Hills Fame On Fire, Ft.mp3;
#OFFSET:-0.104;
#SAMPLESTART:43.932;
#SAMPLELENGTH:12.000;
#SELECTABLE:YES;
#BPMS:0.000=113.000,86.000=113.000;
#STOPS:;
#BGCHANGES:0.000=hILLS.avi=1.000=1=0=1
,281.000=hills.png=1.000=0=0=1
;

//---------------dance-single - Copied from----------------
#NOTES:
     dance-single:
     Copied from:
     Hard:
     8:
     0.573,0.695,0.482,0.521,0.211: // measure 1
0000
0000
1002
0000
,  // measure 2
0000
0000
0000
0003
1100
0000
0000
0000
2001
0000
0000
0000
0000
0000
0000
0000
,  // measure 3
0000
3101
0002
0000
,  // measure 4
0000
1013
2002
0000
,  // measure 5
3003
0000
0011
0000
1000
0100
0001
0100
,  // measure 6
1000
0010
1000
0100
0020
0000
0032
0000
,  // measure 7
0003
0000
1000
0000
0001
0010
1000
0010
,  // measure 8
0001
0100
0001
0010
0200
0000
2300
0000
,  // measure 9
0000
0000
0000
0000
3100
0100
0010
0001
,  // measure 10
0100
0100
1000
0100
0010
0000
2000
0000
,  // measure 11
0000
0000
3000
1000
1000
0100
0010
0001
,  // measure 12
0010
0100
1000
0100
0020
0000
0032
0000
,  // measure 13
0000
0000
1003
0000
1010
0010
1000
0001
,  // measure 14
0010
0100
1100
1100
0010
0001
1000
0000
,  // measure 15
1001
0000
0000
0000
1000
0000
1000
0001
1000
0000
0100
0000
0010
0000
0001
0000
,  // measure 16
0110
0100
1100
1100
0010
0001
1000
0000
,  // measure 17
1001
0000
0000
0000
1000
0000
0001
1000
0001
0000
0100
0000
0010
0000
1000
0000
,  // measure 18
0110
0100
0101
0101
0010
0000
0001
0000
,  // measure 19
1001
0000
1000
0000
1001
0001
0010
1000
,  // measure 20
1010
0010
0011
0011
0010
0000
0001
0000
,  // measure 21
1001
0000
0000
0000
2000
0000
3001
0000
0000
0000
1000
0100
1000
0000
0001
0100
,  // measure 22
0001
0000
1000
0010
1000
0000
0001
0010
0002
0000
0000
0000
2000
0000
0000
0000
,  // measure 23
3200
0000
0000
0000
2300
0000
0000
3003
1000
0000
2000
3000
0200
0300
0020
0030
,  // measure 24
0002
0003
0020
0030
0200
0300
2000
3000
0200
0000
1000
0000
1300
0000
0001
0000
,  // measure 25
1001
0000
0000
0010
0000
0000
0100
0000
0000
0001
0000
0000
1000
0001
1000
0001
0000
0000
1000
0000
0000
0100
0000
0000
,  // measure 26
0010
0000
0000
0000
0000
0000
0000
0000
0000
0000
0000
0000
0000
0000
0000
0000
0000
0000
0000
0000
0000
0000
0000
0000
0001
0000
0000
0000
0000
0000
0000
0000
0000
0000
0000
0000
0000
0000
0000
0000
0000
0000
0000
0000
0000
0000
0000
0000
0010
0000
0000
0000
0000
0000
0000
0000
0000
0000
0000
0000
0000
0000
0000
0000
0000
0000
0000
0000
0000
0000
0000
0000
0100
0000
0000
0000
0000
0000
0000
0000
0000
0000
0000
0000
0000
0000
0000
0000
0000
0000
0000
0000
0000
0000
0000
0000
2000
0000
0000
0000
0000
0000
0000
0000
0000
0000
0000
0000
0000
0000
0000
0000
0000
0000
0000
0000
0000
0000
0000
0000
0000
0000
0000
0000
0000
0000
3000
0000
0000
0000
0000
0000
2000
0000
0000
0000
0000
0000
0000
0000
0000
0000
0000
0000
0000
0000
0000
0000
0000
0000
0000
0000
0000
0000
0000
0000
0000
0000
0000
0000
0000
0000
0000
0000
0000
0000
0000
0000
3020
0000
0000
0000
0000
0000
0000
0000
0000
0000
0000
0000
0000
0000
0000
0000
0000
0000
0000
0000
0030
0000
0000
0000
,  // measure 27
0020
0000
0000
0000
0000
0000
0000
0000
0030
0000
0000
0000
0000
0000
0000
0000
0000
0000
0000
0000
0000
0000
0000
0000
0000
0000
0000
0000
0000
0000
0000
0000
0000
0000
0000
0000
0200
0000
0000
0000
0000
0000
0000
0000
0000
0000
0000
0000
0000
0000
0000
0000
0000
0000
0000
0000
0000
0000
0000
0000
0000
0000
0000
0000
0000
0000
0000
0000
0300
0000
0000
0000
0100
0000
0000
0000
0000
0000
0000
0000
0000
0000
0000
0000
0000
0000
0000
0000
0000
0000
0000
0000
0000
0000
0000
0000
0001
0000
0000
0000
0000
0000
0000
0000
0100
0000
0000
0000
0000
0000
0000
0000
0001
0000
0000
0000
0000
0000
0000
0000
0100
0000
0000
0000
0000
0000
0000
0000
0000
0000
0000
0000
0020
0000
0000
0000
0000
0000
0000
0000
0000
0000
0000
0000
0000
0000
0000
0000
0000
0000
0000
0000
0000
0000
0000
0000
0000
0000
0000
0000
0000
0000
0000
0000
0000
0030
0000
0000
0020
0000
0000
0000
0000
0000
0000
0000
0000
0000
0000
0000
0030
0000
0000
0000
0000
0000
0000
0000
0000
0000
0000
0000
,  // measure 28
2000
0000
0000
0000
0000
0000
0000
0000
0000
0000
0000
3000
2000
0000
0000
0000
0000
0000
0000
0000
0000
0000
0000
0000
3200
0000
0000
0000
0000
0000
0000
0300
0200
0000
0000
0000
0000
0000
0000
0000
0000
0000
0000
0300
0020
0000
0000
0000
0000
0000
0000
0000
0000
0000
0000
0030
0020
0000
0000
0000
0000
0000
0000
0000
,  // measure 29
0032
0000
0000
0000
0000
0000
0000
0000
0000
0000
0000
0000
0000
0000
0000
0000
0000
0000
0000
0000
0000
0000
0000
0000
0000
0000
0000
0000
0000
0000
0000
0000
0000
0003
0000
0000
0002
0000
0000
0000
0000
0000
0000
0000
0000
0000
0000
0000
0000
0000
0000
0000
0000
0000
0000
0000
0000
0000
0000
0000
0000
0000
0000
0000
0000
0000
0000
0000
0000
0003
0000
0000
0100
0000
0000
0000
0000
0000
0000
0000
0000
0000
0000
0000
0000
0000
0000
0000
0000
0000
0000
0000
0000
0000
0000
0000
1000
0000
0000
0000
0000
0000
0000
0000
0100
0000
0000
0000
0000
0000
0000
0000
1000
0000
0000
0000
0000
0000
0000
0000
0100
0000
0000
0000
0000
0000
0000
0000
0000
0000
0000
0000
0000
0000
0000
0000
0000
0000
0000
0000
0000
0000
0000
0000
0010
0000
0000
0000
0000
0000
0000
0000
0000
0000
0000
0000
0000
0000
0000
0000
0000
0000
0000
0000
0000
0000
0000
0000
0010
0000
0000
0000
0000
0000
0000
0000
0000
0000
0000
0000
0000
0000
0000
0000
0000
0000
0000
0000
0000
0000
0000
0000
,  // measure 30
0100
1000
0100
0010
0002
0000
1000
0000
,  // measure 31
0100
0000
0000
0000
0000
0000
0000
0000
0000
0000
0000
0000
1000
0000
0000
0000
0000
0000
0000
0000
0000
0000
0000
0000
1000
0000
0100
0003
1000
0000
0100
0000
0000
0000
0000
0000
1000
0000
0000
0000
0000
0000
0100
0000
0000
0000
0000
0000
,  // measure 32
0010
0001
0010
0100
2000
0000
0000
0000
,  // measure 33
0002
0000
0000
0000
0000
0000
3000
0000
0000
0003
0000
0000
1000
0100
1000
0100
0000
0000
0100
0000
0000
0010
0000
0000
,  // measure 34
0001
0000
0000
0000
0000
0000
0000
0000
0000
0000
0000
0000
0000
0000
0000
0000
0000
0000
0000
0000
0000
0000
0000
0000
0010
0000
0000
0000
0000
0000
0000
0000
0000
0000
0000
0000
0000
0000
0000
0000
0000
0000
0000
0000
0000
0000
0000
0000
0100
0000
0000
0000
0000
0000
0000
0000
0000
0000
0000
0000
0000
0000
0000
0000
0000
0000
0000
0000
0000
0000
0000
0000
1000
0000
0000
0000
0000
0000
0000
0000
0000
0000
0000
0000
0000
0000
0000
0000
0000
0000
0000
0000
0000
0000
0000
0000
2000
0000
0000
0000
0000
0000
0000
0000
0000
0000
0000
0000
0000
0000
0000
0000
0000
0000
0000
0000
0000
0000
0000
0000
0000
0000
0000
0000
0000
0000
3000
0000
0000
0000
0000
0000
2000
0000
0000
0000
0000
0000
0000
0000
0000
0000
0000
0000
0000
0000
0000
0000
0000
0000
0000
0000
0000
0000
0000
0000
0000
0000
0000
0000
0000
0000
0000
0000
0000
0000
0000
0000
3020
0000
0000
0000
0000
0000
0000
0000
0000
0000
0000
0000
0000
0000
0000
0000
0000
0000
0000
0000
0030
0000
0000
0000
,  // measure 35
0020
0000
0000
0000
0000
0000
0000
0000
0030
0000
0000
0000
0000
0000
0000
0000
0000
0000
0000
0000
0000
0000
0000
0000
0000
0000
0000
0000
0000
0000
0000
0000
0000
0000
0000
0000
0200
0000
0000
0000
0000
0000
0000
0000
0000
0000
0000
0000
0000
0000
0000
0000
0000
0000
0000
0000
0000
0000
0000
0000
0000
0000
0000
0000
0000
0000
0000
0000
0300
0000
0000
0000
0100
0000
0000
0000
0000
0000
0000
0000
0000
0000
0000
0000
0000
0000
0000
0000
0000
0000
0000
0000
0000
0000
0000
0000
0001
0000
0000
0000
0000
0000
0000
0000
0100
0000
0000
0000
0000
0000
0000
0000
0001
0000
0000
0000
0000
0000
0000
0000
0100
0000
0000
0000
0000
0000
0000
0000
0000
0000
0000
0000
0020
0000
0000
0000
0000
0000
0000
0000
0000
0000
0000
0000
0000
0000
0000
0000
0000
0000
0000
0000
0000
0000
0000
0000
0000
0000
0000
0000
0000
0000
0000
0000
0000
0030
0000
0000
0020
0000
0000
0000
0000
0000
0000
0000
0000
0000
0000
0000
0030
0000
0000
0000
0000
0000
0000
0000
0000
0000
0000
0000
,  // measure 36
2000
0000
0000
0000
0000
0000
0000
0000
0000
0000
0000
3000
2000
0000
0000
0000
0000
0000
0000
0000
0000
0000
0000
0000
3200
0000
0000
0000
0000
0000
0000
0300
0200
0000
0000
0000
0000
0000
0000
0000
0000
0000
0000
0300
0020
0000
0000
0000
0000
0000
0000
0000
0000
0000
0000
0030
0020
0000
0000
0000
0000
0000
0000
0000
,  // measure 37
0032
0000
0000
0000
0000
0000
0000
0000
0000
0000
0000
0000
0000
0000
0000
0000
0000
0000
0000
0000
0000
0000
0000
0000
0000
0000
0000
0000
0000
0000
0000
0000
0000
0003
0000
0000
0002
0000
0000
0000
0000
0000
0000
0000
0000
0000
0000
0000
0000
0000
0000
0000
0000
0000
0000
0000
0000
0000
0000
0000
0000
0000
0000
0000
0000
0000
0000
0000
0000
0003
0000
0000
0100
0000
0000
0000
0000
0000
0000
0000
0000
0000
0000
0000
0000
0000
0000
0000
0000
0000
0000
0000
0000
0000
0000
0000
1000
0000
0000
0000
0000
0000
0000
0000
0100
0000
0000
0000
0000
0000
0000
0000
1000
0000
0000
0000
0000
0000
0000
0000
0100
0000
0000
0000
0000
0000
0000
0000
0000
0000
0000
0000
0000
0000
0000
0000
0000
0000
0000
0000
0000
0000
0000
0000
0100
0000
0000
0000
0000
0000
0000
0000
0000
0000
0000
0000
0000
0000
0000
0000
0000
0000
0000
0000
0000
0000
0000
0000
1000
0000
0000
0000
0000
0000
0000
0000
0000
0000
0000
0000
0000
0000
0000
0000
0000
0000
0000
0000
0000
0000
0000
0000
,  // measure 38
1010
0000
0000
0000
2000
0100
0010
0001
,  // measure 39
0010
0100
0001
0010
3001
0000
1000
0000
,  // measure 40
0000
0000
0000
0000
0002
0100
0010
0100
,  // measure 41
0010
0100
1003
0010
0001
0000
1000
0000
,  // measure 42
0000
0000
0000
0000
2000
0100
0010
0001
,  // measure 43
0010
3100
1000
0010
1000
0000
0001
0000
,  // measure 44
0000
0000
0000
0000
0000
0000
1000
0001
1000
0000
0100
0000
0001
0000
0100
0000
,  // measure 45
1000
0100
0001
0100
1000
0000
0001
0000
,  // measure 46
0000
0000
1000
0000
1010
0010
1000
0001
,  // measure 47
0010
0100
1100
1100
0010
0001
1000
0000
,  // measure 48
1001
0000
0000
0000
1000
0000
1000
0001
1000
0000
0100
0000
0010
0000
0001
0000
,  // measure 49
0110
0100
1100
1100
0010
0001
1000
0000
,  // measure 50
1001
0000
0000
0000
1000
0000
0001
1000
0001
0000
0100
0000
0010
0000
1000
0000
,  // measure 51
0110
0100
0101
0101
0010
0000
0001
0000
,  // measure 52
1001
0000
0000
0000
1001
0100
0010
0001
,  // measure 53
0110
0100
0011
0011
0001
0000
1000
0000
,  // measure 54
1001
0000
0000
0000
1000
0000
0101
0000
0000
0000
1000
0100
1000
0000
0001
0100
,  // measure 55
0001
0000
1000
0010
1000
0000
0001
0010
0002
0000
0000
0000
2000
0000
0000
0000
,  // measure 56
3200
0000
0000
0000
2300
0000
0000
3003
1100
0000
0100
0000
1000
0000
1100
0000
,  // measure 57
0110
0011
0110
1010
0101
0001
0010
0100
,  // measure 58
0101
0100
1000
0100
1100
1000
0100
0010
,  // measure 59
0001
0010
0100
1000
0100
0010
0001
0010
1100
0000
1001
0000
1010
0000
1001
0000
,  // measure 60
1100
0000
0000
0000
0000
0000
0000
0000
0000
0000
0000
0000
2000
0000
0000
0000
0000
0000
0000
0000
0000
0000
0000
3000
2000
0000
0000
0000
0000
0000
0000
3000
0200
0000
0000
0000
0000
0000
0000
0000
0000
0000
0000
0300
0200
0000
0000
0000
0000
0000
0000
0000
0300
0000
0000
0000
1001
0000
0000
0000
0000
0000
0000
0000
,  // measure 61
1001
0000
0000
0000
0000
0000
0000
0000
0000
0000
0000
0000
0020
0000
0000
0000
0000
0000
0000
0000
0000
0000
0000
0030
0020
0000
0000
0000
0000
0000
0000
0030
0002
0000
0000
0000
0000
0000
0000
0000
0000
0000
0000
0003
0002
0000
0000
0000
0000
0000
0000
0000
0000
0000
0000
0003
0100
0000
0000
0000
0000
0000
0000
0000
,  // measure 62
0011
0000
0000
1000
0000
0000
0001
0000
0000
0000
1000
0100
0010
0000
0001
0010
,  // measure 63
0100
0000
0000
0000
0010
0000
0000
0000
0001
0000
0000
0000
0000
0000
0000
0000
1000
0000
0000
0000
0000
0000
0000
0000
0010
0000
0000
0000
0000
0000
0000
0000
1002
0000
0000
0000
0000
0000
0000
0003
0002
0000
0000
0000
0000
0000
0000
0003
1002
0000
0000
0000
0000
0000
0000
0003
0001
0000
0000
0000
0000
0000
0000
0000
,  // measure 64
1000
0000
1000
0000
1000
1000
0100
0011
,  // measure 65
0011
0010
0100
1000
2000
0000
0000
3000
,  // measure 66
0002
0000
0000
0000
0000
0000
0003
0000
1000
0000
1000
0010
0100
0010
0100
0000
,  // measure 67
0001
0100
0010
0000
0100
0010
1000
0001
1000
0000
1001
0000
1010
0000
1100
0000
,  // measure 68
0101
0000
0000
1001
0000
0000
1000
0000
0100
0000
0000
0010
0000
0000
1001
0000
,  // measure 69
1001
0000
0000
1000
0000
0000
0100
0000
1000
0000
0000
1000
0000
0000
0100
0000
,  // measure 70
0011
0000
0000
1000
0000
0000
1000
0000
0000
0000
1000
0001
1000
0100
0010
0001
,  // measure 71
0020
0030
0000
0000
;
