#TITLE:TUBTHUMPING-KCP Happy Mix-;
#SUBTITLE:X-Edition;
#ARTIST:CHUMBAWAMBA;
#TITLETRANSLIT:;
#SUBTITLETRANSLIT:;
#ARTISTTRANSLIT:;
#CREDIT:;
#BANNER:tubthumpingLOGO.bmp;
#BACKGROUND:tubthumping.bmp;
#LYRICSPATH:tubthumping.lrc;
#CDTITLE:dancemania_euro_mix_happy_paradise.png;
#MUSIC:tubthumping.mp3;
#OFFSET:0.020;
#SAMPLESTART:10.060;
#SAMPLELENGTH:12.000;
#SELECTABLE:YES;
#BPMS:0.000=139.850,89.000=140.010;
#STOPS:;
#BGCHANGES:;

//---------------dance-single - ----------------
#NOTES:
     dance-single:
     :
     Challenge:
     16:
     0.990,0.907,1.000,0.045,0.691: // measure 1
0000
0000
0000
0000
,  // measure 2
0000
0000
0000
0000
,  // measure 3
0000
0000
0000
0000
0101
0000
0000
1001
0000
0000
1001
0000
0011
0000
0000
0101
,  // measure 4
0000
0000
1001
0000
0011
0000
0000
1010
0000
0000
0101
0000
1010
0000
0000
0101
,  // measure 5
0000
0000
1010
0000
0011
0000
0000
1100
0000
0000
0101
0000
1010
0000
0000
1001
,  // measure 6
0000
0000
0100
0000
0110
0000
0010
0000
0110
0000
0100
0000
0001
1000
0001
1000
,  // measure 7
0001
1000
0001
1000
0001
0000
0010
0000
0100
1000
0001
0000
0100
0001
1000
0000
,  // measure 8
1001
0000
0010
0100
0010
0100
0010
0100
0010
0000
0010
1000
0100
0000
0011
0000
,  // measure 9
1100
0000
0011
0000
1100
0000
0100
0000
0010
0000
0001
0010
0001
0010
0001
0000
,  // measure 10
1001
0000
1000
0010
1000
0010
0100
0010
1000
0100
0010
0100
1010
0000
0100
0000
,  // measure 11
0101
0000
0010
0000
1010
0000
1001
0000
1001
0000
1000
0100
0010
0001
0100
0000
,  // measure 12
1010
0000
0100
0001
0010
0100
1000
0010
1000
0100
0010
0001
0100
0001
0010
0100
,  // measure 13
0010
0100
1000
0001
0100
0000
1010
0000
0101
0000
0010
1000
0010
1000
0010
0000
,  // measure 14
1001
0000
0010
0100
1000
0100
1000
0001
0100
0001
0010
0100
0011
0000
0011
0000
,  // measure 15
1100
1100
0110
0001
0011
0011
1100
1100
,  // measure 16
0100
0010
0001
0100
1010
1010
0101
0101
,  // measure 17
0010
1000
0100
0010
0011
0011
1100
1100
,  // measure 18
0010
0100
1010
0101
0011
1010
1100
0101
,  // measure 19
0011
1010
1001
0010
1001
1001
0101
0101
,  // measure 20
0010
0001
0100
0010
1010
1010
1100
1100
,  // measure 21
0100
1000
0010
0100
0011
0011
0101
0101
,  // measure 22
0010
0000
0110
0000
1000
0100
1000
0100
0010
0001
0010
0001
0100
0001
0100
0001
,  // measure 23
1000
0010
1000
0010
1001
0000
0100
0000
0001
0000
0100
0000
0010
1000
0010
0000
,  // measure 24
1000
0010
1000
0000
0010
0000
0100
0000
0001
0000
0010
0000
0001
0100
0001
0000
,  // measure 25
0100
0001
0100
0000
1000
0000
0100
0000
0010
0000
0001
0000
0010
0001
0010
0000
,  // measure 26
0001
0010
0001
0000
0001
0000
0010
0000
0100
0000
1000
0000
1000
0010
1000
0000
,  // measure 27
0010
1000
0010
0000
0010
0001
0200
0000
0000
0310
1000
0001
0100
0010
0200
0000
,  // measure 28
0000
0301
0010
0100
1000
0010
2000
0000
0000
3000
0010
1000
0100
0010
0002
0000
,  // measure 29
0003
0001
0010
0001
0010
0100
1000
0100
0010
0001
0100
0010
0110
0000
0110
0000
,  // measure 30
0000
1000
0100
0000
0010
0001
0010
0001
0010
0001
0010
0001
0011
0000
1100
0000
,  // measure 31
0000
0001
1000
0010
0100
0010
0100
0001
,  // measure 32
0010
0001
0010
0100
1000
0100
1000
0010
,  // measure 33
0100
0010
0100
0001
0010
0100
1000
0001
,  // measure 34
0100
0001
0100
0010
1000
0100
1000
0010
,  // measure 35
0010
0000
0010
0000
1001
0000
0010
0000
0010
0001
0100
0000
0010
1000
0100
0000
,  // measure 36
1001
0000
1000
0100
0010
0001
0010
0100
1000
0000
0001
0100
1000
0000
0110
0000
,  // measure 37
1001
0000
0110
0000
1001
0000
0010
0000
0100
0000
1000
0100
0001
0100
1000
0000
,  // measure 38
1001
0000
0001
0100
0001
1000
0100
1000
0001
0100
0001
1000
0110
0000
0010
0000
,  // measure 39
1010
0000
1000
0000
1001
0000
0110
0000
0110
0000
0001
0100
1000
0100
0001
0000
,  // measure 40
1010
0000
1000
0010
1000
0001
0010
0001
1000
0010
0100
0001
1000
0100
0001
0100
,  // measure 41
1000
0010
0100
0001
1010
0000
1010
0000
0101
0000
0001
1000
0001
1000
0001
0000
,  // measure 42
1001
0000
1000
0100
0010
0001
0010
0100
0010
0100
1000
0100
1100
0000
0001
0000
,  // measure 43
0011
0001
0001
0010
1100
1100
0101
0101
,  // measure 44
0010
0100
0001
1000
0011
0011
1100
1100
,  // measure 45
0010
0100
0010
0001
0101
0101
1010
1010
,  // measure 46
0100
0001
0010
0100
0010
0100
0011
0010
,  // measure 47
1100
1000
1001
0100
1010
1010
0101
0101
,  // measure 48
0100
0010
1000
0100
1001
1001
0110
0110
,  // measure 49
0010
0000
1000
0000
0100
0010
0001
0010
0001
0010
0100
1000
0001
0100
0010
0100
,  // measure 50
0001
0010
0001
0100
0010
1000
0001
0100
0010
1000
0001
0010
0100
1000
0001
0100
,  // measure 51
0001
1000
0100
1000
1001
0000
0000
0000
1001
0000
0100
0000
0100
0000
1001
0000
;
