#VERSION:0.81;
#TITLE:TRIP MACHINE EVOLUTION;
#SUBTITLE:smm-special;
#ARTIST:DE-JAVU;
#TITLETRANSLIT:;
#SUBTITLETRANSLIT:SMM-Special;
#ARTISTTRANSLIT:;
#GENRE:;
#ORIGIN:;
#CREDIT:;
#BANNER:TRIP MACHINE EVOLUTION(SMM-Special).png;
#BACKGROUND:TRIP MACHINE EVOLUTION(SMM-Special)-bg.png;
#PREVIEWVID:;
#JACKET:;
#CDIMAGE:;
#DISCIMAGE:;
#LYRICSPATH:;
#CDTITLE:cdtitle.png;
#MUSIC:TRIP MACHINE EVOLUTION(SMM-Special).mp3;
#OFFSET:0.590;
#SAMPLESTART:11.428;
#SAMPLELENGTH:19.699;
#SELECTABLE:YES;
#BPMS:0.000=380.000,
8.000=190.000,
84.000=95.000,
86.000=190.000,
98.000=95.000,
99.250=190.000;
#STOPS:8.000=1.579,
13.000=0.237,
13.250=0.237,
13.500=0.237,
13.750=0.237,
18.000=0.237,
18.250=0.237,
18.500=0.237,
18.750=0.237,
23.000=0.237,
23.250=0.237,
23.500=0.237,
23.750=0.237,
27.500=0.940,
33.000=0.237,
33.250=0.395,
33.500=0.079,
33.750=0.237,
38.000=0.237,
38.250=0.395,
38.500=0.079,
38.750=0.237,
43.000=0.237,
43.250=0.395,
43.500=0.079,
43.750=0.237,
48.000=0.237,
48.250=0.395,
48.500=0.079,
48.750=0.237,
53.000=0.237,
53.250=0.395,
53.500=0.079,
53.750=0.237,
58.000=0.237,
58.250=0.395,
58.500=0.079,
58.750=0.237,
63.000=0.237,
63.250=0.395,
63.500=0.079,
63.750=0.237,
99.000=0.158,
99.250=0.237,
163.500=0.079,
163.750=0.079,
164.000=0.079,
164.250=0.079,
164.500=0.237,
164.750=0.079,
165.000=0.079,
165.250=0.079,
165.500=0.079,
165.750=0.237,
168.000=0.079,
168.250=0.079,
168.500=0.079,
168.750=0.079,
169.000=0.237,
169.250=0.079,
169.500=0.079,
169.750=0.079,
170.000=0.079,
170.250=0.237,
170.500=0.039,
170.625=0.039,
170.750=0.039,
170.875=0.039,
171.000=0.039,
171.125=0.039,
171.250=0.039,
171.375=0.039,
171.500=0.079,
171.750=0.079,
172.000=0.079,
172.250=0.079,
172.500=0.237,
172.750=0.079,
173.000=0.079,
173.250=0.079,
173.500=0.079,
173.750=0.237,
176.000=0.079,
176.250=0.079,
176.500=0.079,
176.750=0.079,
177.000=0.237,
177.250=0.079,
177.500=0.079,
177.750=0.079,
178.000=0.079,
178.250=0.237,
178.500=0.039,
178.625=0.039,
178.750=0.039,
178.875=0.039,
179.000=0.039,
179.125=0.039,
179.250=0.039,
179.375=0.197,
179.500=0.276,
179.625=0.276,
179.750=0.395,
184.000=0.079,
184.250=0.079,
188.500=0.079,
189.750=0.079,
191.500=0.237,
191.750=0.237,
192.000=0.237,
192.250=0.079,
192.500=0.237;
#DELAYS:;
#WARPS:;
#TIMESIGNATURES:0.000=4=4;
#TICKCOUNTS:0.000=4;
#COMBOS:0.000=1;
#SPEEDS:0.000=1.000=0.000=0;
#SCROLLS:0.000=1.000;
#FAKES:;
#LABELS:0.000=Song Start;
#BGCHANGES:298.500=TRIP MACHINE EVOLUTION-bg.png=1.000=0=0=1=====,
99999=-nosongbg-=1.000=0=0=0 // don't automatically add -songbackground-
;
#KEYSOUNDS:;
#ATTACKS:
;

//---------------dance-single - ----------------
#NOTEDATA:;
#CHARTNAME:;
#STEPSTYPE:dance-single;
#DESCRIPTION:;
#CHARTSTYLE:;
#DIFFICULTY:Challenge;
#METER:18;
#RADARVALUES:1.000,1.000,1.000,0.303,1.000,713.000,137.000,31.000,3.000,0.000,14.000,0.000,0.000,1.000,1.000,1.000,0.303,1.000,713.000,137.000,31.000,3.000,0.000,14.000,0.000,0.000;
#CREDIT:;
#OFFSET:0.590;
#BPMS:0.000=380.000
,8.000=190.000
,84.000=95.000
,86.000=190.000
,98.000=95.000
,99.250=190.000
,191.500=380.000
,198.500=190.000
,205.750=380.000
,212.750=190.000
,238.250=95.000
;
#STOPS:8.000=1.579
,13.000=0.237
,13.250=0.237
,13.500=0.237
,13.750=0.237
,18.000=0.237
,18.250=0.237
,18.500=0.237
,18.750=0.237
,23.000=0.237
,23.250=0.237
,23.500=0.237
,23.750=0.237
,27.500=0.940
,33.000=0.237
,33.250=0.395
,33.500=0.079
,33.750=0.237
,38.000=0.237
,38.250=0.395
,38.500=0.079
,38.750=0.237
,43.000=0.237
,43.250=0.395
,43.500=0.079
,43.750=0.237
,48.000=0.237
,48.250=0.395
,48.500=0.079
,48.750=0.237
,53.000=0.237
,53.250=0.395
,53.500=0.079
,53.750=0.237
,58.000=0.237
,58.250=0.395
,58.500=0.079
,58.750=0.237
,63.000=0.237
,63.250=0.395
,63.500=0.079
,63.750=0.237
,99.000=0.158
,99.250=0.237
,163.500=0.079
,163.750=0.079
,164.000=0.079
,164.250=0.079
,164.500=0.237
,164.750=0.079
,165.000=0.079
,165.250=0.079
,165.500=0.079
,165.750=0.237
,168.000=0.079
,168.250=0.079
,168.500=0.079
,168.750=0.079
,169.000=0.237
,169.250=0.079
,169.500=0.079
,169.750=0.079
,170.000=0.079
,170.250=0.237
,170.500=0.039
,170.625=0.039
,170.750=0.039
,170.875=0.039
,171.000=0.039
,171.125=0.039
,171.250=0.039
,171.375=0.039
,171.500=0.079
,171.750=0.079
,172.000=0.079
,172.250=0.079
,172.500=0.237
,172.750=0.079
,173.000=0.079
,173.250=0.079
,173.500=0.079
,173.750=0.237
,176.000=0.079
,176.250=0.079
,176.500=0.079
,176.750=0.079
,177.000=0.237
,177.250=0.079
,177.500=0.079
,177.750=0.079
,178.000=0.079
,178.250=0.237
,178.500=0.039
,178.625=0.039
,178.750=0.039
,178.875=0.039
,179.000=0.039
,179.125=0.039
,179.250=0.039
,179.375=0.197
,179.500=0.276
,179.625=0.276
,179.750=0.395
,184.000=0.079
,184.250=0.079
,184.500=0.079
,187.250=0.079
,187.500=0.079
,187.750=0.079
,188.000=0.079
,188.250=0.079
,188.500=0.079
,190.250=0.237
,190.500=0.237
,190.750=0.237
,191.000=0.079
,191.250=0.237
,198.500=0.237
,198.750=0.079
,199.000=0.079
,199.250=0.079
,199.500=0.079
,199.750=0.079
,204.500=0.237
,204.750=0.237
,205.000=0.237
,205.250=0.079
,205.500=0.237
,212.750=0.237
,213.000=0.079
,213.250=0.079
,213.500=0.079
,213.750=0.079
,214.000=0.079
,215.250=0.079
,216.500=0.079
,216.750=0.079
,221.500=0.079
,225.250=0.079
,229.000=0.039
,230.875=0.039
,232.750=0.039
,233.625=0.039
,234.500=0.039
,234.625=0.039
,234.750=0.039
,234.875=0.039
,235.000=0.039
,235.125=0.039
,235.250=0.039
,235.375=0.039
,235.500=0.079
,235.750=0.079
,237.000=0.079
,237.250=0.079
,237.500=0.079
;
#DELAYS:;
#WARPS:;
#TIMESIGNATURES:0.000=4=4
;
#TICKCOUNTS:0.000=4
;
#COMBOS:0.000=1
;
#SPEEDS:0.000=1.000=0.000=0
;
#SCROLLS:0.000=1.000
;
#FAKES:;
#LABELS:0.000=Song Start
;
#NOTES:
// measure 0
0000
0000
0000
0000
,  // measure 1
0000
0000
0000
0000
0000
0000
0000
0000
0000
0000
0000
0000
0000
1000
0100
0010
,  // measure 2
0004
0003
0000
0000
1000
0010
0100
0010
1000
0001
0010
0100
0010
0001
1000
0010
,  // measure 3
0100
0010
1000
0000
1010
0101
0011
1010
0001
0010
0100
1000
0010
0000
0100
0010
,  // measure 4
0100
0010
1000
0001
0010
0100
0010
0000
1100
0011
0101
1010
0100
0010
0001
0100
,  // measure 5
0010
0000
0100
0010
1000
0001
0100
0010
1000
0000
0100
0010
0011
1100
1010
0101
,  // measure 6
1000
0100
0010
0001
0010
0100
1000
0010
0100
0001
0010
0001
0100
0010
0440
0000
,  // measure 7
0000
0000
0000
0330
0010
0100
0001
0010
0100
0000
1000
0010
0100
0001
0010
0000
,  // measure 8
0010
0001
0100
0001
1000
1010
0001
0101
1000
0100
0001
0100
1000
0000
0001
0010
,  // measure 9
1000
0010
0001
0000
0100
0010
0100
0001
0100
0101
0010
1010
0010
1000
0100
1000
,  // measure 10
0010
0100
0001
0010
1000
0010
0001
0100
1000
0100
0001
0010
0100
1100
0010
0011
,  // measure 11
0100
0010
1000
0100
1000
1000
0001
0100
0010
0010
0100
0001
0010
0100
1000
0001
,  // measure 12
0100
1001
0010
1001
0001
1000
0100
0001
0100
0000
0010
0001
0100
0001
0010
0000
,  // measure 13
0001
1000
0100
0000
0010
0011
0100
1100
0001
0010
1000
0010
0001
0100
1000
0100
,  // measure 14
0010
1000
0100
0001
0100
1000
0010
0100
0001
0101
1000
1010
0100
0001
0010
1000
,  // measure 15
0010
0001
0100
0010
1000
0001
0010
1000
0010
0001
0100
1000
0100
0110
0010
0110
,  // measure 16
0010
1000
0010
0001
0010
1000
0010
0001
0010
1000
0100
0010
0001
0100
0010
0100
,  // measure 17
0010
0010
1010
0100
0101
0110
2002
3003
,  // measure 18
1000
0010
0001
0010
1000
0000
1000
0100
0001
0100
1000
0000
1000
0010
0001
0010
,  // measure 19
1000
0000
1000
0100
0001
0100
1000
0100
0010
0100
0010
0100
0001
0010
0001
0010
,  // measure 20
0001
0010
1000
0010
0001
0000
0001
0100
1000
0100
0001
0000
0001
0010
1000
0010
,  // measure 21
0001
0100
0010
1000
0001
0010
0100
0010
0001
0010
0100
1000
1000
0000
1000
0100
,  // measure 22
0010
0001
0001
0000
0001
0010
0100
1000
1000
0000
1000
0100
0010
0001
0001
0100
,  // measure 23
0100
0010
1000
0001
0100
0100
0010
1000
0100
0010
0001
0010
0100
0000
1000
0100
,  // measure 24
0010
0100
1000
0000
0001
0010
0100
0010
0004
0000
0000
0003
1010
0101
2000
0000
,  // measure 25
3010
1010
0010
0200
0301
0101
0001
0020
,  // measure 26
0130
0000
0110
0000
1000
0000
0010
0100
0001
0001
0010
1000
0010
0001
0200
0000
,  // measure 27
0310
0110
1000
0020
0130
0101
0010
2000
,  // measure 28
3010
0000
1100
0000
1000
0000
0010
0010
1000
0001
0100
1000
0100
0001
0200
0000
,  // measure 29
0301
1010
0010
2000
3010
1010
0100
0020
,  // measure 30
0031
0000
0011
0000
1000
0000
1000
0100
0001
0100
1000
0100
0001
0100
2000
0000
,  // measure 31
3010
1010
0100
0002
1003
1010
0100
2000
,  // measure 32
3100
0000
0011
0000
0001
0000
0001
0010
1000
0010
0001
0100
1000
0100
1001
0000
,  // measure 33
0010
2000
3010
0200
0301
0101
0001
0020
,  // measure 34
1030
0000
0110
0000
1000
0000
0010
1000
1000
0001
0001
0100
0010
1000
0200
0000
,  // measure 35
0310
0110
1000
0020
0130
1001
0001
0200
,  // measure 36
0310
0000
0110
0000
1000
0000
1000
0100
0001
0100
1000
0010
0100
0001
0200
0000
,  // measure 37
0310
1001
0010
2000
3010
0101
1000
0020
,  // measure 38
0130
0000
0110
0000
1000
0000
0100
1000
0001
0001
0100
0010
0100
0001
4000
0000
,  // measure 39
0010
0000
3010
0000
0100
0000
0004
0000
0100
0000
0103
0000
0010
0000
1000
0010
,  // measure 40
0100
0001
0100
0010
1000
0100
0010
1001
0010
0100
1000
0010
0100
0001
0101
1010
,  // measure 41
1001
0110
0011
1010
0110
1001
0110
1010
0440
0000
0000
0000
0000
0000
0330
0000
,  // measure 42
0110
0000
1010
0000
0101
0000
1001
0000
0110
0000
0011
0000
1100
0000
0110
0000
0011
0000
1100
0000
1000
0100
0010
0001
1000
0100
0010
0001
0101
0000
1010
0000
,  // measure 43
0101
1010
0101
0011
1100
0011
1100
0011
4004
0000
0000
0000
0000
0000
3003
0000
,  // measure 44
1010
0000
0000
0000
0000
0000
0000
0000
0000
0000
0000
0000
0110
0000
0000
0000
0000
0000
0000
0000
0000
0000
0000
0000
0011
0000
0000
0000
0000
0000
0000
0000
0000
0000
0000
0000
0101
0000
0000
0000
0000
0000
0000
0000
0000
0000
0000
0000
2200
3300
0000
0000
0000
0000
0000
0000
0000
0000
0000
0000
1010
0000
0000
0000
0000
0000
0000
0000
0000
0000
0000
0000
0101
0000
0000
0000
0000
0000
0000
0000
0000
0000
0000
0000
0110
0000
0000
0000
0000
0000
0000
0000
0000
0000
0000
0000
1001
0000
0000
0000
0000
0000
0000
0000
0000
0000
0000
0000
0220
0330
0000
0000
0000
0000
0000
0000
0000
0000
0000
0000
0001
0000
0000
0000
0000
0000
0010
0000
0000
0000
0000
0000
0100
0000
0000
0000
0000
0000
1000
0000
0000
0000
0000
0000
0001
0000
0000
0000
0000
0000
0010
0000
0000
0000
0000
0000
0100
0000
0000
0000
0000
0000
1000
0000
0000
0MMM
0000
0000
1010
0000
0000
0000
0000
0000
0110
0000
0000
0000
0000
0000
2002
3003
0000
0000
0000
0000
0000
0000
0000
0000
0000
0000
,  // measure 45
0400
0000
0000
0000
0310
0000
1000
0000
0010
0000
0100
0000
0001
0000
0010
0100
,  // measure 46
1000
1000
1100
0100
0000
0001
0010
0100
1000
0010
0100
0001
1000
0100
0100
0110
,  // measure 47
1000
0100
1001
1000
0100
0010
0001
0001
0000
1001
1010
0110
1001
0101
0400
0000
,  // measure 48
0000
0000
0000
0000
,  // measure 49
0000
0000
0000
0000
0000
0000
0000
0000
0000
0000
0300
1010
0101
1001
0110
1001
,  // measure 50
0010
0100
0001
1000
0010
1000
0001
0100
0001
0010
1000
0010
0001
0010
0100
1000
,  // measure 51
1000
0000
1010
0011
1010
1001
0110
0440
0000
0000
0000
0000
0000
0000
0000
0000
,  // measure 52
0000
0000
0000
0000
,  // measure 53
0000
0000
0000
0330
0100
1001
0010
1001
0100
1000
0000
0010
0000
0110
0100
0000
,  // measure 54
0001
0000
0011
1100
0100
0000
0010
0001
0100
0010
1000
0001
0100
1000
0100
0001
,  // measure 55
0010
0100
1000
0001
0010
0100
1001
0010
0000
0010
0000
0001
0000
1000
0010
1000
,  // measure 56
0010
0100
0001
0010
0001
1001
0010
0000
0010
0000
1000
0000
0100
0001
1000
0100
,  // measure 57
0010
0000
0001
0000
0100
0000
0010
0000
0110
1000
0000
0010
0000
1000
0000
0010
0000
1000
0000
0010
0000
1000
0000
0110
0001
0000
0100
0000
0001
0000
0100
0000
,  // measure 58
0001
0000
0100
0000
0001
0000
0110
0001
0000
1000
0000
0001
0000
0110
1000
0000
0001
0000
1000
0000
0010
0100
0010
0100
0010
0100
0010
0100
0110
0000
1001
0000
,  // measure 59
0011
0000
1000
0100
0011
1001
1010
0100
0010
2002
0000
0000
3003
0000
0000
0000
;

//---------------dance-double - ----------------
#NOTEDATA:;
#CHARTNAME:;
#STEPSTYPE:dance-double;
#DESCRIPTION:;
#CHARTSTYLE:;
#DIFFICULTY:Challenge;
#METER:19;
#RADARVALUES:1.000,1.000,1.000,0.342,1.000,711.000,136.000,35.000,205.000,0.000,2.000,0.000,0.000,1.000,1.000,1.000,0.342,1.000,711.000,136.000,35.000,205.000,0.000,2.000,0.000,0.000;
#CREDIT:;
#OFFSET:0.590;
#BPMS:0.000=380.000
,8.000=190.000
,84.000=95.000
,86.000=190.000
,98.000=95.000
,99.250=190.000
,191.500=380.000
,198.500=190.000
,205.750=380.000
,212.750=190.000
,238.250=95.000
;
#STOPS:8.000=1.579
,13.000=0.237
,13.250=0.237
,13.500=0.237
,13.750=0.237
,18.000=0.237
,18.250=0.237
,18.500=0.237
,18.750=0.237
,23.000=0.237
,23.250=0.237
,23.500=0.237
,23.750=0.237
,27.500=0.940
,33.000=0.237
,33.250=0.395
,33.500=0.079
,33.750=0.237
,38.000=0.237
,38.250=0.395
,38.500=0.079
,38.750=0.237
,43.000=0.237
,43.250=0.395
,43.500=0.079
,43.750=0.237
,48.000=0.237
,48.250=0.395
,48.500=0.079
,48.750=0.237
,53.000=0.237
,53.250=0.395
,53.500=0.079
,53.750=0.237
,58.000=0.237
,58.250=0.395
,58.500=0.079
,58.750=0.237
,63.000=0.237
,63.250=0.395
,63.500=0.079
,63.750=0.237
,99.000=0.158
,99.250=0.237
,163.500=0.079
,163.750=0.079
,164.000=0.079
,164.250=0.079
,164.500=0.237
,164.750=0.079
,165.000=0.079
,165.250=0.079
,165.500=0.079
,165.750=0.237
,168.000=0.079
,168.250=0.079
,168.500=0.079
,168.750=0.079
,169.000=0.237
,169.250=0.079
,169.500=0.079
,169.750=0.079
,170.000=0.079
,170.250=0.237
,170.500=0.039
,170.625=0.039
,170.750=0.039
,170.875=0.039
,171.000=0.039
,171.125=0.039
,171.250=0.039
,171.375=0.039
,171.500=0.079
,171.750=0.079
,172.000=0.079
,172.250=0.079
,172.500=0.237
,172.750=0.079
,173.000=0.079
,173.250=0.079
,173.500=0.079
,173.750=0.237
,176.000=0.079
,176.250=0.079
,176.500=0.079
,176.750=0.079
,177.000=0.237
,177.250=0.079
,177.500=0.079
,177.750=0.079
,178.000=0.079
,178.250=0.237
,178.500=0.039
,178.625=0.039
,178.750=0.039
,178.875=0.039
,179.000=0.039
,179.125=0.039
,179.250=0.039
,179.375=0.197
,179.500=0.276
,179.625=0.276
,179.750=0.395
,184.000=0.079
,184.250=0.079
,184.500=0.079
,187.250=0.079
,187.500=0.079
,187.750=0.079
,188.000=0.079
,188.250=0.079
,188.500=0.079
,190.250=0.237
,190.500=0.237
,190.750=0.237
,191.000=0.079
,191.250=0.237
,198.750=0.079
,199.000=0.079
,199.250=0.079
,199.500=0.079
,199.750=0.079
,204.500=0.237
,204.750=0.237
,205.000=0.237
,205.250=0.079
,205.500=0.237
,213.000=0.079
,213.250=0.079
,213.500=0.079
,213.750=0.079
,214.000=0.079
,215.250=0.079
,216.500=0.079
,216.750=0.079
,221.500=0.079
,225.250=0.079
,229.000=0.039
,230.875=0.039
,232.750=0.039
,233.625=0.039
,234.500=0.039
,234.625=0.039
,234.750=0.039
,234.875=0.039
,235.000=0.039
,235.125=0.039
,235.250=0.039
,235.375=0.039
,235.500=0.079
,235.750=0.079
,237.000=0.079
,237.250=0.079
,237.500=0.079
;
#DELAYS:198.500=0.237
,212.750=0.237
;
#WARPS:;
#TIMESIGNATURES:0.000=4=4
;
#TICKCOUNTS:0.000=4
;
#COMBOS:0.000=1
;
#SPEEDS:0.000=1.000=0.000=0
;
#SCROLLS:0.000=1.000
;
#FAKES:;
#LABELS:0.000=Song Start
;
#NOTES:
00000000
00000000
00000000
00000000
,
00000000
00000000
00000000
00000000
00000000
00000000
00000000
00000000
00000000
00000000
00000000
00000000
00000000
10000000
01000000
00100000
,
00020000
00030000
00000000
00000000
10000000
00100000
01000000
00010000
00100000
00001000
00010000
00000100
00010000
00001000
00100000
00010000
,
01000000
00100000
10000000
00000000
10100000
01010000
00011000
00001010
00000001
00000010
00000100
00001000
00000001
00000000
00001000
00000100
,
00010000
00001000
00100000
00000100
00010000
00000010
00000100
00000000
00000011
00010100
01001000
10100000
00010000
00100000
01000000
10000000
,
00100000
00000000
10000000
01000000
00100000
00010000
00001000
00000100
00001000
00000000
00000100
00000010
00000011
00001100
00100100
01001000
,
00001000
00100000
00010000
10000000
01000000
00010000
00001000
00000010
00000001
00000100
00001000
00010000
00100000
01000000
04400000
00000000
,
00000000
00000000
00000000
03300000
00010000
00001000
00000100
00000010
00010000
00000000
00000010
00000100
00000001
00000010
00000000
00000000
,
00100000
00001000
01000000
00001000
10000000
10100000
00001000
01001000
00010000
00001000
00000100
00001000
00010000
00000000
00010000
00001000
,
00000010
00001000
00010000
00000000
00010000
00100000
01000000
10000000
10000000
10100000
00010000
00011000
00000100
00000010
00000001
00001000
,
00000100
00010000
00000100
00100000
00001000
01000000
00100000
10000000
01000000
00010000
00000100
00000010
00000001
00010100
00100000
00101000
,
10000000
01000000
00100000
00010000
00100000
01000000
00100000
00010000
00100000
00100000
00010000
00001000
00000100
00000010
00000001
00000010
,
00000100
00100100
00010000
01001000
00001000
00100000
01000000
00100000
00001000
00000000
00100000
00001000
00000100
00001000
00100000
00000000
,
00010000
10000000
01000000
00000000
00010000
00010100
00001000
00001001
00000001
00000100
00001000
00010000
01000000
10000000
00100000
10000000
,
01000000
00100000
00010000
00100000
00001000
00010000
00000100
00000010
00000010
00000110
00010000
00010100
00000001
00000010
00000100
00001000
,
00010000
00100000
01000000
10000000
00100000
10000000
01000000
00100000
00010000
00001000
00000100
00000010
00000001
00010010
00000100
00011000
,
00001000
01000000
10000000
01000000
00001000
01000000
10000000
01000000
00010000
00100000
01000000
00010000
00000100
00010000
01000000
10000000
,
00010000
00010000
01010000
00001000
00011000
00001100
00022000
00033000
,
00000001
00000100
00001000
00000100
00000001
00000000
00000001
00000010
00001000
00000010
00000001
00000000
00000001
00000100
00001000
00000100
,
00000001
00000000
00000001
00000010
00000001
00000010
00000100
00010000
00000100
00010000
00001000
01000000
00001000
01000000
00100000
01000000
,
00010000
00100000
10000000
00100000
00010000
00000000
00010000
01000000
10000000
01000000
00010000
00000000
00010000
00100000
10000000
00100000
,
00010000
00001000
00000100
00000001
00000010
00001000
00010000
00100000
00010000
00100000
01000000
10000000
10000000
00000000
01000000
00100000
,
00010000
00001000
00001000
00000000
00000100
00001000
00010000
00100000
00100000
00000000
01000000
00100000
00010000
00001000
00001000
00000100
,
00000100
00010000
00001000
00010000
01000000
01000000
10000000
00100000
01000000
00001000
00100000
00001000
00010000
00000000
00000010
00001000
,
00100000
00001000
00000010
00000000
00100000
00001000
00000010
00001000
00200000
00000000
00000000
00300000
10100000
01010000
01000000
00000000
,
01000000
01010000
00001000
00020000
00030100
00000100
00000010
00000002
,
00000013
00000000
00000110
00000000
00000010
00000000
00000010
00000100
00000001
00000010
00000100
00010000
00001000
01000000
00200000
00000000
,
01300000
01100000
10000000
00020000
01030000
01010000
00100000
00002000
,
00013000
00000000
00001100
00000000
00000100
00000000
00000010
00000010
00000001
00000100
00001000
00010000
00100000
10000000
02000000
00000000
,
03100000
00110000
00010000
00020000
00030100
00001100
00001000
00002000
,
00003010
00000000
00001010
00000000
00001000
00000000
00001000
01000000
10000000
01000000
00001000
01000000
10000000
01000000
00020000
00000000
,
00130000
00110000
00100000
00002000
00013000
00001010
00001000
00002000
,
00003100
00000000
00010100
00000000
00010000
00000000
00000100
00000010
00000001
00000010
00000100
00000010
00000001
00000010
00001001
00000000
,
00000100
00020000
00031000
00002000
01003000
01010000
00010000
20000000
,
30100000
00000000
01010000
00000000
10000000
00000000
10000000
01000000
00100000
00010000
01000000
00100000
10000000
01000000
00020000
00000000
,
00031000
00001100
00000010
00000020
00000031
00001010
00001000
00002000
,
00003100
00000000
00010100
00000000
00001000
00000000
00010000
01000000
00010000
01000000
00100000
10000000
01000000
00010000
00000200
00000000
,
00010300
01001000
00100000
20000000
30100000
01010000
00010000
00200000
,
00301000
00000000
00010010
00000000
00000100
00000000
00000010
00000100
00001000
00010000
01000000
10000000
00010000
00100000
00002000
00000000
,
00010000
00000000
00013000
00000000
00011000
00000000
00020000
00000000
00001000
00000000
00031000
00000000
00011000
00000000
00001000
00010000
,
00000100
00000010
00000001
00000010
00000100
00000010
00000001
00001000
00000100
00010000
00001000
00100000
01000000
10000000
10010MM0
00110MM0
,
00011MM0
0MM01100
0MM00110
0MM00011
0MM00110
0MM10100
00101MM0
01010MM0
02200MM0
00000000
00000000
M00MMMMM
00000000
00000000
03300000
00000000
,
01100MM0
00000000
10010MM0
00000000
00101MM0
00000000
0MM10100
00000000
0MM01100
00000000
0MM00110
00000000
00011MM0
00000000
01010MM0
00000000
00110MM0
00000000
11000MM0
00000000
10000MM0
01000000
00100000
00010000
00001000
00000100
00000010
00000001
0MM00101
00000000
0MM01010
00000000
,
0MM10100
00101MM0
10010MM0
00110MM0
0MM10100
0MM00011
0MM01100
00011000
02M002M0
00M000M0
00M000M0
00M000M0
00M000M0
00M000M0
03M003M0
00000000
,
00011MM0
00000000
00000000
00000000
01010MM0
00000000
00000000
00000000
10100MM0
00000000
00000000
00000000
01010MM0
00000000
00000000
00000000
00101MM0
00000000
00000000
00000000
0MM10010
00000000
00000000
00000000
0MM00101
00000000
00000000
00000000
01001MM0
00000000
00000000
00000000
10100MM0
00000000
00000000
00000000
01010MM0
00000000
00000000
00000000
10000MM0
00000000
01000000
00000000
00100MM0
00000000
00010000
00000000
00001000
00000000
00000100
00000000
00000010
00000000
00000001
MMMM0000
MMMM0110
MMMM0000
MMMM1001
MMMM0000
MMMM0110
00000000
00000000
00000000
,
00000200
00000000
00000310
00001000
00000100
00000010
00000001
00000100
,
00000010
00001000
00001100
00000100
00000000
00001000
00000100
00000010
00000001
00000010
00000001
00000100
00000010
00001000
00000100
00001100
,
00010000
00010000
00101000
10000000
01000000
00100000
00010000
00010000
00000000
00110000
00010100
00001010
00000110
00001001
00000200
00000000
,
00000000
00000000
00000000
00M00000
00M00000
00M00000
00M00000
00M00000
00000000
00000000
MMMMM000
00M00000
00M00000
00M00000
00M00000
00000000
,
00000000
00MMM000
0M000000
M0000000
M00MM000
0M00M000
0MM0M000
00MMM000
00000000
00000000
00000300
00001010
00000101
00001001
00000110
00001001
,
00000100
00010000
00001000
00100000
00010000
01000000
00100000
10000000
01000000
00100000
00001000
00010000
00000100
00000010
00000001
00001000
,
00000010
00000000
00000110
00100100
01000010
00011000
00001100
00000002
00000000
00000000
0M000M00
M0M0M0M0
00000000
00000000
00MMM000
00M0M000
,
00MMM000
00M00000
00M00000
00M00000
00M00000
00M00000
00M00000
00M00000
00M00000
00M00000
00M00000
00M00000
00M00000
00M00000
00M00000
00M00000
,
00M00000
00M00000
MMMMMMM0
MMMMMMM3
00000010
00001001
00000100
00001001
00000010
00000100
00000000
00010000
00000000
00011000
00001000
00000000
,
00010000
00000000
00100100
00101000
00010000
00000000
00001000
00000010
00000001
00000100
00001000
00010000
01000000
10000000
00100000
00010000
,
00000100
00000010
00000001
00000100
00001000
00100000
10010000
01000000
00000000
01000000
00000000
01000000
00000000
00100000
00010000
00100000
,
00010000
01000000
00001000
01000000
00001000
00011000
00000100
00000000
00000100
00000000
00000100
00000000
00000001
00000010
00000100
00001000
,
00000001
00000000
00000010
00000000
00000100
00000000
00001000
00000000
00011000
00010000
00000000
00001000
00000000
00010000
00000000
00001000
00000000
00010000
00000000
00001000
00000000
00010000
00000000
00011000
00001000
00000000
00010000
00000000
00001000
00000000
00010000
00000000
,
00001000
00000000
00010000
00000000
00001000
00000000
00011000
00010000
00000000
00001000
00000000
00010000
00000000
00011000
00001000
00000000
00010000
00000000
00001000
00000000
10000000
01000000
00100000
00010000
00001000
00000100
00000010
00000001
00001001
00000000
00010100
00000000
,
01001000
00000000
10000000
01000000
00110000
00001100
00010010
00000100
00000010
00002002
00000000
00003003
00000000
00000000
00000000
00000000
;
