#VERSION:0.83;
#TITLE:TRIP MACHINE;
#SUBTITLE:(LuvMIX);
#ARTIST:2MB;
#TITLETRANSLIT:;
#SUBTITLETRANSLIT:;
#ARTISTTRANSLIT:;
#GENRE:;
#ORIGIN:;
#CREDIT:;
#BANNER:TRIP MACHINE (LuvMIX).png;
#BACKGROUND:TRIP MACHINE (LuvMIX)-bg.png;
#PREVIEWVID:;
#JACKET:;
#CDIMAGE:;
#DISCIMAGE:;
#LYRICSPATH:;
#CDTITLE:;
#MUSIC:TRIP MACHINE (LuvMIX).mp3;
#OFFSET:-2.156000;
#SAMPLESTART:56.070000;
#SAMPLELENGTH:11.959999;
#SELECTABLE:YES;
#BPMS:0.000=160.180;
#STOPS:;
#DELAYS:;
#WARPS:;
#TIMESIGNATURES:0.000=4=4;
#TICKCOUNTS:0.000=4;
#COMBOS:0.000=1;
#SPEEDS:0.000=1.000=0.000=0;
#SCROLLS:0.000=1.000;
#FAKES:;
#LABELS:0.000=Song Start;
#BGCHANGES:;
#KEYSOUNDS:;
#ATTACKS:
;

//---------------dance-single - TRIP MASHING----------------
#NOTEDATA:;
#CHARTNAME:TRIP MACHINE;
#STEPSTYPE:dance-single;
#DESCRIPTION:TRIP MASHING;
#CHARTSTYLE:Keyboard;
#DIFFICULTY:Edit;
#METER:514;
#RADARVALUES:0.917197,1.099549,1.864287,0.000000,0.014268,675.000000,367.000000,196.000000,0.000000,0.000000,63.000000,19.000000,0.000000,0.000000,0.917197,1.099549,1.864287,0.000000,0.014268,675.000000,367.000000,196.000000,0.000000,0.000000,63.000000,19.000000,0.000000,0.000000;
#CREDIT:koi;
#NOTES:
// measure 0
1111
0000
0110
0000
,  // measure 1
1111
0000
1001
0000
,  // measure 2
1111
0000
0101
0000
,  // measure 3
1111
0000
1010
0000
,  // measure 4
1111
0000
0101
0110
1010
0000
0010
1100
,  // measure 5
1111
0101
0110
0000
0111
1110
0100
0000
,  // measure 6
1111
0000
0110
0000
1001
0000
0110
1100
,  // measure 7
1111
0010
0010
0000
0110
0111
1110
0000
,  // measure 8
1111
0000
0000
0000
1001
0000
0110
1100
,  // measure 9
1111
0100
0100
0000
1110
1011
0111
0000
,  // measure 10
1111
0000
1000
0010
1001
0000
0010
0100
,  // measure 11
1111
0010
0000
0001
1100
0011
1100
0000
,  // measure 12
0000
0010
1000
0001
0000
0001
0100
1000
,  // measure 13
0000
0010
0001
1000
0000
1000
0100
0001
,  // measure 14
0000
0010
1000
0100
0000
0001
0100
0001
,  // measure 15
0000
0001
1000
1000
0011
0000
1100
0000
,  // measure 16
1111
0010
0001
1000
0110
1000
0100
0001
,  // measure 17
1111
0010
1000
0001
1001
0001
0100
1000
,  // measure 18
1111
0010
0001
0100
0110
1000
0100
1000
,  // measure 19
1111
1000
0001
0001
0110
0000
1001
0000
,  // measure 20
1111
0010
0100
0010
0110
0010
0010
0000
,  // measure 21
1111
0000
0000
0000
0001
1000
0001
1000
,  // measure 22
1111
0000
0110
0100
,  // measure 23
1111
0000
0000
0000
1010
0001
1000
0001
,  // measure 24
1111
1000
0001
0000
0101
0100
1000
0000
,  // measure 25
1111
0001
1000
0000
1100
0100
0001
0000
,  // measure 26
1111
1000
0100
0000
1001
0100
0001
0000
,  // measure 27
1111
0001
1000
1000
0011
0000
1100
0000
,  // measure 28
1111
0010
0001
1000
0110
1000
0100
0001
,  // measure 29
1111
0010
1000
0001
0000
0001
0100
1000
,  // measure 30
1111
0010
0001
0100
0101
1000
0100
1000
,  // measure 31
1111
1000
0001
0001
1010
0000
0101
0000
,  // measure 32
1111
0000
1011
0000
,  // measure 33
1111
0000
0010
0010
1010
1000
0100
0000
,  // measure 34
1111
0000
0000
0000
0101
0010
0000
0010
,  // measure 35
1111
0001
0000
0010
0100
0000
0101
0000
,  // measure 36
1111
0110
1001
1001
,  // measure 37
1111
0000
1100
0000
0011
1000
1010
0001
,  // measure 38
1111
0000
1110
0000
0111
0100
1011
0001
,  // measure 39
1111
1101
0111
1110
,  // measure 40
1111
0000
0000
0000
0000
1000
0000
0001
,  // measure 41
1111
0000
0000
0000
0000
0000
0000
0000
0000
0000
0000
0000
0000
0000
0000
0000
0000
0000
0000
0000
0000
0000
0000
0000
0000
0000
0000
0000
0000
0000
0000
0000
1000
0000
0000
0000
0001
0000
0000
0000
1000
0000
0001
0000
0000
1000
0000
0000
,  // measure 42
0001
0000
0000
0000
0000
0010
0000
0010
,  // measure 43
1111
0001
1000
0100
0101
0000
0000
0000
,  // measure 44
1111
0000
0010
1000
0110
0000
0001
0010
,  // measure 45
1111
1000
0100
0000
1000
0100
0010
0001
,  // measure 46
1111
0000
0010
0001
0100
0000
1000
0010
,  // measure 47
1111
0001
0010
0000
0001
0100
0010
1000
,  // measure 48
1111
0000
0010
1000
0100
0000
0001
0010
,  // measure 49
1111
1100
0110
0000
1010
0100
0011
0001
,  // measure 50
1111
0000
0010
0001
0100
0000
1000
0010
,  // measure 51
1111
0001
0110
0000
0101
1100
0110
1001
,  // measure 52
0011
0101
0011
0101
1100
0011
1100
0011
,  // measure 53
0101
0011
0101
1010
0110
0011
1100
1001
,  // measure 54
0011
1010
1010
0101
1100
0011
1100
0011
,  // measure 55
0101
0011
0101
0110
1001
0101
0011
0110
,  // measure 56
0011
1100
0011
1100
0011
0110
0011
0110
,  // measure 57
1100
0110
1100
1001
0110
1001
0110
1001
,  // measure 58
1010
0110
0011
1100
0011
0110
0011
0110
,  // measure 59
1010
0011
1010
0011
0101
0100
1000
0010
,  // measure 60
0011
4400
0000
0000
0000
0000
3300
0000
,  // measure 61
1001
0440
0000
0330
0110
4004
0000
3003
,  // measure 62
1010
0404
0000
0000
0000
0000
0303
0000
,  // measure 63
1111
4000
3004
4003
3004
4003
3000
0000
,  // measure 64
1100
0044
0000
0000
0000
0033
0011
4444
,  // measure 65
0000
0000
0000
0000
,  // measure 66
0000
0000
0000
0000
,  // measure 67
0000
0000
0000
0000
,  // measure 68
3333
0000
0000
0000
;

//---------------dance-single - koi----------------
#NOTEDATA:;
#CHARTNAME:;
#STEPSTYPE:dance-single;
#DESCRIPTION:koi;
#CHARTSTYLE:;
#DIFFICULTY:Easy;
#METER:1;
#RADARVALUES:0.000000,0.000000,0.000000,0.000000,0.023779,0.000000,0.000000,0.000000,0.000000,36.000000,0.000000,0.000000,0.000000,0.000000,0.000000,0.000000,0.000000,0.000000,0.023779,0.000000,0.000000,0.000000,0.000000,36.000000,0.000000,0.000000,0.000000,0.000000;
#CREDIT:;
#NOTES:
0000
0000
0000
0000
,
0000
0000
0000
0000
,
0000
0000
0000
0000
,
0000
0000
0000
0000
,
0000
0000
0000
0000
,
0000
0000
0000
0000
,
0000
0000
0000
0000
,
0000
0000
0000
0000
,
0000
0000
0000
0000
,
0000
0000
0000
0000
,
0000
0000
0000
0000
,
0000
0000
0000
0000
,
0000
0000
0000
0000
,
0000
0000
0000
0000
,
0000
0000
0000
0000
,
0000
0000
0000
0000
,
0000
0000
0000
0000
,
0000
0000
0000
0000
,
0000
0000
0000
0000
,
0000
0000
0000
0000
,
0000
0000
0000
0000
,
0000
0000
0000
0000
,
0000
0000
0000
0000
,
0000
0000
0000
0000
,
0000
0000
0000
0000
,
0000
0000
0000
0000
,
0000
0000
0000
0000
,
0000
0000
0000
0000
,
0000
0000
0000
0000
,
0000
0000
0000
0000
,
0000
0000
0000
0000
,
0000
0000
0000
0000
,
0000
0000
0000
0000
,
0000
0000
0000
0000
,
0000
0000
0000
0000
,
0000
0000
0000
0000
,
0000
0000
0000
0000
,
0000
0000
0000
0000
,
0000
0000
0000
0000
,
0000
0000
0000
0000
,
0000
0000
0000
0000
,
0000
0000
0000
0000
,
0000
0000
0000
0000
,
0000
0000
0000
0000
,
0000
0000
0000
0000
,
0000
0000
0000
0000
,
0000
0000
0000
0000
,
0000
0000
0000
0000
,
0000
0000
0000
0000
,
0000
0000
0000
0000
,
0000
0000
0000
0000
,
0000
0000
0000
0000
,
0000
0000
0000
0000
,
0000
0000
0000
0000
,
0000
0000
0000
0000
,
0000
0000
0000
0000
,
0000
0000
0000
0000
,
0000
0000
0000
0000
,
0000
0000
0000
0000
,
0000
0000
0000
0000
,
0000
0000
0000
0000
,
0000
0000
0000
0000
,
0000
0000
0000
0000
,
0000
0000
0000
0000
,
0000
0000
0000
0000
,
0000
0000
0000
0000
,
0000
0000
0000
0000
,
0000
0000
0000
0000
,
MMMM
0000
0000
0000
0000
0000
0000
0000
MMMM
0000
0000
0000
0000
0000
0000
0000
MMMM
0000
0000
0000
MMMM
0000
0000
0000
MMMM
0000
MMMM
0000
MMMM
0000
MMMM
MMMM
0000
0000
0000
0000
0000
0000
0000
0000
0000
0000
0000
0000
0000
0000
0000
0000
0000
0000
0000
0000
0000
0000
0000
0000
0000
0000
0000
0000
0000
0000
0000
0000
;
