#TITLE:Sweet Rain;
#SUBTITLE:;
#ARTIST:Y&Co. feat. Karin;
#TITLETRANSLIT:;
#SUBTITLETRANSLIT:;
#ARTISTTRANSLIT:;
#GENRE:;
#CREDIT:;
#BANNER:Sweet Rain.png;
#BACKGROUND:Sweet Rain-bg.png;
#LYRICSPATH:;
#CDTITLE:./CDTITLES/jubeat knit.png;
#MUSIC:Sweet Rain.ogg;
#OFFSET:0.051;
#SAMPLESTART:51.157;
#SAMPLELENGTH:15.000;
#SELECTABLE:YES;
#BPMS:0.000=155.000
;
#STOPS:
;
#BGCHANGES:;
#KEYSOUNDS:;
#ATTACKS:;

//---------------dance-single - ----------------
#NOTES:
     dance-single:
     :
     Hard:
     12:
     0.592,0.622,0.234,0.242,0.182,454.000,29.000,30.000,0.000,0.000,0.000,0.592,0.622,0.234,0.242,0.182,454.000,29.000,30.000,0.000,0.000,0.000:
0000
0000
0000
0000
,
0000
0000
0000
0000
,
0000
0000
0000
0000
,
0000
0000
0000
0000
,
0000
0000
0000
0000
,
0010
0010
1000
1000
,
0010
0010
0100
0100
,
0001
0000
0001
0000
1000
0010
0100
0002
,
0000
0000
0000
0003
,
1000
0010
0000
1000
0100
0000
0010
0001
0000
0100
0001
0000
1000
0000
0001
0000
,
0100
1000
0100
0001
1000
0100
0001
0100
,
1000
0010
0000
0100
0001
0000
0010
0001
0000
1000
0100
0000
1000
0000
0001
0000
,
0100
1000
0100
0001
1000
0100
0001
0100
,
1000
0001
0000
0010
0001
0000
0100
0010
0000
1000
0100
0000
0010
0000
0001
0000
,
0100
1000
0100
0001
0010
1000
0010
0001
,
1000
0001
0000
0100
0010
0000
1000
0001
0000
0010
0100
0000
1000
0000
0001
0000
,
2000
0000
0000
3002
0000
0000
0203
0000
0000
0320
0000
0000
1030
0000
0001
0000
,
0010
0000
0001
0100
0001
0010
0001
0000
,
0010
1000
0100
0001
,
1000
0001
1000
0000
0001
0100
0001
0000
,
1000
0010
0100
0001
0010
0100
1000
0000
,
0001
0000
1000
0100
1000
0010
1000
0000
,
0100
0001
0010
1000
,
0100
0010
0100
0010
0000
1000
0010
0001
,
1000
0000
0001
0000
0000
0000
0101
0000
0000
0000
1010
0000
0000
0000
1000
0001
,
1000
0000
0001
0010
0001
1000
0000
1000
,
0010
1000
0000
1000
0100
0010
0000
0100
,
0010
0100
0000
1000
0000
1000
0100
0010
,
0001
0001
1000
1000
0000
1001
0000
0100
,
0010
0000
1000
0001
1000
0100
0000
0010
,
0001
0010
0000
0010
0001
1000
0000
0100
,
1000
0001
0000
0001
1000
0001
0000
0001
,
0010
0010
0100
1000
0000
2001
0000
0000
,
3100
0010
0011
0000
0001
0100
0001
0100
,
1000
0100
0001
0100
1000
0100
0010
0000
,
1000
0100
1000
0100
0001
0100
0001
0100
,
1000
0100
0010
0001
0010
0100
1000
0001
,
1000
0100
0010
0000
0001
0100
0010
0100
,
0001
0010
0100
1000
0001
1000
0001
1000
,
0200
0000
0010
0310
0002
0000
1000
0000
,
1003
0100
0000
0110
0000
0002
0000
0000
,
0103
0010
1010
0000
1000
0100
1000
0100
,
0001
0100
1000
0100
0001
0100
0010
0000
,
0001
0010
0100
0010
1000
0010
0100
0010
,
0002
1000
2003
0001
3002
1000
2003
3001
,
0100
0010
0100
0000
1000
0100
0010
0100
,
1000
0010
0100
0001
1000
0000
1001
0000
,
0201
0000
0310
1000
0002
0000
0100
0000
,
1003
0100
0000
0011
0000
2002
0000
3003
,
0010
0000
0000
0100
0000
0010
1000
0000
0001
0000
1000
0000
0010
0000
1000
0000
,
0001
0000
0000
0001
0100
0000
0000
0000
0010
0000
1000
0000
0001
0000
0010
0000
,
0100
0010
0000
0000
0100
0010
0000
0000
0100
0000
1000
0000
0001
0000
0100
0000
,
0001
0001
0010
0100
0000
1100
0000
0000
,
2002
0000
0000
0000
,
0000
0000
0000
0000
,
0000
0000
0000
0000
0000
3003
0000
1010
,
0000
1100
0000
0101
0000
0011
0000
1001
,
2020
0000
0000
3000
,
0200
0000
0000
0030
,
0002
0000
0000
0303
,
1001
1001
0000
0110
0000
2001
0000
0000
,
3010
0100
1001
0000
0001
0010
0001
0010
,
1000
0010
0001
0010
1000
0010
0100
0001
,
1000
0010
0100
0010
0001
0010
0100
1000
,
0002
1000
2003
0001
3002
1000
2003
3001
,
0010
0100
0010
0001
1000
0010
0100
0010
,
1000
0100
0010
0001
1000
0000
1001
0000
,
0021
0000
0130
1000
0002
0000
0010
0000
,
1003
0000
0001
0000
1000
0001
0000
0000
1000
0010
0000
1000
0010
0000
0100
0000
,
0001
0100
0000
0001
0010
0000
0100
1000
0000
0010
1000
0000
0001
0000
1000
0000
,
0010
0001
0010
1000
0001
0010
1000
0010
,
0001
0100
0000
0010
1000
0000
0100
1000
0000
0001
0010
0000
0001
0000
1000
0000
,
0010
0001
0010
1000
0001
0010
1000
0010
,
0001
1000
0000
0100
1000
0000
0010
0100
0000
0001
0010
0000
0100
0000
1000
0000
,
0010
0001
0010
1000
0100
0001
0100
1000
,
0001
1000
0000
0010
0100
0000
0001
1000
0000
0100
0010
0000
0001
0000
1000
0000
,
0010
0000
0000
1100
0000
0000
0010
0000
0000
0101
0000
0000
1000
0000
0001
0000
,
1001
0000
0000
0000
;

//---------------dance-double - ----------------
#NOTES:
     dance-double:
     :
     Hard:
     12:
     0.579,0.591,0.258,0.186,0.137,447.000,32.000,23.000,0.000,0.000,0.000,0.579,0.591,0.258,0.186,0.137,447.000,32.000,23.000,0.000,0.000,0.000:
00000000
00000000
00000000
00000000
,
00000000
00000000
00000000
00000000
,
00000000
00000000
00000000
00000000
,
00000000
00000000
00000000
00000000
,
00000000
00000000
00000000
00000000
,
00010000
00001000
00000010
00000001
,
00000100
00001000
00010000
00100000
,
10000000
00000000
01000000
00000000
00010000
00001000
00010000
00002000
,
00000000
00000000
00000000
00003000
,
00010100
00000000
00000100
00001000
00000010
00000001
00000010
00001000
,
00000001
00000100
00000000
00000100
00000000
00000000
00001000
00000000
00010000
00000000
00010000
00000000
01000000
00000000
10000000
00000000
,
01000000
00000000
00010000
00001000
00000010
00001000
00010000
00001000
,
01000000
00100000
00000000
00100000
00000000
00000000
10000000
00000000
01000000
00000000
01000000
00000000
00010000
00000000
00000000
00000000
,
01001000
00000000
01000000
00010000
00100000
10000000
00100000
00010000
,
10000000
01000000
00000000
01000000
00000000
00000000
00010000
00000000
00001000
00000000
00001000
00000000
00000100
00000000
00000001
00000000
,
00000100
00000000
00001000
00010000
00100000
01000000
00010000
10000000
,
01000000
00000000
00000000
00010000
00000000
00000000
00001000
00000000
00000000
00000100
00000000
00000000
00000001
00000000
00001000
00000000
,
00000001
00000000
00000010
00000001
00000100
00000001
00000100
00000001
,
00001000
00000100
00000010
00000001
00000100
00000010
00001000
00000000
,
00010000
00001000
00010000
00000000
01000000
10000000
01000000
00000000
,
00100000
00000000
01000000
00000000
00010000
00000000
10000000
00000000
00010000
00000000
01000000
00000000
00001000
00000000
00010000
00001000
,
00010000
00000000
00010000
00001000
00000100
00001000
00000100
00000001
,
00000010
00000001
00000100
00000001
00000010
00001000
00010000
01000000
,
00100000
01000000
01000000
00100000
00000000
01000000
10000000
01000000
,
00100000
00000000
00010000
00000000
00000000
00000000
00011000
00000000
00000000
00000000
00010010
00000000
00000000
00000000
00001000
00000010
,
00001000
00000000
00000001
00000100
00000001
00000020
00000000
00000130
,
00000010
00002000
00000000
00013000
00001000
00020000
00000000
00130000
,
01000000
20000000
00000000
31000000
00010000
00200000
00000000
01300000
,
10000000
00000000
10000000
00000000
00010000
00000000
00010000
00000000
00000000
00000000
01100000
00000000
00000000
00000000
00010000
00001000
,
00010000
00000000
00010000
00001000
00010000
00000200
00000000
00000310
,
00000100
00000002
00000000
00000103
00001000
00000020
00000000
00010030
,
00001000
00020000
00000000
00130000
00010000
00002000
00000000
01003000
,
00010000
00010000
00001000
00010000
00000000
00011000
00000000
00000000
,
00010010
00000000
01001000
00000000
00001000
00010000
01000000
00010000
,
00001000
00000100
00001000
00010000
01000000
00010000
00001000
00000000
,
00000010
00000001
00000010
00000001
00001000
00000100
00001000
00000100
,
00010000
00000010
00001000
00000100
00010000
00000010
00001000
00000100
,
00000001
00000100
00000010
00000000
00001000
00010000
00000010
00010000
,
00001000
00100000
01000000
10000000
00100000
01000000
00100000
01000000
,
00020000
00000000
10000000
10030000
02000000
00000000
00100000
00000000
,
03100000
01000000
00000000
01100000
00000000
00011000
00000000
00000000
,
00101000
00000000
00010100
00000000
00010000
00001000
00000100
00001000
,
00010000
01000000
00010000
00001000
00000100
00001000
00010000
00000000
,
00001000
00010000
00001000
00000100
00000001
00001000
00000001
00000100
,
00001000
00010000
00001000
00010000
01000000
10000000
00010000
10000000
,
01000000
00000000
10010000
00000000
00100000
00010000
01000000
00001000
,
00100000
00010000
01000000
00001000
00010000
00000000
00011000
00000000
,
00010020
00000000
00001030
00000001
00000200
00000000
00001000
00000000
,
00000310
00000000
00000100
00000000
00000000
00000000
00000110
00000000
00000000
00000000
00000001
00000000
00001000
00000001
00001000
00000000
,
00000010
00000001
00000000
00001000
00000000
00000001
00000100
00000001
00000100
00000000
00000010
00000000
00001000
00000010
00000000
00010000
,
00000010
00000000
00000000
00000010
00000100
00000000
00000000
00000000
00001000
00000000
00010000
00000000
00100000
00000000
10000000
00000000
,
00010000
10000000
00000000
00000000
01000000
00100000
00000000
00000000
00010000
00000000
10000000
00000000
01000000
10000000
01000000
00000000
,
00100000
00100000
01000000
00010000
00000000
00011000
00000000
00000000
,
00022000
00000000
00000000
00000000
,
00000000
00000000
00000000
00000000
,
00000000
00000000
00000000
00000000
00000000
00033000
00000000
00001100
,
00000000
00001001
00000000
00001010
00000000
00011000
00000000
01000000
,
20200000
00000000
00000000
30000000
,
00020000
00000000
00000000
00300000
,
00002000
00000000
00000000
00033000
,
00010000
00001000
00000000
00000110
00000000
00001001
00000000
00000000
,
00000010
00001000
00010010
00000000
00001000
00010000
00100000
00010000
,
00001000
00000100
00001000
00010000
00100000
00010000
00001000
00000000
,
00010000
00001000
00010000
00010000
01000000
00010000
01000000
00010000
,
00010000
00001000
00010000
00001000
00001000
00000100
00001000
00000100
,
00000010
00000000
00001001
00000000
00000010
00001000
00000100
00010000
,
00000010
00001000
00000100
00010000
00001000
00000000
00011000
00000000
,
00201000
00000000
00310000
01000000
00200000
00000000
10000000
00000000
,
01300000
00000000
00010000
00000000
00100000
00001000
00000000
00000000
00010000
00001000
00000000
00000100
00001000
00000000
00000010
00001000
,
00000010
00000100
00000001
00000010
00000001
00000100
00001000
00000100
,
00000010
00001000
00000000
00001000
00000000
00000000
00010000
00000000
01000000
00000000
00010000
00000000
00100000
00000000
00010000
00000000
,
01000000
00100000
10000000
00100000
00010000
00100000
10000000
00010000
,
00100000
00010000
00000000
00010000
00000000
00000000
00001000
00000000
00000100
00000000
00001000
00000000
00000010
00000000
00000100
00000000
,
00000001
00000100
00001000
00000100
00000001
00001000
00000100
00000010
,
00000001
00001000
00000000
00001000
00000000
00000000
00010000
00000000
01000000
00000000
00010000
00000000
00100000
00000000
00010000
00000000
,
01000000
00001000
00100000
00010000
01000000
10000000
01000000
00010000
,
00100000
00000000
00000000
01100000
00000000
00000000
00010000
00000000
00000000
00011000
00000000
00000000
00000100
00000000
00000010
00000000
,
00000110
00000000
00000000
00000000
;

//---------------dance-single - ----------------
#NOTES:
     dance-single:
     :
     Challenge:
     14:
     0.821,0.850,0.323,0.686,0.472,587.000,40.000,85.000,0.000,0.000,0.000,0.821,0.850,0.323,0.686,0.472,587.000,40.000,85.000,0.000,0.000,0.000: // measure 0
0000
0000
0000
0000
,  // measure 1
0000
0000
0000
0000
,  // measure 2
0000
0000
0000
0000
,  // measure 3
0000
0000
0000
0000
,  // measure 4
0000
0000
0010
0000
0010
0000
0000
0100
0000
0000
0010
0000
0110
0000
0000
0000
,  // measure 5
1000
0100
1000
0001
1000
0010
1000
0001
,  // measure 6
0100
0000
0010
0000
0100
0000
0001
0000
0100
0000
1000
0000
0100
0000
0000
0100
,  // measure 7
0010
0000
1000
0000
0100
0000
0010
0000
0001
0000
0100
0000
0010
0100
0002
0000
,  // measure 8
0000
0000
0000
0003
,  // measure 9
1000
0100
0000
0001
0100
0000
0010
0001
0000
0100
0001
0000
0100
0000
0100
0000
,  // measure 10
0010
1000
0000
0001
0000
0000
0200
0000
0000
0000
0010
0000
0010
0000
0310
0000
,  // measure 11
1000
0001
0000
0010
0100
0000
0001
0100
0000
1000
0010
0000
0100
0000
0001
0000
,  // measure 12
1000
0010
0100
0010
0000
0010
0100
0001
0100
0010
0000
1000
0010
0100
0010
0001
,  // measure 13
0010
0100
0000
1000
0100
0000
0001
0010
0000
0100
1000
0000
0010
0000
0100
0000
,  // measure 14
0010
1000
0000
1000
0100
0000
0010
0000
0001
0100
0000
0100
0010
0000
1000
0010
,  // measure 15
0100
0010
0000
1000
0100
0000
0001
0100
0000
1000
0001
0000
0100
0000
0100
0000
,  // measure 16
0011
0000
0100
1000
0000
1000
0010
0000
0100
0001
0000
0001
0010
0000
0100
0000
,  // measure 17
1100
1000
0020
0230
0320
0230
0320
0230
,  // measure 18
0302
1003
0020
0230
1300
0002
0013
1000
,  // measure 19
0100
0100
1000
0200
0310
0200
1300
0200
,  // measure 20
0301
0200
0320
0031
0200
0320
2030
3100
,  // measure 21
1000
0010
0200
0320
0230
0320
0230
0320
,  // measure 22
1030
1000
0001
0020
1030
0020
0031
0100
,  // measure 23
0010
0010
0100
0002
0103
1000
0100
0001
,  // measure 24
0010
0000
0011
0000
0000
0000
0110
0000
0000
0000
1100
0000
0000
0000
1000
0001
,  // measure 25
1000
0010
0002
0023
2030
3200
0301
2000
,  // measure 26
3001
0200
1300
0020
0031
2000
3002
0023
,  // measure 27
1030
0200
0310
0001
0100
0220
0330
1010
,  // measure 28
1000
0000
0100
0000
0010
0000
0011
0000
0000
0000
2001
0000
0000
0000
3100
0010
,  // measure 29
0100
1000
0020
0230
2300
3002
0013
0200
,  // measure 30
0301
0020
0130
0002
0103
0020
0130
2000
,  // measure 31
3010
0200
0301
0100
1000
0100
0010
0100
,  // measure 32
0110
0010
1000
2020
3030
2002
0000
3003
,  // measure 33
0010
0000
0100
0001
0100
0000
0010
1000
0010
0000
1000
0000
0100
0000
0001
0000
,  // measure 34
1000
0010
0001
0100
1000
0100
0010
0100
,  // measure 35
0001
0000
0100
0010
0100
0000
1000
0000
0100
0000
0001
0000
0100
0000
1000
0000
,  // measure 36
0100
0000
0001
0010
0001
0000
0010
0100
0010
0000
0100
1000
0100
0000
1000
0000
,  // measure 37
0001
0000
0010
0100
0010
0000
0001
1000
0001
0000
1000
0000
0010
0000
0001
0000
,  // measure 38
1000
0100
0001
0010
0100
1000
0010
0100
,  // measure 39
0200
0000
0010
0310
2000
0000
0001
0000
,  // measure 40
3100
0110
0000
1100
0000
2002
0000
3003
,  // measure 41
1000
0000
0001
0010
0001
0000
1000
0010
1000
0000
0010
0000
0100
0000
1000
0000
,  // measure 42
0001
0010
0100
0001
0010
0100
0001
0100
,  // measure 43
1000
0000
0010
0100
0010
0000
1000
0000
0100
0000
0001
0000
1000
0000
0010
0000
,  // measure 44
0100
0000
1000
0010
1000
0000
0001
0010
0001
0000
0100
0010
0100
0000
0100
0000
,  // measure 45
0001
0000
1000
0100
1000
0000
0001
0010
0001
0000
0100
0000
1000
0000
0100
0000
,  // measure 46
0001
0000
0010
0100
0010
0000
0100
1000
0100
0000
1000
0001
1000
0000
0010
0100
,  // measure 47
0020
0000
0100
0130
0002
0000
0100
0000
,  // measure 48
1003
0000
1100
0000
0000
0000
0101
0000
0000
0000
1001
0000
1000
0010
1000
0010
,  // measure 49
0100
0001
0000
1000
0000
0010
0100
0010
0000
0000
1000
0000
0000
0001
0000
0010
,  // measure 50
0000
0100
0010
0001
0010
0000
0000
0000
0100
0000
0100
0000
1000
0000
0001
0000
,  // measure 51
0000
1000
0000
0010
1000
0000
0001
0000
0010
0000
0001
0000
0010
0100
1000
0000
,  // measure 52
1010
0010
0100
0110
0000
1001
0000
0000
,  // measure 53
2001
0000
0002
3000
0203
0020
0300
2000
,  // measure 54
0030
0200
3000
0002
0300
0203
2000
0300
,  // measure 55
0020
3000
1000
1030
0200
0001
0300
1100
,  // measure 56
0000
0101
0000
0011
0000
1010
0100
0001
,  // measure 57
2001
0000
0000
0001
0000
3001
0010
0100
,  // measure 58
2100
0000
0000
0001
0000
3001
0100
0010
,  // measure 59
2010
0000
0000
0002
0000
0000
0000
3003
,  // measure 60
1000
1010
0000
0101
0000
2002
0000
3003
,  // measure 61
0100
0000
0010
1000
0001
0000
0010
0001
1000
0000
0010
0000
0100
0000
1000
0000
,  // measure 62
0100
0001
0010
1000
0010
0100
1000
1000
,  // measure 63
0010
0000
0100
0001
0100
0000
1000
0000
0100
0000
0001
0000
0010
0000
1000
0000
,  // measure 64
0001
0000
0100
1000
0001
0000
0100
0001
1000
0000
0010
0100
0001
0000
0010
0000
,  // measure 65
0100
0000
1000
0010
0100
0000
0001
1000
0010
0000
0100
0000
0001
0000
0010
0000
,  // measure 66
0001
1000
0010
0100
0001
0010
0001
0001
,  // measure 67
2000
0000
0010
3010
0200
0000
0001
0300
,  // measure 68
1000
0000
0001
0000
0010
0001
0000
0000
0001
1000
0000
1000
0010
0000
0100
0001
,  // measure 69
0010
0100
0000
1000
0100
0000
0001
0100
0000
1000
0010
0000
0100
0000
0001
0000
,  // measure 70
0010
0100
0000
1000
0000
0000
0020
0000
0000
0000
0100
0000
0100
0000
0130
0000
,  // measure 71
0001
0100
0000
1000
0100
0000
0010
1000
0000
0100
0001
0000
0100
0000
0100
0000
,  // measure 72
0010
0001
1000
0001
0000
1000
0010
1000
0001
1000
0000
0010
0100
0010
1000
0010
,  // measure 73
0100
0001
0000
0010
1000
0000
0010
0100
0000
1000
0010
0000
0100
0000
1000
0000
,  // measure 74
0100
0010
0000
1000
0100
0000
1000
0000
0001
0010
0000
0010
0100
0000
1000
0000
,  // measure 75
1000
0100
0000
0100
0001
0000
0001
0010
0000
0010
1000
0000
0100
0000
0100
0000
,  // measure 76
1100
0000
0000
0011
0000
0000
0101
0000
0000
1010
0000
0000
0110
0000
0101
0000
,  // measure 77
2002
0000
0000
0000
,  // measure 78
3003
0000
0000
0000
;
