#TITLE:Summertime Sadness;
#SUBTITLE:(Cedric Gervais Remix);
#ARTIST:Lana Del Rey;
#TITLETRANSLIT:;
#SUBTITLETRANSLIT:;
#ARTISTTRANSLIT:;
#CREDIT:;
#BANNER:Summertime Sadness (CG Remix).png;
#BACKGROUND:Summertime Sadness (CG Remix)-bg.png;
#LYRICSPATH:;
#CDTITLE:;
#MUSIC:Summertime Sadness (CG Remix).ogg;
#OFFSET:0.018;
#SAMPLESTART:38.080;
#SAMPLELENGTH:15.000;
#SELECTABLE:YES;
#BPMS:0.000=126.000;
#STOPS:140.000=0.860
,170.000=1.000
;
#BGCHANGES:;

//---------------dance-single - 370K----------------
#NOTES:
     dance-single:
     370K:
     Challenge:
     7:
     0.521,0.640,0.413,0.963,0.004: // measure 1
2000
0000
0000
0000
,  // measure 2
3200
0000
0000
0000
0000
0000
0000
0000
0000
0000
0000
0000
0000
0000
0000
0000
0000
0000
0000
0000
0000
0000
0000
0000
0000
0000
0000
0000
0000
0000
0000
0000
0000
0000
0000
0000
0000
0000
0000
0000
0000
0000
0000
0000
0000
0000
0000
0300
0200
0000
0000
0000
0000
0000
0000
0000
0000
0000
0000
0000
0000
0000
0000
0000
,  // measure 3
0320
0000
0000
0000
,  // measure 4
0032
0000
0000
0000
0000
0013
0100
1000
,  // measure 5
0200
0000
0320
0000
0032
0000
0203
0320
,  // measure 6
0030
0000
0000
0000
1000
1000
0100
0010
,  // measure 7
0002
0000
0100
0103
0001
0200
0000
0320
,  // measure 8
0030
0000
0000
0000
1000
1000
0002
0023
,  // measure 9
0230
0000
0000
0000
0000
0000
0000
0000
0000
0000
0000
0000
0000
0000
0000
0000
2300
0000
0000
0000
0000
0000
0000
0000
0000
0000
0000
0000
0000
0000
0000
0000
3200
0000
0000
0000
0000
0000
0000
0300
0200
0000
0000
0000
0000
0000
0000
0000
2300
0000
0000
0000
0000
0000
0000
0000
3002
0000
0000
0000
0000
0000
0000
0000
,  // measure 10
0003
0000
0000
0000
1000
0001
0000
0200
,  // measure 11
0000
0300
0000
0010
1000
0100
0001
2000
,  // measure 12
0000
0000
3000
0000
,  // measure 13
0002
0000
0003
0200
0320
0030
0000
2000
,  // measure 14
3200
0000
0000
0000
0000
0000
0000
0000
0320
0000
0000
0000
0000
0000
0000
0030
0020
0000
0000
0000
0000
0000
0000
0000
0032
0000
0000
0000
0000
0000
0000
0000
2003
0000
0000
0000
0000
0000
0000
0000
3020
0000
0000
0000
0000
0000
0000
0000
2030
0000
0000
0000
0000
0000
0000
0000
3200
0000
0000
0000
0000
0000
0000
0000
,  // measure 15
0320
0000
0000
1000
1030
0000
0000
1000
,  // measure 16
0100
0001
0100
1000
1001
0000
MMMM
1000
,  // measure 17
0100
0000
0000
0001
0100
0000
0000
1000
,  // measure 18
0010
1000
0100
0010
0002
0000
0013
0010
,  // measure 19
0200
0000
2300
0000
3020
0000
0230
0002
,  // measure 20
0000
0300
0003
0000
,  // measure 21
1001
1000
1000
1000
,  // measure 22
1001
0001
0001
0001
,  // measure 23
0101
0100
0100
0100
,  // measure 24
0110
0010
0010
0010
,  // measure 25
0110
1000
0110
0001
,  // measure 26
1001
0010
1001
0100
,  // measure 27
1001
1000
0100
0001
,  // measure 28
0010
1000
0100
0001
,  // measure 29
1001
1100
0011
0101
,  // measure 30
1010
0110
0101
1010
,  // measure 31
1100
0110
0011
0110
,  // measure 32
1100
0101
1001
0101
,  // measure 33
1010
1100
1001
0101
,  // measure 34
1010
0110
1001
0000
,  // measure 35
2000
0000
0000
0000
0000
0000
0000
0000
0000
0000
0000
0000
0000
0000
0000
0000
3002
0000
0000
0000
0023
0000
0000
0000
0230
0000
0000
0000
2300
0000
0000
3000
,  // measure 36
1001
0000
1001
0000
1100
0200
0000
0320
,  // measure 37
0000
0032
0000
0203
0302
0203
0000
0320
,  // measure 38
0000
2030
0000
3020
0032
0200
0003
2300
,  // measure 39
0000
3200
0000
2300
0000
3020
0000
0230
,  // measure 40
0300
0002
0003
2000
3200
0302
0000
0203
,  // measure 41
0000
2300
0000
3020
0000
0230
0000
0302
,  // measure 42
0000
1003
1001
1001
0020
0230
0000
2300
,  // measure 43
0000
3200
0000
0310
0011
0000
2002
3003
,  // measure 44
1000
0200
0000
0320
0000
0032
0000
2003
,  // measure 45
0000
3020
0000
0230
0000
2300
0100
3020
,  // measure 46
0000
2030
0000
3020
0000
2030
0000
3200
,  // measure 47
0000
2300
0000
3200
0000
0320
0001
0032
,  // measure 48
0010
0203
0000
2300
0000
3020
0000
0230
,  // measure 49
0000
0320
0000
0032
0000
0023
2030
3020
,  // measure 50
0230
2000
0300
3200
0000
0320
0000
0130
,  // measure 51
1100
0000
0000
0100
1000
0000
0100
0000
0010
0000
0100
0000
2000
0000
0000
0000
,  // measure 52
3000
1000
0000
0100
0010
0010
0100
0000
,  // measure 53
0000
1000
0100
0001
0100
0100
1100
0000
,  // measure 54
0000
1010
0000
0001
0010
0010
0100
0000
,  // measure 55
1000
0010
1000
0000
0101
0000
1010
0000
,  // measure 56
0000
0010
0001
0010
1000
0010
0110
0000
,  // measure 57
0000
1000
0100
0001
0100
0100
0110
0000
,  // measure 58
0001
0010
0001
0100
0100
0010
0020
0000
,  // measure 59
2030
3100
0000
0010
0000
0001
0000
0010
,  // measure 60
2002
0000
3003
0000
;
