#TITLE:Sugar Free;
#SUBTITLE:;
#ARTIST:T-ara;
#TITLETRANSLIT:;
#SUBTITLETRANSLIT:;
#ARTISTTRANSLIT:;
#GENRE:;
#CREDIT:wild_muses;
#BANNER:sugarfreebn.png;
#BACKGROUND:sugarfreebg.png;
#LYRICSPATH:;
#CDTITLE:;
#MUSIC:sugarfree.mp3;
#OFFSET:-0.555000;
#SAMPLESTART:47.429996;
#SAMPLELENGTH:12.000000;
#SELECTABLE:YES;
#BPMS:0.000000=128.000000
;
#STOPS:
;
#BGCHANGES:0.000=sugarfree.avi=1.000=0=0=0=StretchNoLoop====,
99999=-nosongbg-=1.000=0=0=0 // don't automatically add -songbackground-
;
#KEYSOUNDS:;
#ATTACKS:;

//---------------dance-single - ----------------
#NOTES:
     dance-single:
     :
     Hard:
     12:
     0.738814,0.741708,0.924881,0.606688,0.337285,858.000000,218.000000,143.000000,10.000000,0.000000,10.000000,0.738814,0.741708,0.924881,0.606688,0.337285,858.000000,218.000000,143.000000,10.000000,0.000000,10.000000:
// measure 0
0000
0000
0000
0000
,  // measure 1
1001
0100
1001
0010
1001
0100
1001
0010
,  // measure 2
1001
0100
1001
0010
1001
0100
1001
0010
,  // measure 3
1001
0100
1001
0010
1001
0100
1001
0010
,  // measure 4
1001
0000
0001
0010
0100
1000
1000
0000
0001
0010
0000
0100
,  // measure 5
0000
0000
0001
0010
0100
1000
1000
0000
1000
0100
0010
0001
,  // measure 6
0000
0000
0001
0010
0100
1000
1000
0000
0001
0010
0000
0100
,  // measure 7
0000
0000
0000
0000
0001
0000
0010
0000
0100
0000
1000
0000
0001
0100
0001
0000
0100
0000
4004
0000
0000
0000
3003
0000
,  // measure 8
0000
0000
0001
0010
0100
1000
0001
0000
0010
0001
0000
0100
,  // measure 9
0000
0000
0001
0010
0100
1000
1000
0000
1000
0100
0010
0001
,  // measure 10
0000
0000
0010
0010
0100
0100
0001
0000
0001
1000
0000
1000
,  // measure 11
0000
0000
0000
0000
0001
0000
0100
0000
0010
0000
1000
0000
0001
0010
0001
0000
0010
0000
1000
0000
0100
0000
1000
0000
,  // measure 12
0001
0010
0001
0020
0000
0030
0001
0100
0001
0200
0000
0300
,  // measure 13
0001
0010
0100
0001
0010
0100
0001
0010
0100
2000
0000
3000
,  // measure 14
0001
0010
0001
0020
0000
0030
1000
0100
1000
0200
0000
0300
,  // measure 15
0001
0100
0000
0000
0001
0000
0000
0000
0010
0100
0000
0000
0010
0000
0000
0000
,  // measure 16
1000
0100
0000
0000
1000
0000
0000
0000
0001
0100
0000
0000
0001
0000
0000
0000
,  // measure 17
1010
1000
0101
0001
1010
1000
0101
0001
,  // measure 18
1010
1000
0101
0001
1010
1000
0440
0330
,  // measure 19
0011
0001
0110
0010
1100
0100
0101
0001
,  // measure 20
0110
0010
0010
0110
0101
0001
0440
0330
,  // measure 21
0101
1000
0101
0010
0101
1000
0101
0010
,  // measure 22
0101
1000
1000
0101
0010
0100
0440
0330
,  // measure 23
1001
1000
1001
0001
1001
1000
1001
0001
,  // measure 24
1001
0010
0100
1000
0000
0000
0002
1003
,  // measure 25
0101
0100
0010
0011
0011
0010
0001
0100
,  // measure 26
0010
1000
0100
0100
0011
0001
0011
0001
,  // measure 27
1000
0100
0010
0120
0000
0130
0100
0001
,  // measure 28
0001
0010
0100
0010
2000
0000
3020
0030
,  // measure 29
0001
0010
0001
0100
0001
1000
0001
0100
,  // measure 30
0001
0010
1000
0100
1000
0010
0001
0001
,  // measure 31
0001
0000
2000
3100
0000
0001
0001
0120
,  // measure 32
0000
0130
0001
0010
0100
1010
0110
1010
,  // measure 33
0002
0000
0013
0100
0100
0100
1000
0100
,  // measure 34
0020
0030
0001
0010
0100
0110
0010
0100
,  // measure 35
2000
3000
0001
0010
0100
1000
0100
0001
,  // measure 36
0010
0000
0001
0000
1000
0000
1000
0100
0000
0000
0100
0000
0010
0000
0010
0000
,  // measure 37
0010
0000
0002
0000
1003
0001
0010
0100
,  // measure 38
1000
0000
0000
0000
0000
0000
0000
0000
0000
0000
0000
0000
0020
0000
0000
0000
0000
0000
0000
0000
0030
0100
0000
0000
1000
0000
0000
0000
0000
0000
1000
0000
0000
0000
0000
0000
0001
0000
0000
0000
0000
0000
0010
0000
0000
0000
0000
0000
,  // measure 39
0100
0000
0010
0000
0010
0000
0010
0000
0001
0100
0000
0010
0000
0000
0010
0000
,  // measure 40
0001
1000
0000
0000
1000
0001
0000
0000
0001
1000
0000
0000
1000
0001
0000
0000
,  // measure 41
0440
0000
0000
0330
,  // measure 42
0011
0000
0000
0000
0002
0000
0000
0000
0000
0013
0000
0000
0100
0000
0000
0000
0000
0000
1100
0000
0000
1100
0000
0000
,  // measure 43
0010
0000
0000
0000
0012
0000
0000
0000
0000
0013
0000
0000
0100
0000
0000
0000
0000
0000
0011
0000
0000
0100
0000
0000
,  // measure 44
1000
0000
0000
0000
0021
0000
0000
0000
0000
0031
0000
0000
0010
0000
0000
0000
0000
0000
0110
0000
0000
0010
0000
0000
,  // measure 45
0100
0000
0000
0000
1020
0000
0000
0000
0000
1030
0000
0000
0100
0000
0000
0000
0000
0000
1001
0000
0000
1001
0000
0000
,  // measure 46
2020
0000
3030
2020
0000
3030
1010
0000
0001
0000
0010
0000
0100
0000
1000
0000
,  // measure 47
0202
0000
0303
0202
0000
0303
0101
0000
0010
0000
0100
0000
1000
0000
0100
0000
,  // measure 48
0002
0000
0000
0003
0010
0000
0100
1000
0000
0000
0011
0000
0011
0000
0000
0000
,  // measure 49
1010
0000
1000
0000
0100
0000
0010
0002
0000
0000
0013
0000
0100
0000
1000
0000
,  // measure 50
0101
0000
0000
0000
0002
0000
0000
0000
0000
0103
0000
0000
1010
0000
0000
0000
0000
0000
0110
0000
0000
0110
0000
0000
,  // measure 51
0001
0000
0000
0000
2000
0000
0000
0000
0000
3100
0000
0000
0010
0000
0000
0000
0000
0000
0001
0000
0000
0010
0000
0000
,  // measure 52
0100
0000
0000
0000
2010
0000
0000
0000
0000
3010
0000
0000
0101
0000
0000
0000
0000
0000
0101
0000
0000
0100
0000
0000
,  // measure 53
1010
0000
0000
0000
0002
0000
0000
0000
0000
0013
0000
0000
0100
0000
0000
0000
0000
0000
0001
0000
0000
0100
0000
0000
,  // measure 54
0220
0000
0330
0220
0000
0330
0110
0000
0001
0000
0010
0000
0100
0000
1000
0000
,  // measure 55
2002
0000
3003
2002
0000
3003
1001
0000
0001
0000
0010
0000
0100
0000
1000
0000
,  // measure 56
0210
0000
0010
0000
0310
0000
0100
0010
0000
0000
0001
0000
0000
0000
0002
0000
,  // measure 57
0023
0030
1000
0100
0010
0001
2010
3010
,  // measure 58
0022
0000
0000
0033
11MM
1000
0011
0010
,  // measure 59
1100
1000
0011
0001
1100
1000
0011
0001
,  // measure 60
0001
0010
0100
1000
1000
1000
0100
0010
,  // measure 61
0001
0100
0010
1000
0001
0100
0010
0100
,  // measure 62
0001
0010
0100
2000
0000
3001
0100
0010
,  // measure 63
0010
0010
1100
1000
2000
0000
3000
M000
,  // measure 64
0001
0010
0100
1000
0110
0110
0110
0001
,  // measure 65
0010
0100
1000
0100
1000
0100
0011
0001
,  // measure 66
0001
0000
2000
3020
0030
0001
0100
0002
,  // measure 67
0003
0001
0010
0100
1000
0110
0110
0110
,  // measure 68
0002
0003
0010
0100
1000
0010
0001
0010
,  // measure 69
0100
0000
1000
0100
0010
0100
0010
0100
,  // measure 70
0010
0000
0001
0010
0100
1000
0100
0001
,  // measure 71
0010
0000
0100
0000
1000
0000
0100
0002
0000
0000
0013
0000
1000
0000
0100
0000
,  // measure 72
0022
0033
0102
0000
0103
100M
0100
0010
,  // measure 73
0001
0000
0000
0000
0022
0000
0033
0100
1000
0000
0100
0000
0001
0000
0010
0000
,  // measure 74
0100
0000
0001
0000
0010
0000
0001
0000
0001
0100
0000
0010
0000
0000
0010
0000
,  // measure 75
1000
0010
0000
0000
0001
0100
0000
0000
1000
0010
0000
0000
0001
0100
0000
0000
,  // measure 76
2000
0001
0010
0001
0010
0001
0010
3000
,  // measure 77
M101
0000
0000
0000
0022
0000
0000
0000
0033
0101
0000
0000
0101
0000
0000
0000
0000
0000
0010
0000
0000
0100
0000
0000
,  // measure 78
1100
0000
0000
0000
2200
0000
0000
0000
3300
1010
0000
0000
1010
0000
0000
0000
0000
0000
0001
0000
0000
0010
0000
0000
,  // measure 79
1100
0000
0000
0000
0202
0000
0000
0000
0303
0011
0000
0000
0011
0000
0000
0000
0000
0000
0010
0000
0000
0100
0000
0000
,  // measure 80
0110
0000
0000
0000
2002
0000
0000
0000
3003
0011
0000
0000
0011
0000
0000
0000
0000
0000
1000
0000
0000
0010
0000
0000
,  // measure 81
0022
0000
0033
0022
0000
0033
0011
0000
1000
0000
0100
0000
0010
0000
0001
0000
,  // measure 82
0220
0000
0330
0220
0000
0330
0110
0000
0001
0000
0010
0000
0100
0000
2000
0000
,  // measure 83
3020
0000
0030
0000
0001
0000
0010
0100
0000
0000
1000
0000
0010
0000
0000
0000
,  // measure 84
0001
0000
0010
0000
0100
0000
1000
0020
0000
0000
0031
0000
0020
0000
0130
0000
,  // measure 85
0101
0000
0000
0000
0022
0000
0000
0000
0033
0101
0000
0000
0101
0000
0000
0000
0000
0000
0010
0000
0000
0100
0000
0000
,  // measure 86
1100
0000
0000
0000
2020
0000
0000
0000
3030
1100
0000
0000
1100
0000
0000
0000
0000
0000
0001
0000
0000
0010
0000
0000
,  // measure 87
0110
0000
0000
0000
0022
0000
0000
0000
0033
0110
0000
0000
0110
0000
0000
0000
0000
0000
1000
0000
0000
0100
0000
0000
,  // measure 88
0011
0000
0000
0000
0220
0000
0000
0000
0330
1100
0000
0000
1100
0000
0000
0000
0000
0000
1000
0000
0000
0010
0000
0000
,  // measure 89
2002
0000
3003
2002
0000
3003
1001
0000
0001
0000
0010
0000
0100
0000
1000
0000
,  // measure 90
0022
0000
0033
0022
0000
0033
0011
0000
1000
0000
0100
0000
0010
0000
0001
0000
,  // measure 91
2010
0000
0010
0000
0010
0000
3001
0010
M000
0000
0100
0000
0000
0000
0020
0000
,  // measure 92
0230
0300
0001
0010
0100
1000
0101
0101
,  // measure 93
0202
0000
0000
0000
0000
0303
0M0M
0000
,  // measure 94
1001
0010
1001
0100
1001
0010
1001
0100
,  // measure 95
0101
0000
0000
0100
0001
0000
0000
0000
1010
0000
0000
0010
1000
0000
0000
0000
,  // measure 96
0001
0010
0000
0000
1000
0100
0000
0000
0001
0010
0000
0000
1000
0100
0000
0000
,  // measure 97
0011
0000
0000
0001
0010
0000
0000
0000
1100
0000
0000
1000
0100
0000
0000
0000
,  // measure 98
0001
1000
0000
0000
1000
0001
0000
0000
0001
1000
0000
0000
1000
0001
0000
0000
,  // measure 99
1001
0000
0000
1000
0001
0000
0000
0000
1001
0000
0000
0001
1000
0000
0000
0000
,  // measure 100
0010
1000
0000
0000
0100
0001
0000
0000
0010
1000
0000
0000
0100
0001
0000
0000
,  // measure 101
0110
0000
0000
1000
0010
0000
0000
0000
0110
0000
0000
0001
0100
0000
0000
0000
,  // measure 102
0001
0100
0000
0000
1000
0000
0000
0000
1000
0010
0000
0000
0001
0000
0000
0000
,  // measure 103
0001
0100
0000
0000
1000
0000
0000
0000
1000
0010
0000
0000
0001
0000
0000
0000
,  // measure 104
0001
0100
0000
0000
1000
0000
0000
0000
1000
0010
0000
0000
0001
0000
0000
0000
,  // measure 105
0001
0100
0000
0000
0001
0100
0000
0000
0001
1000
0001
1000
0001
1000
0001
1000
,  // measure 106
0001
0100
0000
0000
0001
0000
0000
0000
1000
0010
0000
0000
1000
0000
0000
0000
,  // measure 107
0011
0000
0000
0000
0202
0000
0000
0000
0303
0011
0000
0000
0011
0000
0000
0000
0000
0000
0010
0000
0000
0100
0000
0000
,  // measure 108
1100
0000
0000
0000
2200
0000
0000
0000
3300
1010
0000
0000
1010
0000
0000
0000
0000
0000
0001
0000
0000
0010
0000
0000
,  // measure 109
0100
0000
0000
0000
0220
0000
0000
0000
0330
1010
0000
0000
1010
0000
0000
0000
0000
0000
0010
0000
0000
0100
0000
0000
,  // measure 110
0110
0000
0000
0000
2020
0000
0000
0000
3030
0110
0000
0000
0110
0000
0000
0000
0000
0000
0010
0000
0000
1000
0000
0000
,  // measure 111
0202
0000
0303
0022
0000
0033
0011
0000
0001
0000
0010
0000
0100
0000
1000
0000
,  // measure 112
2020
0000
3030
2200
0000
3300
1100
0000
1000
0000
0100
0000
0010
0000
0002
0000
,  // measure 113
0203
0000
0000
0000
0310
0000
0001
0010
0000
0000
1000
0000
0010
0000
0000
0000
,  // measure 114
0001
0000
0010
0000
0100
0000
1000
0002
0000
0000
0103
0000
0020
0000
0130
0000
,  // measure 115
0011
0000
0000
0000
0202
0000
0000
0000
0303
0011
0000
0000
0011
0000
0000
0000
0000
0000
0010
0000
0000
0100
0000
0000
,  // measure 116
1010
0000
0000
0000
2200
0000
0000
0000
3300
1010
0000
0000
1010
0000
0000
0000
0000
0000
0001
0000
0000
0010
0000
0000
,  // measure 117
0110
0000
0000
0000
2200
0000
0000
0000
3300
0110
0000
0000
0110
0000
0000
0000
0000
0000
0001
0000
0000
0010
0000
0000
,  // measure 118
1001
0000
0000
0000
2200
0000
0000
0000
3300
1001
0000
0000
1001
0000
0000
0000
0000
0000
0001
0000
0000
0100
0000
0000
,  // measure 119
0022
0000
0033
0220
0000
0330
0110
0000
0001
0000
0010
0000
0100
0000
1000
0000
,  // measure 120
2002
0000
3003
2020
0000
3030
1010
0000
1000
0000
0100
0000
0010
0000
0001
0000
,  // measure 121
2010
0000
0010
0000
3010
0000
0001
0100
0000
0000
0001
0000
0000
0000
2000
0000
,  // measure 122
3200
0300
0001
0010
0100
1000
0101
0101
,  // measure 123
0202
0000
0000
0000
0000
0303
0M0M
0000
,  // measure 124
1001
0100
1001
0010
1001
0100
1001
0010
;
