#TITLE:SpaceHomo;
#SUBTITLE:;
#ARTIST:ニコファーレ公式エンディング;
#TITLETRANSLIT:;
#SUBTITLETRANSLIT:;
#ARTISTTRANSLIT:;
#GENRE:;
#CREDIT:;
#BANNER:SpaceHomo_bn.jpg;
#BACKGROUND:SpaceHomo.jpg;
#LYRICSPATH:;
#CDTITLE:cdtitle.png;
#MUSIC:SpaceHomo.mp3;
#OFFSET:-0.200000;
#SAMPLESTART:41.958000;
#SAMPLELENGTH:12.000000;
#SELECTABLE:YES;
#BPMS:0.000000=143.000000
;
#STOPS:207.000000=0.315000,
220.750000=0.315000,
221.000000=0.564000
;
#BGCHANGES:4.000=SpaceHomo.AVI=1.000=1=0=1===CrossFade==,
299.905=SpaceHomo.jpg=1.000=1=0=1===CrossFade==,
99999=-nosongbg-=1.000=0=0=0 // don't automatically add -songbackground-
;
#KEYSOUNDS:;
#ATTACKS:;

//---------------dance-single - ----------------
#NOTES:
     dance-single:
     :
     Challenge:
     16:
     0.966246,0.987828,0.519094,0.255673,1.266745,873.000000,806.000000,67.000000,33.000000,0.000000,0.000000,0.966246,0.987828,0.519094,0.255673,1.266745,873.000000,806.000000,67.000000,33.000000,0.000000,0.000000:
// measure 0
0020
0000
0000
0000
,  // measure 1
0000
0000
0000
0030
,  // measure 2
0010
0100
0001
0010
0100
0010
0001
1000
0100
0010
0001
1000
0100
0010
0100
1000
,  // measure 3
0001
0100
0010
1000
0010
1000
0001
0100
0001
0010
0001
0010
0100
1000
0100
1000
,  // measure 4
0010
0100
0010
0100
0001
1000
0100
0010
0100
1000
0001
0010
0100
0010
0001
0100
,  // measure 5
0010
1000
0010
0100
0001
0100
0001
0010
0100
1000
0100
0010
0001
0000
0100
0010
,  // measure 6
1000
0001
0010
0100
1000
0000
0010
0000
0100
0000
0010
0000
1000
0000
0001
0000
,  // measure 7
0100
0000
1010
0000
0202
0303
0000
0000
0000
1001
0000
2002
3003
0000
0001
0010
,  // measure 8
0100
1000
0100
0010
0001
0000
0010
0000
0100
0000
1000
0000
0010
0000
0100
0000
,  // measure 9
0010
0000
0101
0000
2020
3030
0000
0000
0000
1001
0000
2002
3003
0000
1000
0100
,  // measure 10
1000
0100
0010
0001
0010
0000
0001
0000
0100
0000
0010
0000
1000
0000
0100
0000
,  // measure 11
0010
0000
1001
0000
0220
0330
0000
0000
0000
1001
0000
2002
3003
0000
0001
0010
,  // measure 12
0001
0010
0100
1000
0100
0000
0010
0000
0001
0000
0100
0000
0010
0000
0001
0100
,  // measure 13
0010
1000
0010
0100
0001
0000
1000
0010
0100
0001
0010
0100
1000
0100
0010
0001
,  // measure 14
0010
0001
0010
0100
2000
0000
3100
0010
0001
0010
0100
0010
0200
0000
0310
0001
,  // measure 15
1000
0100
0010
0001
0020
0000
0031
0001
1000
0001
1000
0001
0100
0001
0100
0001
,  // measure 16
1000
0010
1000
0010
0200
0000
0310
1000
0010
1000
0010
1000
0001
0100
0001
0000
,  // measure 17
0001
0010
0100
0010
0001
0010
0100
0010
0001
0010
0010
0001
0100
0100
0001
0001
,  // measure 18
1000
0100
1000
0100
2000
0000
3001
0010
0001
0010
0001
0010
0002
0000
0103
0100
,  // measure 19
0010
0100
0010
0100
0001
0001
1000
1000
0001
0010
0100
1000
0010
0100
0001
0010
,  // measure 20
0100
1000
0100
0000
0100
1000
0100
0010
0001
0010
0001
0010
0010
0001
0010
0001
,  // measure 21
1000
0010
1000
0000
0001
0100
0001
0000
0010
0001
0010
0001
0100
0001
0100
0010
,  // measure 22
2002
0000
0000
0000
,  // measure 23
0000
0000
3003
0000
0001
0010
0100
1000
,  // measure 24
0001
0000
0001
0000
0100
0000
0010
1000
0000
0010
1000
0000
0010
0000
1000
0000
,  // measure 25
0001
0010
0001
0000
1010
0000
0010
1000
0000
0100
0001
0000
0011
0000
1001
0000
,  // measure 26
0100
0000
0010
0000
1000
0000
0001
0100
0000
0001
0100
0000
0100
0000
1010
0000
,  // measure 27
0100
0001
0100
0000
0001
0000
0010
0001
0000
0001
0010
0000
1100
0000
1100
0000
,  // measure 28
0001
0000
0001
0000
0110
0000
1000
0010
0000
0010
1000
0000
0011
0000
0011
0000
,  // measure 29
0001
1000
0001
0000
0100
0000
0010
0100
0000
0001
1000
0000
0011
0000
0110
0000
,  // measure 30
0001
1010
0000
1001
0000
0110
0000
1001
,  // measure 31
0000
1010
0000
0110
0000
2002
0000
3003
,  // measure 32
0100
0110
0100
0100
0010
1010
0010
1000
,  // measure 33
0001
0010
0001
0010
0100
1000
1100
1000
,  // measure 34
0001
0100
0010
1000
0100
0011
0001
0010
,  // measure 35
0001
1000
0001
1000
0010
1000
1010
1000
,  // measure 36
0100
0010
0100
0010
0001
0011
0001
0100
,  // measure 37
0010
0000
1000
0000
0010
0000
1000
0000
0010
0000
0100
0000
0110
0000
0010
0100
,  // measure 38
0001
0011
0000
1100
0000
0110
0000
0101
,  // measure 39
0000
0000
1001
0000
0000
0000
0110
0000
0000
0000
1001
0000
0000
0000
0010
1000
,  // measure 40
0100
0010
0100
1000
0001
0101
0001
1000
,  // measure 41
0010
1000
0001
0100
0010
1000
0100
0010
0001
0100
0010
1000
0100
0010
0001
0100
,  // measure 42
0010
0100
0010
1000
0100
1000
0010
0100
,  // measure 43
0001
0010
0100
1000
0010
0100
0001
0010
0100
1000
0010
0100
0001
0010
0100
1000
,  // measure 44
0001
0100
0101
0001
1000
0110
0100
0010
,  // measure 45
0001
0100
0010
1000
0100
0010
0001
0100
0010
0100
0010
1000
0001
0010
0100
1000
,  // measure 46
0010
0110
0000
1010
0000
0101
0000
0110
,  // measure 47
0000
0000
1010
0000
0000
0101
0000
0000
1010
0000
0000
0011
0000
0000
1000
0001
,  // measure 48
0100
0001
0100
0001
1000
0010
1000
0010
0100
0001
0100
0001
0010
0001
0010
0001
,  // measure 49
1000
0100
1000
0100
0010
0001
0010
0001
0100
0001
0100
0001
1000
0010
1000
0010
,  // measure 50
0100
0001
0100
0001
1000
0001
1000
0001
1000
0100
1000
0100
0010
0001
0010
0001
,  // measure 51
0010
0100
0010
0100
1000
0100
1000
0100
1000
0001
1000
0001
1001
0010
1000
0001
,  // measure 52
0100
0001
0010
0100
0010
0001
1000
0100
0010
0100
1000
0001
0100
0010
1000
0010
,  // measure 53
1000
0001
0100
0001
0010
0100
1000
0100
0010
0001
0100
0010
1000
0100
0010
0001
,  // measure 54
0010
0100
1000
0100
1000
0010
0100
0001
1000
0100
0010
0001
0100
0001
0001
1000
,  // measure 55
1000
0000
0010
0000
0100
0000
0020
0030
2002
3003
0100
0000
0001
0000
1000
0000
0001
0000
0010
0000
0100
0000
1000
0000
0100
0000
0010
0000
0001
0000
0100
0000
,  // measure 56
0010
1000
0001
0010
0100
0010
0001
1000
0100
0010
0100
1000
0001
0100
0010
1000
,  // measure 57
0100
1000
0001
0100
0001
0100
0010
1000
0010
1000
0100
0010
0001
0100
0010
1000
,  // measure 58
0100
0010
0100
1000
0001
0010
0100
1000
0010
1000
0100
1000
0001
0100
0001
0010
,  // measure 59
0100
1000
0100
1000
0010
1000
0001
0010
0100
0010
0001
1000
0010
0100
0001
0010
,  // measure 60
0001
0010
0001
0100
0010
1000
0010
1000
0100
1000
0001
0010
0001
1000
0100
0010
,  // measure 61
0001
0100
0010
1000
0100
0010
0001
0100
0010
0100
0010
1000
0001
0010
0100
1000
,  // measure 62
0100
1000
0001
0010
0100
1000
0100
1000
0010
0100
0001
0100
0010
1000
0100
0010
,  // measure 63
0001
0100
0010
0100
0020
0000
0000
1030
0000
1010
0000
1000
0000
0100
0001
0000
,  // measure 64
0002
0000
0000
0013
0001
0100
0000
0010
0000
1010
0000
0010
0000
1000
0100
0000
,  // measure 65
0020
0000
0000
0031
1000
0100
0000
1000
0000
0101
0000
0001
0000
0010
1000
0000
,  // measure 66
2000
0000
0000
3010
0100
0001
0000
0001
0000
0110
0000
1000
0000
0010
1000
0000
,  // measure 67
2000
0000
0000
3010
1000
0010
1000
0001
0100
0001
0100
0010
1000
0010
1000
0001
,  // measure 68
0100
0010
1000
0100
1000
0100
1000
0001
0010
0001
0010
0100
1000
0010
0100
0001
,  // measure 69
1000
0100
0010
0100
1000
0001
0100
0010
1000
0001
0100
0010
0100
0010
1000
0001
,  // measure 70
0010
0100
1000
0010
0100
0001
0000
0101
0000
0000
1010
0000
0000
0110
0000
0000
,  // measure 71
1001
0000
0000
0010
0220
0000
0000
0000
0000
0000
0000
0000
0000
0000
0000
0000
,  // measure 72
0000
0000
0000
0000
,  // measure 73
0000
0000
0000
0000
,  // measure 74
0000
0000
0000
0000
,  // measure 75
0330
0000
0000
0000
;

//---------------dance-double - ----------------
#NOTES:
     dance-double:
     :
     Challenge:
     17:
     0.964032,0.987828,0.519094,0.247926,1.289988,871.000000,804.000000,67.000000,32.000000,35.000000,0.000000,0.964032,0.987828,0.519094,0.247926,1.289988,871.000000,804.000000,67.000000,32.000000,35.000000,0.000000:
00200000
00000000
00000000
00000000
,
00000000
00000000
00000000
00300000
,
00100000
00010000
01000000
00001000
00010000
00000100
00001000
00000010
00000100
00000001
00000010
00000100
00010000
00001000
00100000
01000000
,
10000000
00010000
00100000
00001000
00010000
00000100
00010000
00000100
00000010
00000001
00000010
00000100
00001000
00000010
00010000
00000100
,
00010000
00001000
00100000
00010000
01000000
00100000
10000000
01000000
00100000
00010000
00100000
00010000
00100000
00001000
00010000
00000100
,
00001000
00000010
00000100
00000001
00000010
00000100
00010000
00001000
00100000
01000000
10000000
00100000
01000000
00000000
00010000
00100000
,
00001000
00010000
00000100
00000010
00000001
00000000
00000010
00000000
00000100
00000000
00001000
00000000
00000010
00000000
00000100
00000000
,
00000001
00000000
00001010
00000000
00020200
00030300
00000000
00000000
00000000
01001000
00000000
02002000
03003000
00000000
00001000
00010000
,
01000000
00010000
00001000
00010000
01000000
00000000
00100000
00000000
00010000
00000000
00001000
00000000
00000100
00000000
00000010
00000000
,
00000001
00000000
00000101
00000000
00002020
00003030
00000000
00000000
00000000
00011000
00000000
00022000
00033000
00000000
00001000
00000100
,
00000010
00000001
00000010
00000100
00001000
00000000
00000100
00000000
00010000
00000000
00001000
00000000
00100000
00000000
00010000
00000000
,
00100000
00000000
10010000
00000000
02200000
03300000
00000000
00000000
00000000
00011000
00000000
00002020
00003030
00000000
00000001
00000010
,
00000001
00000010
00000100
00001000
00000100
00000000
00001000
00000000
00000100
00000000
00001000
00000000
00000100
00000000
00010000
00001000
,
00100000
00010000
01000000
00100000
10000000
00000000
10000000
00100000
01000000
00010000
00100000
01000000
10000000
01000000
00100000
00010000
,
00100000
00001000
00000010
00000001
00000200
00000000
00000310
00001000
00000100
00001000
00000010
00001000
00000200
00000000
00001300
00000100
,
00010000
00001000
00100000
00010000
02000000
00000000
03010000
00100000
10000000
00100000
00010000
00100000
00010000
01000000
00001000
01000000
,
00001000
00010000
00000100
00001000
00000200
00000000
00001300
00000010
00001000
00000010
00001000
00000010
00000100
00000001
00000100
00000000
,
00000001
00000010
00000100
00000010
00000001
00000010
00000100
00001000
00000100
00000010
00000100
00001000
00000100
00010000
00001000
00010000
,
00001000
00100000
00001000
00100000
00002000
00000000
01003000
00010000
01000000
00010000
01000000
00010000
02000000
00000000
03010000
00000000
,
10000000
01000000
00100000
00010000
00001000
00000100
00000010
00000001
00000010
00001000
00000010
00000001
00000010
00001000
00000010
00000001
,
00000100
00001000
00000100
00000000
00000100
00001000
00000100
00010000
00100000
10000000
00100000
00010000
00100000
10000000
00100000
00010000
,
00100000
10000000
00100000
00000000
00001000
00010000
00001000
00000000
00000100
00001000
00000100
00001000
00000010
00001000
00000010
00000100
,
00M00200
00M00000
00M00000
00M00000
00M00000
00000000
00000000
M000M000
MM00M000
M0M0M000
M00MM000
M000M000
00000000
00000000
M000M000
MM0MM000
,
M0M0M000
M0M0M000
M0M0M000
M000M000
00000300
00000000
00000000
00000000
00001000
00000000
00000100
00000000
00000010
00000000
00000001
00000000
,
00001000
00000000
00001000
00000000
00000100
00000000
00100000
00001000
00000000
00100000
00001000
00000000
00100000
00000000
01000000
00000000
,
00010000
10000000
00010000
00000000
00101000
00000000
00100000
10000000
00000000
01000000
00010000
00000000
00110000
00000000
10010000
00000000
,
01000000
00000000
00100000
00000000
00010000
00000000
00001000
00000100
00000000
00000100
00001000
00000000
00000100
00000000
00000011
00000000
,
00001000
00000010
00001000
00000000
00000100
00000000
00100000
00001000
00000000
00001000
00100000
00000000
10010000
00000000
10010000
00000000
,
00100000
00000000
00010000
00000000
10100000
00000000
01000000
00010000
00000000
00010000
01000000
00000000
00010100
00000000
00010100
00000000
,
00000010
00001000
00000010
00000000
00000100
00000000
00000001
00000100
00000000
00000010
00001000
00000000
00011000
00000000
01100000
00000000
,
00010000
10100000
00000000
01001000
00000000
00010010
00000000
00001001
,
00000000
00100100
00000000
00011000
00000000
20020000
00000000
30030000
,
10000000
10000000
10100000
01000000
00010000
00110000
00010000
00100000
,
00001000
00000100
00000010
00000001
00000100
00000010
00001100
00001000
,
00000100
00100000
00001000
00100000
01000000
11000000
00010000
00100000
,
00010000
01000000
00010000
10000000
00100000
10000000
01010000
00100000
,
00000100
00010000
00000100
00010000
00000100
00000011
00000001
00000100
,
00000010
00000000
00010000
00000000
00000010
00000000
00010000
00000000
00001000
00000000
01000000
00000000
01100000
00000000
00100000
10000000
,
00010000
00110000
00000000
00101000
00000000
00000110
00000000
01000100
,
00000000
00000000
10010000
00000000
00000000
00000000
01001000
00000000
00000000
00000000
00011000
00000000
00000000
00000000
00000010
00001000
,
00000100
00001000
00000010
00001000
00000100
00010100
00000100
00001000
,
00000010
00001000
00000100
00010000
01000000
10000000
00100000
00010000
00001000
00000010
00000001
00000100
00000010
00010000
00000100
00001000
,
00000010
00000100
00000001
00001000
00000100
00010000
00001000
01000000
,
00010000
01000000
10000000
01000000
00010000
00000100
00000001
00000100
00010000
00100000
10000000
00100000
00010000
00001000
00000100
00000001
,
00000100
00000100
00000110
00000001
00001000
00011000
00100000
01000000
,
00010000
00100000
00010000
00100000
00001000
00010000
00000100
00000010
00000001
00000100
00001000
00010000
01000000
10000000
00100000
01000000
,
00100000
01100000
00000000
10010000
00000000
00100100
00000000
00001001
,
00000000
00000000
00001010
00000000
00000000
00001100
00000000
00000000
00101000
00000000
00000000
01010000
00000000
00000000
10000000
00010000
,
01000000
00010000
01000000
00010000
00100000
00001000
00100000
00001000
00010000
00000100
00010000
00000100
00000010
00000001
00000010
00000001
,
00000100
00000001
00000100
00000001
00001000
00000010
00001000
00000010
00010000
00000100
00010000
00000100
00010000
00001000
00010000
00001000
,
00100000
01000000
00100000
01000000
10000000
00010000
10000000
00010000
00100000
00001000
00100000
00001000
00010000
00000100
00010000
00000100
,
00010000
00001000
00010000
00001000
00100000
01000000
00100000
01000000
10000000
00010000
10000000
00010000
10010000
00100000
10000000
00010000
,
01000000
00001000
00010000
00000100
00010000
00001000
00100000
01000000
10000000
00010000
01000000
00100000
10000000
01000000
00100000
00001000
,
00010000
00000100
00000010
00000001
00000100
00000010
00001000
00000001
00000100
00000010
00010000
00000100
00010000
00001000
00010000
00000100
,
00100000
00001000
00100000
01000000
10000000
00010000
00100000
00001000
00010000
00000100
00000010
00000001
00001000
00000001
00000001
00001000
,
00001000
00000000
00000010
00000000
00001000
00000000
00000200
00000300
00002002
00003003
00000000
00000000
00000010
00000000
00001000
00000000
00000100
00000000
00000010
00000000
00000001
00000000
00000100
00000000
00000010
00000000
00001000
00000000
00000100
00000000
00001000
00000000
,
00000100
00000010
00000100
00001000
00000100
00000010
00000100
00001000
00000100
00010000
00001000
00100000
00010000
00100000
01000000
10000000
,
00100000
01000000
00010000
00100000
01000000
10000000
00010000
00100000
00001000
00000010
00000001
00000100
00000010
00001000
00000100
00010000
,
01000000
10000000
00100000
00010000
00001000
00100000
00001000
01000000
00010000
00100000
00001000
00100000
00010000
01000000
00100000
10000000
,
00100000
01000000
00010000
01000000
00010000
00100000
00001000
00010000
00000100
00010000
00000100
00000010
00000001
00000010
00000001
00000100
,
00000010
00001000
00000010
00001000
00000100
00010000
00000100
00010000
00001000
01000000
00001000
01000000
00010000
00100000
00010000
00100000
,
00001000
01000000
00001000
01000000
00100000
10000000
00100000
10000000
00010000
00100000
00001000
00010000
00000100
00000010
00000001
00000100
,
00001000
00010000
01000000
10000000
00100000
01000000
00010000
00100000
00001000
00000010
00000001
00000100
00000010
00001000
00000001
00000100
,
00001000
00000100
00000001
00000100
00002000
00000000
00000000
00013000
00000000
00011000
00000000
01000000
00000000
01000000
00010000
00000000
,
00020000
00000000
00000000
00130000
00010000
01000000
00000000
00001000
00000000
00001010
00000000
00000010
00000000
00001000
00000001
00000000
,
00000200
00000000
00000000
00000310
00001000
00000100
00000000
00010000
00000000
00011000
00000000
00010000
00000000
00001000
01000000
00000000
,
00020000
00000000
00000000
00130000
01000000
10000000
00000000
00010000
00000000
01100000
00000000
10000000
00000000
00100000
10000000
00000000
,
20000000
00000000
00000000
30100000
10000000
00010000
00100000
00001000
00010000
00000100
00000010
00000001
00000100
00000001
00000100
00000010
,
00001000
00000100
00010000
00001000
00010000
00001000
01000000
00001000
01000000
00010000
00100000
00010000
00100000
00001000
01000000
10000000
,
01000000
00010000
00100000
00001000
00000010
00000001
00000010
00001000
00010000
00000100
00010000
00001000
01000000
00010000
00100000
01000000
,
10000000
00010000
00100000
00001000
00000010
00001001
00000000
00010100
00000000
00000000
01001000
00000000
00000000
00010010
00000000
00000000
,
00001001
00000000
00000000
00010000
00022000
00000000
00000000
00000000
00000000
00000000
00000000
00000000
00000000
00000000
00000000
00000000
,
00000000
00000000
00000000
00000000
,
00000000
00000000
00000000
00000000
,
00000000
00000000
00000000
00000000
,
00033000
00000000
00000000
00000000
;

//---------------dance-single - ----------------
#NOTES:
     dance-single:
     :
     Hard:
     14:
     0.594357,0.755398,0.519094,0.224683,0.325402,537.000000,470.000000,67.000000,29.000000,2.000000,0.000000,0.594357,0.755398,0.519094,0.224683,0.325402,537.000000,470.000000,67.000000,29.000000,2.000000,0.000000:
0000
0000
0000
0000
,
0000
0000
0000
0000
,
0100
0100
0100
0100
,
0100
0000
0000
0000
0100
0000
0000
0000
0100
0000
0000
0100
0100
0000
0100
0000
,
0100
0100
0100
0100
,
1000
0010
1000
0000
1000
0010
1000
0000
0001
0100
0001
0000
1001
0000
0010
0000
,
1000
0100
0020
0000
0031
0000
1001
0000
,
0010
0001
0100
1000
0100
0001
0100
0010
,
1000
0100
0020
0000
0031
0000
0011
0000
,
1000
0100
0001
0100
1000
0100
0001
0100
,
1000
0010
0200
0000
0310
0000
0110
0000
,
0001
0010
0100
1000
0100
0010
0001
0100
,
0010
0100
0020
0000
0130
0010
0100
0001
,
0100
0001
0200
0300
0101
0000
1010
0000
,
0001
1000
0100
1000
0010
0100
0001
0010
,
0100
1000
0001
0100
0010
1000
0001
0010
,
1000
0010
0001
0100
0010
1000
0100
1000
,
0010
0100
0001
0100
0010
0100
0010
1000
,
0001
1000
0001
0010
0100
1000
0001
0100
,
1000
0100
0001
0010
1000
0010
0001
0100
,
0010
0100
0010
1000
0100
1000
0100
0010
,
0001
0000
0100
0000
1000
0000
0100
0000
0001
0100
0001
0100
0001
0100
0002
0000
,
0000
0000
0000
0000
,
0000
0000
0000
0003
1000
0100
1000
0100
,
0010
0001
0101
0000
0010
1000
0010
0100
,
0001
0100
1001
0000
0010
0100
0010
1000
,
0100
0010
0011
0000
0001
0010
1000
0010
,
0001
0100
1010
0000
0100
0001
0100
0010
,
1000
0001
0101
0000
0010
1000
0010
1000
,
0001
0100
1001
0000
1000
0010
0001
0010
,
1000
0100
0011
0000
0001
0010
1100
0000
,
0010
0100
0010
0100
0001
1000
1001
0000
,
0010
1000
0100
0010
0001
0100
0010
0100
,
0001
0010
0100
1000
0010
0100
0001
1000
,
0100
0001
0100
1000
0010
0100
0010
1000
,
0100
1000
0010
0001
0010
1000
0010
0100
,
0001
0010
0100
0010
0001
0100
0010
1000
,
0001
0100
1000
0100
0001
0010
1000
0010
,
0001
1000
0100
0001
0100
1001
0000
1010
,
0000
0000
0101
0000
0000
0000
1001
0000
0000
0000
0110
0000
0000
0000
1000
0001
,
1000
0010
0100
0010
1000
0001
0010
0100
,
0020
0000
0000
0000
,
0130
1000
0001
0100
0010
1000
0100
0001
,
0200
0000
0000
0000
,
0310
0100
0001
1000
0010
1000
0001
0100
,
0002
0000
0000
0000
0000
0000
0000
0003
,
0001
0200
0000
0320
0000
2030
0000
3002
,
0000
0000
0203
0000
0000
0320
0000
0000
2030
0000
0000
3002
0000
0000
0103
0010
,
0100
0001
0100
0010
1000
0010
0100
0001
,
0010
0100
1000
0001
0100
0001
0100
0010
,
1000
0010
0100
0001
0010
0001
1000
0100
,
0010
0000
0001
0000
0100
0000
0010
0000
1000
0000
0001
0000
1MM1
0001
0000
0010
,
0000
0100
0000
1000
0000
0010
0000
0100
0000
0010
0000
0100
0000
0001
0000
0100
,
0000
0010
0000
1000
0000
0100
0000
1000
0000
0010
0000
0001
0000
0010
0000
1000
,
0000
0010
0000
1000
0000
0001
0000
0010
0000
1000
0000
0010
0000
0001
0000
0100
,
0010
0010
0000
0110
1001
0000
0100
0000
0000
0110
0000
0000
1000
0000
0000
0101
,
0000
0000
0010
1000
0000
0000
0101
0000
0000
1010
0000
0000
0101
0000
0000
0011
,
0000
0000
0010
0100
0000
0000
0100
0000
0000
0110
0000
0000
0001
0000
0000
0101
,
0000
0000
0001
0001
0000
0000
1001
0000
0000
0110
0000
0000
1010
0000
0000
0011
,
0000
0000
0001
0100
0000
0000
0010
0000
0000
0101
0000
0000
1010
0000
0000
1010
,
0000
0000
0010
0100
0000
0000
1001
0000
0000
0100
0000
0000
1001
0000
0000
0110
,
0000
0000
0010
0100
0000
0000
1000
0000
0000
0011
0000
0000
0001
0000
0000
1100
,
0000
0000
0100
0001
0000
0000
1010
0000
0000
0101
0000
0000
0011
0000
0000
1100
,
0000
0000
0010
0100
0010
0000
0200
0000
0310
0000
0110
0000
0001
0100
0000
0200
,
0000
0000
0000
0300
0000
0000
0200
0000
0310
0000
0110
0000
0001
1000
0000
2000
,
0000
0000
0000
3000
0001
0000
0010
0000
0011
0000
0101
0000
0010
1000
0000
2000
,
0000
0000
0000
3000
0011
0000
0101
0000
1001
0000
0110
0000
0100
0010
0000
0020
,
0000
0000
0000
0030
0100
0000
0010
0000
0100
0000
0110
0000
0001
0100
0000
2002
,
0000
0000
0000
3003
0110
0000
0010
0000
0110
0000
1001
0000
0100
0001
0000
0202
,
0000
0000
0000
0303
0010
1000
0010
0000
0100
0001
0100
0000
0010
1000
0010
1000
,
0001
0100
0001
0100
0000
0000
1010
0000
0000
0110
0000
0000
0101
0000
0000
1001
,
0000
0000
1001
0220
0000
0000
0000
0000
0000
0000
0000
0000
0000
0000
0000
0000
,
0000
0000
0000
0000
,
0000
0000
0000
0000
,
0000
0000
0000
0000
,
0330
0000
0000
0000
;
