#TITLE:Smooth Criminal (Creedo Dubstep);
#SUBTITLE:;
#ARTIST:Michael Jackson;
#TITLETRANSLIT:;
#SUBTITLETRANSLIT:;
#ARTISTTRANSLIT:;
#GENRE:Dubstep/Dance;
#CREDIT:;
#BANNER:;
#BACKGROUND:Smooth Criminal-bg.png;
#LYRICSPATH:;
#CDTITLE:;
#MUSIC:Smooth Criminal.mp3;
#OFFSET:-0.120000;
#SAMPLESTART:14.879997;
#SAMPLELENGTH:12.000000;
#SELECTABLE:YES;
#DISPLAYBPM:140;
#BPMS:0.000000=140.000000
,132.000000=134.000000
,136.000000=140.000000
;
#STOPS:183.750000=0.850000
;
#BGCHANGES:;
#KEYSOUNDS:;
#ATTACKS:;

//---------------dance-single - ----------------
#NOTES:
     dance-single:
     :
     Medium:
     5:
     0.321874,0.571288,0.298992,0.437810,0.010678,142.000000,28.000000,41.000000,0.000000,4.000000,0.000000,0.321874,0.571288,0.298992,0.437810,0.010678,142.000000,28.000000,41.000000,0.000000,4.000000,0.000000:
0000
0000
0000
0000
,
0000
0000
0000
0000
,
2002
3003
0010
0000
,
0220
0330
0100
0000
,
2002
3003
0100
0000
,
0220
0330
0010
0000
,
0100
0100
0010
0000
,
1000
0000
0000
0000
0010
0100
0000
0001
,
1000
0000
0000
0000
0110
0000
0000
1000
,
0001
0000
0110
0000
,
1000
0000
0001
0010
0001
0000
0000
0000
,
1000
0100
0000
0000
0010
0100
0000
0000
,
1000
0000
0000
0000
0010
0001
0000
0000
,
1001
0000
0000
0100
0010
0100
0000
0000
,
1001
0000
0000
0000
0100
1000
0100
0000
,
0110
0000
0000
1000
0001
1000
0001
0000
,
1010
0000
0000
0000
0001
0000
0010
0100
,
0010
0000
0001
0000
,
2000
0000
0000
0000
,
3002
0000
0200
0000
,
0023
0000
0300
0000
,
0230
0000
0002
0000
,
2300
0000
0003
0000
,
0020
0000
3200
0000
,
0032
0000
0300
0000
,
1003
0000
0000
0000
,
1001
0000
0000
0000
0011
0000
0000
1000
,
0001
0000
1100
0000
,
0010
0000
0000
0000
0110
0000
0000
0100
,
0010
0000
0000
1000
0001
0000
0010
0000
,
1001
0000
0000
0000
0110
0000
0000
1000
,
0100
0000
0110
0000
,
0001
0000
0000
0000
0110
0000
0000
0001
,
0010
0000
0010
0000
,
0220
0000
0330
0000
,
0000
0000
0000
0000
,
0220
0000
0330
0000
,
0000
0000
0000
0000
,
0220
0330
0000
0000
0022
0033
0000
0000
,
0202
0303
0000
0000
2020
3030
0000
0000
,
2200
3300
0000
0000
2002
3003
0000
0000
,
0220
0330
0000
0000
0220
0330
0000
0000
,
0001
0010
0100
1000
,
0100
0010
0001
0010
,
0100
0010
0100
0010
0100
0010
0100
0010
,
0100
0001
2000
0000
0000
0000
3000
0000
,
0001
0100
0010
0100
,
0010
1000
0001
0000
,
0100
1000
0100
1000
0000
0000
0000
1000
,
0001
1000
0001
0000
0000
0000
0100
0000
,
0010
0001
1000
0000
0200
0000
0300
0000
,
0020
0000
0000
0030
0000
0000
0000
0000
,
1000
0001
0100
0000
0010
0000
0100
0000
,
0001
0000
0100
0000
0010
0000
1000
0000
0000
0000
0000
0000
;

//---------------dance-single - ----------------
#NOTES:
     dance-single:
     :
     Hard:
     7:
     0.430182,0.575293,0.405775,0.277635,0.032035,233.000000,38.000000,26.000000,8.000000,2.000000,15.000000,0.430182,0.575293,0.405775,0.277635,0.032035,233.000000,38.000000,26.000000,8.000000,2.000000,15.000000:
// measure 0
0000
0000
0000
0000
,  // measure 1
0000
0000
0000
0000
,  // measure 2
0000
0001
1000
0100
1000
0100
0000
0000
,  // measure 3
0010
1000
0000
0001
0010
0100
0000
0000
,  // measure 4
0000
0001
1000
0001
0100
0010
0000
1000
,  // measure 5
0010
1000
0000
0001
0010
0100
0000
0000
,  // measure 6
1001
0000
0000
0000
0101
0100
0000
0001
,  // measure 7
1000
0001
0000
0100
0010
0100
0000
0000
,  // measure 8
1010
1000
0100
0010
0001
0010
0000
0010
,  // measure 9
0100
0010
0000
0000
MMMM
0000
0000
0000
,  // measure 10
1001
0001
1000
0100
0010
0100
0000
0001
,  // measure 11
1000
0001
0000
1000
0100
1000
0000
0000
,  // measure 12
0000
0001
0010
0100
1000
0100
0000
0010
,  // measure 13
0001
0010
0000
1000
0001
1000
0000
0000
,  // measure 14
0100
1000
0001
0010
0000
0100
1000
0100
,  // measure 15
1000
0000
0001
0000
0000
0000
0010
0000
0001
0000
0010
0000
0100
1000
0000
0000
,  // measure 16
0000
0010
0100
0001
0010
0100
0000
1000
,  // measure 17
0100
1000
0000
0100
0010
0100
0000
0000
,  // measure 18
0004
0000
0000
0000
,  // measure 19
0040
0000
0403
0000
,  // measure 20
4030
0000
0300
0000
,  // measure 21
3400
0000
0000
0000
0004
0000
0000
0303
,  // measure 22
0440
0000
0000
0000
0000
0000
0000
0330
,  // measure 23
4004
0000
0000
3003
4400
0000
0000
3300
,  // measure 24
0044
0000
0000
0000
,  // measure 25
0033
0000
0110
MMMM
,  // measure 26
1001
0000
1000
0100
0010
0100
0000
1000
,  // measure 27
0100
0001
0000
0001
0100
1000
0000
0000
,  // measure 28
0000
0001
0010
0100
0010
0100
0000
1000
,  // measure 29
0010
1000
0000
1000
0100
1000
0001
0010
,  // measure 30
0000
0001
0010
0100
1000
0100
0000
1000
,  // measure 31
0001
0000
1000
0000
0000
0000
0010
0000
1000
0001
1000
0000
0000
0000
0000
0000
,  // measure 32
0000
1000
0100
0010
0001
0010
0000
0100
,  // measure 33
1000
0000
0000
0000
0001
0000
0000
0000
0010
0000
0000
0000
0100
0000
0000
0010
0000
0000
0100
0000
0000
0000
0000
0000
,  // measure 34
2002
0000
3003
0100
0000
0010
0000
0100
,  // measure 35
0000
0010
0000
0100
0000
0010
0000
0100
,  // measure 36
0220
0000
0330
1000
0000
0001
0000
1000
,  // measure 37
0000
0001
0000
0000
1000
0001
1000
0000
,  // measure 38
0220
0330
0000
0000
0202
0303
0000
0000
,  // measure 39
2200
3300
0000
0000
2020
3030
0000
0000
,  // measure 40
0022
0033
0000
0000
2002
3003
0000
0000
,  // measure 41
0202
0303
0000
0000
2200
3300
0000
0000
,  // measure 42
0110
1100
0110
0011
,  // measure 43
0110
1100
0110
0011
,  // measure 44
1001
0001
0010
0100
1000
0100
0010
0100
,  // measure 45
1000
0004
0000
0003
,  // measure 46
1001
0000
0000
0000
2020
3030
1000
0000
,  // measure 47
0202
0303
0001
0000
0010
0100
0010
0000
,  // measure 48
1000
0100
0001
0100
1000
0010
0100
0001
,  // measure 49
1100
1100
1100
0000
0001
0000
1000
0000
,  // measure 50
0001
0100
1000
0100
0002
0003
1000
1000
,  // measure 51
0020
0000
1030
0100
1000
0000
0001
0000
,  // measure 52
0010
0100
0010
0000
0001
0000
1000
0000
,  // measure 53
1001
0000
0000
0000
0110
0000
0000
0000
1001
0000
0000
0000
1000
0000
0000
0100
0000
0000
0010
0000
0000
0001
0000
0000
;

//---------------dance-single - ----------------
#NOTES:
     dance-single:
     :
     Easy:
     3:
     0.201362,0.285644,0.192209,0.106783,0.000000,104.000000,18.000000,10.000000,0.000000,0.000000,0.000000,0.201362,0.285644,0.192209,0.106783,0.000000,104.000000,18.000000,10.000000,0.000000,0.000000,0.000000:
0000
0000
0000
0000
,
0000
0000
0000
0000
,
1001
0000
1000
0000
,
0010
0000
1000
0000
,
1001
0000
0001
0000
,
0100
0000
0001
0000
,
0001
0000
0110
0000
,
1000
0000
0110
0000
,
0001
0000
0110
0000
,
1000
0000
0110
0000
,
0001
0010
0001
0000
,
1000
0000
0010
0000
,
1000
0100
1000
0000
,
0001
0000
0100
0000
,
0001
0100
0001
0000
,
1000
0000
0010
0100
,
0000
0000
0001
0000
,
1000
0000
0100
0000
,
2000
0000
3000
0000
,
0002
0000
2003
0000
,
3002
0000
0003
0000
,
0020
0000
0230
0000
,
0320
0000
0030
0000
,
2000
0000
3002
0000
,
2003
0000
3000
0000
,
0001
0000
0110
0000
,
1000
0000
0001
0000
,
0100
0000
0010
0000
,
1001
0000
0010
0000
,
0100
0000
0010
0000
,
0001
0000
1000
0000
,
0001
0000
1000
0000
,
0001
0000
0010
0000
,
0100
0000
0100
0000
,
1001
0000
0000
0000
,
0000
0000
0000
0000
,
1001
0000
0000
0000
,
0000
0000
0000
0000
,
1001
0000
1001
0000
,
1001
0000
1001
0000
,
1001
0000
1001
0000
,
1001
0000
1001
0000
,
1000
1000
0001
0001
,
1000
1000
0001
0001
,
0100
0100
0010
0010
,
0100
0000
0000
0000
,
1000
0000
0100
0000
,
1000
0000
0010
0000
,
0100
0000
0001
0000
,
0100
0100
0010
0000
,
0100
0000
0001
0000
,
0010
0000
0100
0000
,
1000
0000
0100
0000
,
0010
0010
0001
0000
;

//---------------dance-single - ----------------
#NOTES:
     dance-single:
     :
     Challenge:
     9:
     0.582729,0.776645,0.384418,0.363062,0.341705,322.000000,36.000000,34.000000,32.000000,0.000000,10.000000,0.582729,0.776645,0.384418,0.363062,0.341705,322.000000,36.000000,34.000000,32.000000,0.000000,10.000000:
// measure 0
0000
0000
0000
0000
,  // measure 1
0000
0000
0000
0000
,  // measure 2
0000
0000
1000
0001
1000
0001
1000
0000
0100
0000
0010
0000
0000
0000
0001
1000
,  // measure 3
0001
0000
0100
0000
0000
0000
0010
0100
0001
0000
1000
0000
0000
0000
MMMM
0000
,  // measure 4
0000
0000
0001
1000
0001
1000
0001
0000
0100
0000
0010
0000
0000
0000
1000
0100
,  // measure 5
0010
0000
0001
0000
0000
0000
0010
0001
1000
0000
0001
0000
0000
0000
MMMM
0000
,  // measure 6
0000
0000
1000
0100
1000
0100
1000
0000
0100
0000
0010
0000
0000
0000
0100
1000
,  // measure 7
0001
0000
0010
0000
0000
0000
0010
1000
0010
0000
0100
0000
0000
0000
0000
0000
,  // measure 8
0000
0000
0001
0010
0001
0010
0001
0000
1000
0000
0010
0000
0000
0000
0100
0010
,  // measure 9
0001
0010
0000
1000
0110
0000
0011
0000
,  // measure 10
1001
0000
0100
0010
0100
0010
0100
0000
0001
0000
0001
0000
0000
0000
1000
0100
,  // measure 11
0001
0000
0001
0000
0000
0000
0001
0100
1000
0000
1000
0000
0000
0000
0000
0000
,  // measure 12
1010
0000
0100
0001
0100
0001
0100
0000
0010
0000
0010
0000
0000
0000
1000
0100
,  // measure 13
0010
0000
0010
0000
0000
0000
0010
0001
0010
0000
0100
0000
0000
0000
0000
0000
,  // measure 14
1000
0001
1000
0001
0010
0000
0100
0000
0000
0000
0100
0000
1000
0001
1000
0001
,  // measure 15
0100
0000
0010
0000
0000
0000
0100
0010
1000
0000
0001
0000
0100
0010
0000
0000
,  // measure 16
0000
0000
1000
0010
1000
0010
1000
0000
0001
0000
0001
0000
0000
0000
0100
0010
,  // measure 17
1000
0000
0001
0000
0000
0000
0010
0100
1000
0000
0001
0000
0000
0000
0000
0000
,  // measure 18
4000
0001
0000
0010
,  // measure 19
3400
1000
0340
0100
,  // measure 20
0034
0010
0000
1000
,  // measure 21
0403
0010
0304
1000
,  // measure 22
0043
0100
0000
0001
,  // measure 23
0430
0000
0010
0000
4300
0000
0001
3000
,  // measure 24
0001
0010
0001
0010
0001
0000
0100
0000
0000
0000
0001
0000
1000
0010
1000
0010
,  // measure 25
1000
0000
0100
0000
0000
0000
0001
0100
0001
0000
0010
0000
MMMM
0000
0000
0000
,  // measure 26
1001
0000
0000
0000
0100
0010
0100
0010
1000
0000
0010
0000
0000
0000
0100
0010
,  // measure 27
0001
0000
0010
0000
0000
0000
1000
0100
0010
0000
0100
0000
0000
0000
0000
0000
,  // measure 28
1001
0000
0010
0001
1000
0001
1000
0000
0010
0000
0100
0000
0000
0000
1000
0100
,  // measure 29
1000
0000
0010
0000
0000
0000
0010
0100
0010
0000
1000
0000
0010
0000
0001
0000
,  // measure 30
0000
0000
0001
0010
1000
0000
0100
0000
1000
0000
0001
0000
0000
0000
0100
0010
,  // measure 31
0100
0000
0001
0000
0000
0000
1000
0001
1000
0001
1000
0000
0000
0000
0000
0000
,  // measure 32
1001
0000
0001
0010
0100
1000
0100
0000
0010
0000
0001
0000
0000
0010
0100
0000
,  // measure 33
1010
0000
0000
0000
0000
0000
0000
0000
0000
0000
0000
0000
0000
0000
0000
0000
0000
0000
0000
0000
0000
0000
0000
0000
0000
0000
0000
0000
0000
0000
0000
0000
0110
0000
0000
0000
0000
0000
0000
0000
0000
0000
0000
0000
0000
0000
0000
0000
0000
0000
0000
0000
0000
0000
0000
0000
0000
0000
0000
0000
0000
0000
0000
0000
0101
0000
0000
0000
0000
0000
0000
0000
0000
0000
0000
0000
0000
0000
0000
0000
0000
0000
0000
0000
0000
0000
0000
0000
0000
0000
0000
0000
0000
0000
0000
0000
1100
0000
0000
0000
0000
0000
0000
0000
0000
0000
0000
0000
0000
0000
0000
0000
0000
0000
0011
0000
0000
0000
0000
0000
0000
0000
0000
0000
0000
0000
0000
0000
0000
0000
0000
0000
0000
0000
0000
0000
0000
0000
0110
0000
0000
0000
0000
0000
0000
0000
0000
0000
0000
0000
0000
0000
0000
0000
0000
0000
0000
0000
0000
0000
0000
0000
0000
0000
0000
0000
0000
0000
0000
0000
0000
0000
0000
0000
0000
0000
0000
0000
0000
0000
0000
0000
0000
0000
0000
0000
0000
0000
0000
0000
0000
0000
,  // measure 34
1001
0100
0000
0010
0000
1000
0000
0001
,  // measure 35
0000
0100
0000
0010
0000
0100
0000
0000
,  // measure 36
1001
0001
0000
1000
0000
0100
0000
0001
,  // measure 37
0000
0100
0000
1000
0000
0100
0000
0010
,  // measure 38
2001
0000
0000
3000
M200
0000
0000
0300
,  // measure 39
0M20
0000
0000
0030
00M2
0000
0000
MM03
,  // measure 40
220M
0000
0000
33MM
MM22
0000
0000
MM33
,  // measure 41
22MM
0000
0000
33MM
MM22
0000
0000
0033
,  // measure 42
10MM
0100
1000
0100
,  // measure 43
0010
0001
0010
0001
,  // measure 44
1000
0100
0010
0001
0010
0100
1000
0100
,  // measure 45
0010
0001
0010
0001
0040
0000
0000
0000
0000
0000
0000
0000
0000
0000
0030
0000
,  // measure 46
1001
0010
0202
0303
2020
3030
0100
0010
,  // measure 47
2002
3003
0100
0010
1000
0001
1000
0001
,  // measure 48
0010
0100
0010
1000
0100
0001
0100
1000
,  // measure 49
1100
1010
0110
0000
0001
0000
1000
0000
,  // measure 50
0001
1000
0022
0033
2200
3300
0010
0100
,  // measure 51
0220
0000
0330
0000
1000
0100
0000
0000
1001
0000
0000
0000
0010
0000
0000
0000
,  // measure 52
2002
0000
0000
3003
0000
0000
0220
0000
0000
0330
0000
0000
0001
0000
0010
0000
0100
0000
0000
0000
0000
0000
0000
0000
,  // measure 53
2020
0000
0000
3030
0220
0000
0330
0000
0022
0000
0033
0000
0100
0000
0000
0010
0000
0000
1000
0000
0000
0001
0000
0000
;

//---------------dance-single - ----------------
#NOTES:
     dance-single:
     :
     Beginner:
     1:
     0.071697,0.141487,0.032035,0.042713,0.000000,40.000000,3.000000,4.000000,0.000000,0.000000,0.000000,0.071697,0.141487,0.032035,0.042713,0.000000,40.000000,3.000000,4.000000,0.000000,0.000000,0.000000:
0000
0000
0000
0000
,
0000
0000
0000
0000
,
1000
0000
0000
0000
,
0000
0000
0000
0000
,
0010
0000
0000
0000
,
0000
0000
0000
0000
,
0100
0000
0000
0000
,
0010
0000
0000
0000
,
0001
0000
0000
0000
,
0001
0000
0000
0000
,
0010
0000
0000
0000
,
0000
0000
0000
0000
,
0100
0000
0000
0000
,
0000
0000
0000
0000
,
0001
0000
0000
0000
,
1000
0000
0000
0000
,
0100
0000
0000
0000
,
0001
0000
0000
0000
,
2000
0000
0000
0000
,
3000
0000
0000
0000
,
0002
0000
0000
0000
,
0003
0000
0000
0000
,
0020
0000
0000
0000
,
0030
0000
0000
0000
,
0200
0000
0000
0000
,
0300
0000
0000
0000
,
1001
0000
0000
0000
,
0010
0000
0000
0000
,
0010
0000
0000
0000
,
0000
0000
0000
0000
,
0100
0000
0000
0000
,
0100
0000
0000
0000
,
0000
0000
0000
0000
,
0010
0000
0000
0000
,
1001
0000
0000
0000
,
0000
0000
0000
0000
,
0110
0000
0000
0000
,
0000
0000
0000
0000
,
0001
0000
0000
0000
,
0001
0000
0000
0000
,
1000
0000
0000
0000
,
1000
0000
0000
0000
,
0001
0000
1000
0000
,
0001
0000
1000
0000
,
0001
0000
1000
0000
,
0000
0000
0000
0000
,
0000
0000
0000
0000
,
0010
0000
0000
0000
,
0010
0000
0000
0000
,
0000
0000
0000
0000
,
0100
0000
0000
0000
,
0010
0000
0000
0000
,
0001
0000
0000
0000
,
1000
0000
0000
0000
;
