#TITLE:Show You (feat. Alisa Nappa);
#SUBTITLE:;
#ARTIST:Fytch;
#CREDIT:YYZStepper;
#MUSIC:Show You.ogg;
#SELECTABLE:YES;
#BACKGROUND:Show You-BG.png;
#BANNER:Show You-BN.png;
#CDTITLE:;
#OFFSET:-2.822;
#SAMPLESTART:0.000;
#SAMPLELENGTH:0.000;
#BPMS:0=126,128=123.001,129=126.048;
#STOPS:;

//---------------dance-single - ----------------
#NOTES:
     dance-single:
     :
     Hard:
     7:
     0.000,0.000,0.000,0.000,0.000:
0000
0000
0000
0000
,
0000
0000
0000
0000
,
0000
0000
0000
0000
,
0000
0000
0000
0000
,
0000
0000
0000
0000
,
0000
0000
0000
0000
,
0000
0000
0000
0000
,
0000
0000
0000
0000
,
1000
1000
0010
0010
0100
0100
0001
0001
,
0100
0100
0010
0010
2000
3000
0002
2000
,
0000
0000
0000
0000
,
0000
0000
0000
3003
1001
0000
0000
0000
,
1000
0100
1000
0100
1000
0100
0010
0001
,
0010
0001
0010
0001
0020
0030
0002
2000
,
0000
0000
0000
0000
0003
0020
3000
0200
,
0000
0000
0000
0000
0000
0000
0000
0330
,
0000
0000
1001
0000
0000
0000
1000
0010
,
0100
0001
0100
0010
1000
0000
2000
0000
,
0000
0000
0000
0000
3000
0000
0001
0100
,
0010
0000
1000
0000
0010
0200
0000
0000
0300
0002
0000
0000
0000
2003
0000
0000
,
0000
0000
0000
0000
3000
0000
0010
1000
,
1010
0011
0001
1000
1001
0000
0010
0001
,
0011
1010
1000
0001
2002
0000
0000
0000
,
0000
0000
3003
0000
,
0000
0000
1001
0000
0000
0000
0001
0100
,
0010
1000
0010
0100
0001
0000
0002
0000
,
0000
0000
0000
0000
0003
0000
1000
0010
,
0100
0000
0001
0000
0100
0020
0000
0000
0030
2000
0000
0000
0000
3002
0000
0000
,
0000
0000
0003
0000
,
0000
0200
0000
0000
0000
0000
0000
0000
0000
0000
0000
0000
0000
0000
0000
0000
0000
0000
0000
0000
0000
0000
0000
0320
0000
0000
0000
0000
0000
0000
0000
0000
0000
0000
0000
0000
0000
0000
0000
0000
0000
0000
0000
0000
0000
0000
0000
2030
,
0000
0000
0000
0000
,
3000
0001
1000
1001
,
1001
0000
0001
0100
0020
0000
1030
0100
,
0020
0000
0031
1000
0001
0010
0100
1000
,
1001
0000
1000
1000
1000
0000
0001
0001
,
0001
0000
1100
0000
0202
0000
0303
2002
,
0003
0000
0010
0001
3010
0000
0012
1000
,
0013
0000
2010
0001
3010
1000
0100
0010
,
0002
0000
2003
0000
,
3002
0003
0101
0000
1100
0000
1010
0000
,
0011
0001
0010
0001
0011
0000
1000
0100
,
1000
0000
0001
0100
0001
1000
0010
1000
,
1010
1000
0010
1000
1010
0000
0001
0100
,
0001
0000
0000
0000
1000
0000
0100
0000
1000
0000
0000
0000
0000
2002
0000
0000
,
0000
3003
0000
1000
0400
0000
0300
0001
,
0400
0000
0300
1000
0400
0000
0300
0000
,
1000
0010
1000
0010
1000
0010
1000
0010
0001
0100
0001
0100
0001
0100
0001
0100
,
0001
0000
2000
0000
0002
3003
1001
0000
,
0010
1000
0100
1100
0000
0001
0100
0101
,
0000
1000
0001
1001
1000
0100
0010
0001
,
0010
0001
0100
0101
0000
1000
0100
1100
,
0000
0001
1000
1001
0001
0010
0100
1000
,
0100
1000
0010
1010
0000
0001
0010
0011
,
0000
1000
0001
1001
1000
0010
0100
0001
,
0100
0001
0010
0011
0000
1000
0010
1010
,
0000
0001
1000
1001
0001
0100
0010
1000
,
0010
1000
0100
1100
0000
0001
0100
0101
,
0000
1000
0001
1001
1000
0100
0010
0001
,
0010
0001
0100
0101
0000
1000
0100
1100
,
0000
0001
1000
1001
0001
0010
0100
1000
,
0100
1000
0010
1010
0000
0001
0010
0011
,
0000
1000
0001
1001
1000
0010
0100
0001
,
0100
0001
0010
0011
0000
1000
0010
1010
,
0000
0001
1000
1001
0001
0100
0010
1000
,
0000
0000
0000
0000
,
0000
0000
0000
0000
;
