#TITLE:Shake It Off (Crysis Remix);
#SUBTITLE:;
#ARTIST:Taylor Swift;
#TITLETRANSLIT:;
#SUBTITLETRANSLIT:;
#ARTISTTRANSLIT:;
#GENRE:;
#CREDIT:;
#BANNER:;
#BACKGROUND:Shake It Off (Crysis Remix)-bg.png;
#LYRICSPATH:;
#CDTITLE:;
#MUSIC:Shake It Off (Crysis Remix).mp3;
#OFFSET:-0.320000;
#SAMPLESTART:99.680054;
#SAMPLELENGTH:12.000000;
#SELECTABLE:YES;
#DISPLAYBPM:176.000000;
#BPMS:0.000000=176.000000
;
#STOPS:
;
#BGCHANGES:;
#KEYSOUNDS:;
#ATTACKS:;

//---------------dance-single - ----------------
#NOTES:
     dance-single:
     :
     Easy:
     3:
     0.233056,0.292525,0.260179,0.084382,0.000000,183.000000,37.000000,12.000000,0.000000,0.000000,0.000000,0.233056,0.292525,0.260179,0.084382,0.000000,183.000000,37.000000,12.000000,0.000000,0.000000,0.000000:
0000
0000
0000
0000
,
0000
0000
0000
0000
,
0000
0000
0000
0000
,
0000
0000
0000
0000
,
1000
0000
0000
0000
,
0001
0000
0000
0000
,
1000
0000
0000
0000
,
0000
0000
0000
0000
,
2000
0000
0000
3000
,
0002
0000
0000
0003
,
0200
0000
0000
0300
,
0020
0000
0000
0030
,
2000
0000
0000
3000
,
0002
0000
0000
0003
,
2000
0000
0000
3000
,
0002
0000
0000
0003
,
1001
0000
0001
0000
,
1000
0000
0001
0000
,
0100
0000
0001
0000
,
0010
0000
0001
0000
,
1000
0000
0001
0000
,
1000
0000
0001
0000
,
0100
0000
0001
0000
,
0100
0000
0000
0000
,
1001
0000
0100
0000
,
1000
0000
0000
0000
,
1010
0000
0100
0000
,
0001
0000
0000
0000
,
0101
0000
1000
0000
,
0010
0000
0000
0000
,
0011
0000
0001
0000
,
0100
0000
0000
0000
,
1001
0000
0100
0000
,
0010
0000
0000
0000
,
1010
0000
0100
0000
,
0100
0000
0000
0000
,
0101
0000
0010
0000
,
0010
0000
0000
0000
,
1010
0000
0100
0000
,
0100
0000
0000
0000
,
0101
0000
0010
0000
,
0010
0000
0000
0000
,
1001
0000
0100
0000
,
0100
0000
0000
0000
,
1001
0000
0010
0000
,
0010
0000
0010
0000
,
1001
0000
0110
0000
,
1001
0000
0000
0000
,
1001
0000
0100
0000
,
0110
0000
0000
0000
,
1001
0000
0010
0000
,
0110
0000
0000
0000
,
1100
0000
0100
0000
,
0010
0000
0100
0000
,
0011
0000
0100
0000
,
1000
0000
0100
0000
,
1001
0100
0010
0000
,
0010
0100
0010
0000
,
1001
0001
0001
0000
,
1001
1000
1000
0000
,
1100
0010
0001
0000
,
0011
0100
1000
0000
,
0011
0000
0100
0000
,
0010
0000
0200
0000
,
1300
0000
0000
0000
,
0001
0000
0010
0000
,
0100
0000
0001
0000
,
1000
0000
0000
0000
,
0100
0000
0010
0000
,
0100
0000
0000
0000
,
0001
0000
0100
0000
,
0100
0000
0000
0000
,
1000
0000
0100
0000
,
0001
0000
0000
0000
,
0001
0000
0100
0000
,
1000
0000
0001
0000
,
1000
0000
0100
0000
,
0010
0000
0001
0000
,
0001
0000
0010
0000
,
0100
0000
1000
0000
,
2000
0000
3001
0000
,
0100
0000
0010
0000
,
0002
0000
0103
0000
,
0010
0000
0100
0000
,
0020
0000
0130
0000
,
0001
0000
0010
0000
,
0100
0000
1000
0000
,
1000
0000
1000
0000
,
1001
0000
0100
0000
,
0010
0000
0100
0000
,
1001
0000
0100
0000
,
0010
0000
0100
0000
,
1100
0000
0100
0000
,
0010
0000
0001
0000
,
0011
0000
1001
0000
,
0100
0000
0010
0000
,
1001
0100
0010
0001
,
0010
0000
1000
0100
,
0010
0000
1001
0000
,
0100
0010
0001
0010
,
1000
0000
1001
0100
,
0010
0000
0100
0100
,
0100
0000
1001
0000
,
1000
0100
0010
0000
,
1001
0000
0000
0000
;

//---------------dance-single - ----------------
#NOTES:
     dance-single:
     :
     Medium:
     6:
     0.402825,0.439315,0.428943,0.295338,0.000000,298.000000,61.000000,42.000000,20.000000,0.000000,5.000000,0.402825,0.439315,0.428943,0.295338,0.000000,298.000000,61.000000,42.000000,20.000000,0.000000,5.000000:
0000
0000
0000
0000
,
0000
0000
0000
0000
,
0000
0000
0000
0000
,
0000
0000
0000
0000
,
1000
0000
0001
0000
,
0100
0000
0010
0000
,
1000
0000
1000
0000
,
0001
0000
0001
0000
,
1002
0000
1003
0000
,
2001
0000
3001
0000
,
0120
0000
0130
0000
,
0210
0000
0310
0000
,
1000
0100
0000
1001
,
0110
0000
0100
0010
,
0100
1000
0000
0110
,
1001
0010
0001
0010
,
0001
0000
1001
0000
,
0100
0000
1010
0000
,
0100
0000
0101
0000
,
1000
0000
1001
0000
,
0100
0000
1010
0000
,
1000
0000
1001
0000
,
0001
0000
0101
0000
,
0100
0010
0100
1000
,
2200
3300
0202
0303
,
0001
1000
0100
0010
,
0022
0033
2002
3003
,
0001
0001
0010
0100
,
2020
3030
2002
3003
,
0100
0010
0100
0010
,
1000
0001
1000
0001
,
4000
0000
0000
0000
,
3100
1000
0100
0010
,
0001
0010
0100
1000
,
1001
0100
0010
0001
,
0010
0100
1000
0100
,
0010
0001
1001
0100
,
1010
0100
0101
0100
,
1000
0000
0001
0000
,
1001
0000
1010
0000
,
1001
0001
0010
0100
,
1000
0100
0010
0001
,
1001
0001
0010
0100
,
1000
0100
0010
0001
,
1001
1000
0100
0010
,
0001
0010
0100
1000
,
0010
0100
0001
1000
,
0004
0000
0003
0000
,
1M1M
0000
0110
0000
,
1001
0000
0101
0000
,
M11M
0000
0100
0000
,
0001
0000
0100
0000
,
1001
0100
0010
0001
,
0000
1001
0010
0100
,
1000
0100
0010
0001
,
0010
0100
1000
0000
,
1000
0000
1000
0100
0010
0000
0000
0000
,
0010
0000
0010
0100
0001
0000
0000
0000
,
0001
0000
0100
0010
1000
0000
0000
0000
,
1000
0000
0001
0100
,
1010
0000
0100
0001
,
0101
0000
0100
0010
,
0110
0000
1000
0001
,
1001
0000
0100
0000
,
1000
0100
2000
0000
,
3001
0010
0002
0000
,
1003
0010
2000
0000
,
3001
0100
0002
0000
,
2003
0000
0000
3000
0000
0000
1010
0000
,
0202
0003
0310
0100
,
0010
2000
3000
0101
,
1010
0000
1000
0010
,
0001
0100
1000
0100
,
0000
1000
0100
0010
,
0001
0000
0001
0010
,
0100
0000
1000
0100
,
0010
0200
0300
1001
,
0220
0330
0100
0010
,
0001
0200
0300
0110
,
1001
0010
0100
1000
,
0200
0000
0302
0000
,
0103
0010
1000
0001
,
0020
0000
0230
0300
,
0100
0010
0001
0010
,
0220
0330
2002
3003
,
1000
0100
0010
0001
,
0100
0000
0100
0010
1000
0100
0000
0400
,
0000
0000
0000
0000
0000
0300
0000
0000
,
MM11
0000
M11M
0000
,
11MM
0000
MM11
0000
,
11MM
0000
1000
0100
,
0020
0000
0032
0000
,
0103
0010
0220
0000
,
0330
1010
0202
0000
,
0303
0001
0010
0100
,
1000
0100
0010
0100
,
1001
0000
0001
0010
0100
0000
0M00
0000
,
0100
0000
1000
0100
0010
0000
00M0
0000
,
0010
0000
0001
0010
0100
0000
0M00
0000
,
0100
0000
0010
0100
0010
0000
00M0
0000
,
0010
0000
0001
1000
0001
0000
000M
0000
,
1000
0000
1000
0001
0001
0000
000M
0000
,
0100
0000
0100
0010
0010
0000
4004
0000
,
0000
0000
0000
0000
,
0000
3003
0000
0000
0000
0000
0000
0000
;

//---------------dance-single - ----------------
#NOTES:
     dance-single:
     :
     Hard:
     9:
     0.632867,0.657918,0.759440,0.478166,0.140637,446.000000,108.000000,68.000000,20.000000,8.000000,5.000000,0.632867,0.657918,0.759440,0.478166,0.140637,446.000000,108.000000,68.000000,20.000000,8.000000,5.000000:
// measure 0
0000
0000
0000
0000
,  // measure 1
0000
0000
0000
0000
,  // measure 2
0000
0000
0000
0000
,  // measure 3
0000
0000
0000
0000
,  // measure 4
1000
0100
0010
0001
,  // measure 5
0010
0110
1000
0100
,  // measure 6
1000
0110
0010
0100
,  // measure 7
0010
0001
0010
0001
,  // measure 8
2001
0000
3100
0000
,  // measure 9
0102
0000
0013
0010
,  // measure 10
1020
0000
0130
0000
,  // measure 11
0201
0000
0000
0000
0310
0001
0010
0100
,  // measure 12
1001
0000
0220
0000
0330
0000
2200
3300
,  // measure 13
0022
0000
0033
0000
1000
0100
0010
0001
,  // measure 14
0010
0100
2000
0000
3000
0000
0101
0000
,  // measure 15
1100
0000
1000
0100
1000
0001
0010
0100
,  // measure 16
2000
0000
3001
0100
,  // measure 17
0010
0000
0000
0100
0010
0100
0001
0010
,  // measure 18
0200
0000
0301
0000
,  // measure 19
1001
0010
0100
0010
1000
0100
0010
0100
,  // measure 20
1000
0100
0020
0000
0030
0000
2200
3300
,  // measure 21
0022
0000
0033
0000
0001
0010
0100
0010
,  // measure 22
0001
0010
0100
0000
0000
0000
2020
3030
,  // measure 23
0202
0303
0010
0000
0100
0000
1000
0000
,  // measure 24
2200
3300
0220
0330
,  // measure 25
0011
0101
0110
1010
,  // measure 26
0220
0330
2002
3003
,  // measure 27
1100
1010
0110
0101
,  // measure 28
0220
0330
2002
3003
,  // measure 29
0011
0000
0110
0000
1100
0000
1000
1000
,  // measure 30
0100
0000
0100
0010
0001
0010
0000
0440
,  // measure 31
0000
0000
0000
0000
0330
0000
0001
1000
,  // measure 32
0001
1000
0100
1000
0110
0000
1100
0000
,  // measure 33
0110
0000
0011
0000
0110
0000
0001
1000
,  // measure 34
0010
0100
0001
1000
0110
0000
1001
0000
,  // measure 35
0011
0000
0110
0000
1100
0000
1000
0100
,  // measure 36
0010
0100
0010
0001
1100
0000
1010
0000
,  // measure 37
0110
0101
0011
0000
,  // measure 38
1000
1000
0200
0000
0000
0000
0010
0010
,  // measure 39
1000
0000
0000
0300
0000
0000
0010
0001
,  // measure 40
0010
0100
1000
0100
0011
0000
0110
0000
,  // measure 41
1100
0000
0110
0000
0011
0000
0100
1000
,  // measure 42
0001
0010
0100
1000
0011
0000
0101
0000
,  // measure 43
1001
0000
1010
0000
1100
0000
0010
0100
,  // measure 44
0001
0100
0001
1000
0110
0000
1001
0000
,  // measure 45
0110
1001
0110
0000
,  // measure 46
1000
0100
0020
0000
0030
0000
0001
0010
,  // measure 47
0400
0000
0000
0300
,  // measure 48
11M1
0000
0000
0000
1000
0000
0100
0000
0010
0001
0010
0000
0100
0000
0000
0000
,  // measure 49
1000
0000
0010
0000
0100
0000
0010
0000
0001
0010
0100
0000
1000
0000
0000
0000
,  // measure 50
0110
0000
0000
0000
0001
0100
0010
1000
,  // measure 51
0100
0000
0000
1000
0001
0000
0100
0000
0010
0000
0100
0000
,  // measure 52
1001
0000
0001
0010
0100
0010
0001
0000
,  // measure 53
0010
0000
0100
0010
1000
0100
1000
0000
,  // measure 54
0100
0000
0000
0000
1000
0100
0010
0001
,  // measure 55
0010
0000
0000
0100
0000
0000
0010
0000
0000
0000
0000
0000
0000
0001
0000
0000
0000
0100
0000
0000
0000
1000
0000
0000
,  // measure 56
0110
0000
0000
0000
0000
0000
0000
0000
0000
0000
0000
0000
0001
0000
0000
0010
0000
0000
0100
0000
0000
1000
0000
0000
0000
0000
0000
0000
0010
0000
0000
0000
0100
0000
0000
0000
0000
0000
0000
0000
0000
0000
0000
0000
0000
0000
0000
0000
,  // measure 57
0001
0000
0000
0000
0000
0000
0100
0000
0000
0010
0000
1000
0000
0000
0010
0000
0000
0100
0000
0000
0001
0000
0100
0000
,  // measure 58
0000
0000
0000
0000
0001
0010
0100
1000
,  // measure 59
0100
0000
0000
0000
0000
0000
0010
0000
0000
0001
0000
0000
0100
0000
0000
0000
1000
0000
0000
0000
0100
0000
0000
0000
,  // measure 60
1001
0000
0000
0000
0000
0000
0001
0000
0010
0000
0001
0000
0010
0000
0000
0100
0000
0000
1000
0000
0000
0000
0000
0000
,  // measure 61
0001
0000
0000
0000
0000
0000
0001
0000
0000
0010
0000
0000
0100
0000
0000
0000
1000
0000
0010
0000
0000
1000
0000
0001
,  // measure 62
0100
0000
0000
0000
,  // measure 63
0000
0000
0000
1000
0001
1000
0001
0100
,  // measure 64
0110
0001
0022
0000
,  // measure 65
0000
0033
0000
0100
0010
0100
0010
1000
,  // measure 66
2002
0000
3003
0000
,  // measure 67
0000
0000
0000
1000
0010
0100
0001
1000
,  // measure 68
0100
0010
0001
0000
0000
0000
0022
0033
,  // measure 69
2200
0000
3300
0000
0001
0010
0100
1000
,  // measure 70
0010
0100
0001
0000
0000
0000
0202
0303
,  // measure 71
2020
3030
0000
0100
0010
0100
0001
0010
,  // measure 72
0100
0000
0000
1000
0000
0001
1000
0100
,  // measure 73
0010
0000
1000
0100
0010
0001
0010
0100
,  // measure 74
1000
0000
0000
0001
0000
0010
0100
1000
,  // measure 75
0001
0000
0000
1000
0010
0100
0001
0010
,  // measure 76
0100
1000
0010
0000
0000
0000
2002
3003
,  // measure 77
0220
0330
0000
0000
0010
0100
0001
0010
,  // measure 78
0100
1000
0010
0000
0000
0000
2200
3300
,  // measure 79
0022
0033
1001
0000
0011
0000
0101
0000
,  // measure 80
2002
3003
0220
0330
,  // measure 81
1100
0110
0011
0101
,  // measure 82
0022
0000
0000
0033
2002
0000
0000
3003
,  // measure 83
1100
1001
1010
1001
,  // measure 84
0220
0000
0000
0330
0202
0000
0000
0303
,  // measure 85
0011
0000
1100
0000
0011
0000
1000
0100
,  // measure 86
0010
0000
0001
0010
0100
0010
0000
4000
,  // measure 87
0000
0000
0000
3000
,  // measure 88
111M
1000
0100
0010
,  // measure 89
0001
0010
0100
0010
,  // measure 90
M111
MMMM
0001
0010
,  // measure 91
0100
0000
0100
1000
,  // measure 92
11M1
0001
0010
0001
,  // measure 93
0000
0001
0010
0001
,  // measure 94
1M11
MMMM
0100
0010
,  // measure 95
0100
0010
0001
0010
,  // measure 96
M111
0001
0010
0100
,  // measure 97
1000
0100
0010
0100
,  // measure 98
111M
MMMM
0001
0010
,  // measure 99
0100
0000
0000
0000
0000
0010
0000
0000
0000
0001
0000
0000
1000
0000
0000
0000
0100
0000
0000
0000
1000
0000
0000
0000
,  // measure 100
11M1
0000
0000
0000
0000
0000
0000
0001
0010
0000
0001
0000
0010
0000
0000
0100
0000
0000
1000
0000
0000
0000
0000
0000
,  // measure 101
0000
0100
0000
0000
0000
0000
0000
1000
0000
0100
0000
0000
0010
0000
0001
0000
0000
0010
0000
0100
0000
1000
0000
0010
,  // measure 102
0000
0000
0000
0000
0000
0000
0000
1000
0000
0000
1000
0000
0000
0000
0000
0000
0000
0100
0000
0000
0100
0000
0010
0000
,  // measure 103
0000
0040
0000
0000
0000
0000
0000
0000
0000
0000
0000
0000
0000
0000
0000
0000
0000
0000
0000
0000
0000
0000
0000
0030
;
