#TITLE:SHOCK;
#SUBTITLE:;
#ARTIST:GOOFY;
#TITLETRANSLIT:;
#SUBTITLETRANSLIT:;
#ARTISTTRANSLIT:;
#GENRE:;
#CREDIT:;
#BANNER:SHOCK.png;
#BACKGROUND:SHOCK-bg.png;
#LYRICSPATH:;
#CDTITLE:./CDTITLES/KOREAN DANCE MUSIC.png;
#MUSIC:SHOCK.mp3;
#OFFSET:-0.702;
#SAMPLESTART:15.667;
#SAMPLELENGTH:15.000;
#SELECTABLE:YES;
#BPMS:0.000=138.020;
#STOPS:;
#BGCHANGES:;
#KEYSOUNDS:;

//---------------dance-single - 370K----------------
#NOTES:
     dance-single:
     370K:
     Challenge:
     2:
     0.452,0.562,0.667,0.052,0.000:
0000
0000
0000
0000
,
0000
0000
0000
0000
,
0000
0000
0000
0000
,
0000
0000
0000
MMMM
,
MM1M
MMMM
MM1M
MMMM
,
M1MM
MMMM
M1MM
M1MM
,
1MMM
MMMM
1MMM
MMMM
,
MMM1
0000
MMM1
0001
MMM1
0000
MMMM
0000
,
1MM1
MM1M
MM1M
MM1M
,
1MM1
MM1M
1MM1
MM1M
,
1MM1
M1MM
1MM1
M1MM
,
MM1M
0010
1MMM
1000
M1MM
0100
MMM1
0001
,
MM2M
M10M
M13M
M11M
,
MM1M
MM1M
1MMM
1MMM
,
MMM1
MMM1
M1MM
M1MM
,
M1MM
0100
M1MM
0000
1MMM
1000
1MMM
0000
,
MMM1
0010
M1MM
1000
M1MM
0100
M11M
0000
,
1MMM
1MMM
1MMM
1MMM
,
1MMM
1MMM
MMM1
MMM1
,
MMM1
MMM1
MMM1
MMM1
,
M1MM
M1MM
M1MM
M1MM
,
M1MM
M1MM
MM1M
MM1M
,
MM1M
MM1M
MM1M
MM1M
,
M11M
1MM1
11MM
MM11
,
M11M
1M1M
MM11
11MM
,
M11M
MMM1
1MMM
MMM1
,
1MMM
MM1M
M1MM
MM1M
,
M1MM
MMM1
M1MM
MMM1
,
M1MM
MM1M
1MMM
MM1M
,
1MMM
MMM1
MM1M
MMM1
,
MM1M
0000
M1MM
0000
1MM1
0000
M11M
0110
,
M11M
0000
1MM1
1001
1MM1
0000
M11M
1001
,
M11M
0110
11MM
0011
M11M
0000
MMMM
0000
,
1MMM
0100
MMMM
0010
MMMM
0001
MMMM
0100
,
MMMM
0001
MMMM
1000
MMMM
0010
M1MM
0010
,
1MMM
1000
M1MM
0100
MM1M
0010
MMM1
0001
,
M1MM
0000
M1MM
0000
M1MM
0000
M11M
0110
,
1MM1
1001
MMMM
1100
11MM
1100
MMMM
0011
,
MM11
0011
MMMM
1000
MMMM
0100
MM1M
0100
,
MM1M
0010
MM1M
0010
MM1M
0010
M1MM
0100
,
M1MM
0100
M1MM
0100
M1MM
0100
M1MM
0000
,
M11M
1MMM
M11M
1MMM
,
M11M
MMM1
M11M
MMM1
,
MM1M
0010
M1MM
0100
MM1M
0010
M1MM
0100
,
M1MM
0000
MMMM
0000
MMMM
0000
MM11
0001
,
MM1M
1010
MMMM
0110
MMMM
1100
MMMM
0011
,
MMMM
0110
MMMM
1001
MMMM
0100
MM1M
0100
,
MM2M
0000
M10M
0200
M00M
0000
M00M
0330
,
1MM1
1001
1MM1
0000
MMMM
0010
M1MM
0010
,
M1MM
0101
MMMM
0010
MMMM
1000
MMMM
0100
,
MMMM
0010
MMMM
0001
MMMM
0011
M11M
1100
,
1MM1
0010
M1MM
0010
M1MM
0100
MMMM
0010
,
MMMM
1001
MMMM
0100
MMMM
0110
M11M
1001
,
2MM2
0000
0MM0
0000
0MM0
0000
0MM0
3003
,
MMMM
0000
0000
0000
;
