#TITLE:Romancing Layer;
#SUBTITLE:;
#ARTIST:TAG;
#TITLETRANSLIT:;
#SUBTITLETRANSLIT:;
#ARTISTTRANSLIT:;
#GENRE:;
#CREDIT:;
#BANNER:Romancing Layer.png;
#BACKGROUND:Romancing Layer-bg.png;
#LYRICSPATH:;
#CDTITLE:./CDTitles/jubeat saucer.png;
#MUSIC:Romancing Layer.ogg;
#OFFSET:0.000000;
#SAMPLESTART:52.799999;
#SAMPLELENGTH:15.000000;
#SELECTABLE:YES;
#DISPLAYBPM:150.000000;
#BPMS:0.000000=150.000000
;
#STOPS:
;
#BGCHANGES:;
#KEYSOUNDS:;
#ATTACKS:;

//---------------dance-single - ----------------
#NOTES:
     dance-single:
     :
     Hard:
     15:
     0.702381,0.755208,0.177083,0.187500,0.614583,437.000000,17.000000,18.000000,0.000000,0.000000,0.000000,0.702381,0.755208,0.177083,0.187500,0.614583,437.000000,17.000000,18.000000,0.000000,0.000000,0.000000:
0000
0000
0000
0000
,
0000
0000
0000
0000
,
0000
0000
0000
0000
,
0000
0000
0000
0000
,
0000
0000
0000
0000
,
0001
0000
0010
0000
0001
0000
1000
0000
0010
0000
0100
0001
0000
1000
0000
0001
,
0100
0000
0010
0000
0100
0000
0001
0000
0010
0000
0100
1000
0000
0001
0000
1000
,
0010
0000
0100
0000
0001
0000
0010
0000
0100
0000
1000
0001
0000
0010
0000
0001
,
0100
0000
0010
0000
1000
0000
0100
0000
0010
0000
0100
1000
0000
0001
0000
0100
,
0001
0001
0001
0001
,
1000
1000
1000
1000
,
0001
0010
0001
0010
0001
0100
0001
0100
,
1000
0100
1000
0100
1000
0010
1000
0010
,
0001
0001
0001
0001
,
1000
1000
1000
1000
,
0001
0010
0001
0010
1000
0010
1000
0010
,
1000
0100
1000
0100
0001
0100
0001
0100
,
0110
0000
1000
0000
0001
0000
1000
0001
0000
0010
0000
0001
1000
0000
0001
0000
,
0100
0000
0010
0000
1000
0000
0010
1000
0000
0001
0000
0100
0001
0000
1000
0000
,
0001
0000
0010
0100
0000
0010
0100
0000
1000
0000
0010
0100
0000
0010
0100
0000
,
0001
0000
0010
0100
0000
0010
0100
0000
1000
0000
0010
0100
0000
0010
0100
0000
,
0001
0000
0010
0000
0001
0000
1000
0010
0000
0100
0000
0001
0010
0000
0100
0000
,
1000
0000
0001
0000
0100
0000
0010
1000
0000
0100
0000
0010
0001
0000
0100
0000
,
0010
0000
0100
0010
0000
0100
0010
0000
1000
0000
0001
1000
0000
0001
1000
0000
,
0010
0000
0100
0001
0000
1000
0010
0000
0100
0000
0010
0000
0010
0000
0010
0000
,
2000
0000
0000
0000
0002
0000
0000
0000
0000
0000
0000
0000
3003
0000
0010
0001
,
0010
0000
0000
0001
0000
0000
0001
0000
1000
0000
0000
0010
0000
0000
0010
0000
,
1000
0000
0000
0001
0000
0000
0100
0000
0000
0000
0020
0000
0230
0000
0320
0000
,
2030
3200
0320
0032
1003
0020
0130
0002
,
0010
0000
0000
0000
0003
1000
0010
0001
,
0010
0100
0001
0010
,
1000
0000
0000
0001
0000
0000
1000
0000
0000
0000
0000
0000
0000
0000
0010
1000
,
0010
0000
0000
0001
0001
0000
0000
0000
,
1001
0000
0001
0000
0100
0010
0100
0010
1000
0000
0001
0000
0010
0100
0010
0100
,
1000
0000
0000
1100
0000
0000
0011
0000
0001
0000
0100
0000
0010
1000
0010
0000
,
1000
0000
1000
0100
0000
0100
0010
0000
0001
0000
0001
1000
0000
1000
0010
0000
,
0100
0001
0100
1000
0100
0002
0000
1003
,
1200
0000
0000
0000
0310
0000
0001
1000
0001
0000
1000
0000
0010
0000
0100
0000
,
0001
0100
1000
0100
0100
0001
0100
0010
,
1010
0000
1000
0001
0000
0010
0001
0000
1001
0000
1000
0100
0000
0010
0100
0000
,
0110
0000
0010
0001
0000
0100
0001
0000
0101
0000
0100
0010
0000
1000
0001
0000
,
1001
0000
0010
0000
1000
0010
1000
0010
0100
0000
0100
0000
0001
0010
0001
0010
,
1000
0000
0000
0110
0000
0000
0011
0000
0001
0000
0100
0000
0010
1000
0001
0100
,
0010
0000
1000
0001
0000
1000
0010
0000
0100
0000
0010
1000
0000
0001
1000
0000
,
0100
0010
0100
1000
0001
2000
0000
3001
,
0201
0000
0000
0000
0310
0000
1000
0010
1000
0000
0100
0000
0010
0000
0001
0000
,
0100
0010
0001
0010
0010
0100
0001
1000
,
1001
0000
1000
0100
0000
1000
0010
1000
0001
0000
0001
0010
0000
0001
0100
0001
,
0010
0000
0010
0100
0000
1000
0001
1000
0010
0000
0010
0100
0000
0001
1000
0000
,
0001
0100
0010
0000
0010
1000
0000
1000
0100
0000
0100
0010
0000
0010
0000
0001
,
1000
0001
0010
0000
0010
0001
0000
0001
0100
0000
0100
1000
0000
1000
0000
0100
,
0010
0000
1000
0010
0000
0001
0010
0000
1000
0010
0000
0001
0010
0000
1000
0000
,
0001
0000
0001
0010
0000
0010
0100
0000
0100
1000
0000
1000
0001
0000
1000
0000
,
0010
0000
0100
0000
0001
1000
0001
1000
0010
0000
0100
0001
1000
0100
0000
0100
,
0010
0000
0001
0000
1000
0010
1000
0010
0100
0000
0001
1000
0001
0000
0100
0000
,
0102
0000
1003
0100
2100
0000
0001
0000
,
0010
0000
3001
0000
0100
0001
1000
0010
,
0102
0000
0000
0000
0013
0000
0100
0000
1000
0001
1000
0001
1000
0001
1000
0001
,
0010
0000
0000
0000
;

//---------------dance-double - ----------------
#NOTES:
     dance-double:
     :
     Hard:
     15:
     0.665179,0.664583,0.135417,0.177083,0.630208,417.000000,13.000000,17.000000,0.000000,0.000000,0.000000,0.665179,0.664583,0.135417,0.177083,0.630208,417.000000,13.000000,17.000000,0.000000,0.000000,0.000000:
00000000
00000000
00000000
00000000
,
00000000
00000000
00000000
00000000
,
00000000
00000000
00000000
00000000
,
00000000
00000000
00000000
00000000
,
00000000
00000000
00000000
00000000
,
00000000
00000000
00100000
00000000
01100000
00000000
00000000
00000000
10000000
00000000
00100000
01000000
00000000
00001000
00000000
00010000
,
00000000
00000000
00000100
00000000
00001100
00000000
00000000
00000000
00000001
00000000
00001000
00000001
00000000
00000010
00000000
00000100
,
00000000
00000000
00000010
00000000
00000011
00000000
00000000
00000000
00000100
00000000
00000010
00001000
00000000
00100000
00000000
01000000
,
00100000
00000000
10000000
00000000
10010000
00000000
00000000
00000000
00100000
00000000
01000000
00010000
00000000
00001000
00000000
00000010
,
00000100
00000001
00000100
00001000
,
00000100
00000001
00000100
00001000
,
00000001
00000000
00000000
00000001
00000000
00000000
00000010
00000000
00001000
00000000
00000000
00001000
00000000
00000000
00100000
00000000
,
00001000
00000000
00000000
00001000
00000000
00000000
00010000
00000000
00100000
00000000
00000000
00100000
00000000
00000000
01000000
00000000
,
00100000
10000000
00100000
00010000
,
00100000
10000000
00100000
00010000
,
10000000
00000000
00000000
10000000
00000000
00000000
00010000
00000000
01000000
00000000
00000000
01000000
00000000
00000000
00100000
00000000
,
00001000
00000000
00000000
00001000
00000000
00000000
00000100
00000000
00000020
00000000
00000000
00000000
00000230
00000000
00000000
00000000
,
00000301
00000000
00001000
00000000
00000001
00000000
00000100
00000010
00000000
00000100
00000000
00000010
00000100
00000000
00000001
00000000
,
00001000
00000000
00000100
00000000
00000010
00000000
00001000
00010000
00000000
00001000
00000000
00000010
00001000
00000000
00010000
00000000
,
00000100
00000000
00001000
00000100
00000000
00010000
00000100
00000000
00010000
00000000
00001000
01000000
00000000
00010000
01000000
00000000
,
00100000
00000000
10000000
00100000
00000000
01000000
00010000
00000000
10000000
00000000
01000000
00010000
00000000
01000000
10000000
00000000
,
00100000
00000000
10000000
00000000
00010000
00000000
10000000
00100000
00000000
01000000
00000000
00010000
10000000
00000000
00010000
00000000
,
00100000
00000000
00001000
00000000
00000100
00000000
00000010
00001000
00000000
00000001
00000000
00000010
00000100
00000000
00001000
00000000
,
00000001
00000000
00001000
00000010
00000000
00010000
00000100
00000000
00010000
00000000
00001000
01000000
00000000
00010000
10000000
00000000
,
01000000
00000000
00100000
00001000
00000000
00010000
00000010
00000000
00001000
00000000
00000001
00000000
00000010
00000000
00000001
00000000
,
00000100
00000000
00000000
00000100
00000000
00000000
00000110
00000000
00000000
00001000
00010000
00000000
00010000
00000000
01000000
00000000
,
00200000
00000000
20300000
00000000
,
31000000
00000000
00000000
01000000
00000000
00000000
01100000
00000000
00000000
00010000
00001000
00000000
00001000
00000000
00000100
00000000
,
00000002
00000023
00000230
00002300
00000000
00003020
00000000
00000230
,
00000001
00000000
00000000
00000001
00000000
00000000
00000301
00000000
00000000
00000100
00000010
00000000
00010000
00000000
00001000
00000000
,
01000000
00000000
00000000
01000000
00000000
00000000
01100000
00000000
00000000
00010000
00100000
00000000
01000000
00000000
00010000
00000000
,
10000000
00000000
00000000
10000000
00000000
00000000
11000000
00000000
00000000
00100000
00010000
00000000
00001000
00000000
00000100
00000000
,
00000020
00000000
00000000
00000001
00000002
00000000
00000033
00000000
,
00001000
00000000
00000100
00000000
00000010
00000001
00000010
00000100
00001000
00000000
00000010
00000000
00001000
00000100
00010000
00000010
,
00001000
00000000
00000000
00010000
00000000
00000000
00001000
00000000
00000010
00000000
00010000
00000000
00000100
00001000
00000100
00000000
,
00010000
00000000
00001000
00010000
00000000
00010000
01000000
00000000
00100000
00000000
10000000
01000000
00000000
01000000
00010000
00000000
,
10000000
00100000
00010000
00001000
00010000
01000000
00100000
10000000
,
02000000
00000000
00000000
00000000
03100000
00000000
00010000
00100000
00010000
00000000
10000000
00000000
01000000
00000000
00010000
00000000
,
00000100
00001000
00000010
00001000
00000100
00000010
00000001
00000100
,
00000010
00000000
00000010
00000100
00000000
00000100
00000010
00000000
00001000
00000000
00001000
00010000
00000000
00010000
00001000
00000000
,
00100000
00000000
00100000
01000000
00000000
01000000
00100000
00000000
10000000
00000000
10000000
00010000
00000000
00010000
10000000
00000000
,
00010000
00000000
00100000
00000000
01000000
10000000
01000000
00100000
00010000
00000000
01000000
00000000
00010000
00100000
00001000
01000000
,
00010000
00000000
00000000
00101000
00000000
00000000
00010200
00000000
00000000
00000000
00000310
00000000
00000001
00000010
00000001
00000000
,
00000100
00000000
00000001
00001000
00000000
00001000
00000100
00000000
00000010
00000000
00001000
00010000
00000000
00010000
00100000
00000000
,
00010000
00000000
00001000
00000000
00100000
00000000
00001000
00000000
01000000
00000000
00001000
00000000
00100000
00000000
00010000
10000000
,
00200000
00000000
00000000
00000000
00310000
00000000
00100000
01000000
00100000
00000000
10000000
00000000
01000000
00000000
00100000
00000000
,
10000000
00100000
00010000
00100000
00001000
00010000
00000100
00001000
,
00000010
00000000
00001000
00010000
00000000
00010000
01000000
00000000
00100000
00000000
00010000
00001000
00000000
00001000
00000100
00000000
,
00000010
00000000
00001000
00010000
00000000
00010000
00100000
00000000
01000000
00000000
00010000
00001000
00000000
00001000
00000010
00000000
,
00000001
00000010
00000001
00000000
00000100
00000001
00000000
00001000
00000100
00000000
00010000
00001000
00000000
01000000
00000000
00010000
,
10000000
00100000
10000000
00000000
00010000
00100000
00000000
00001000
00010000
00000000
00000010
00001000
00000000
00000001
00000000
00000010
,
00000001
00000100
00000000
00000010
00001000
00000000
00000100
00010000
00001000
00100000
00000000
00010000
01000000
00000000
00100000
00000000
,
10000000
00000000
00000000
01010000
00000000
00000000
00100000
00000000
00001000
00000000
00000000
00010100
00000000
00000000
00001000
00000000
,
00000010
00000000
00000100
00000000
00000001
00001000
00000100
00000010
00000001
00000000
00000100
00000000
00000010
00000000
00001000
00000000
,
00000100
00000000
00010000
00000000
00001000
01000000
00100000
00010000
00001000
00000000
01000000
00000000
00010000
00000000
10000000
00000000
,
00200000
00000000
01000000
01300000
10020000
00000000
00100000
00000000
,
10000000
00000000
01030000
00000000
00100000
10000000
01000000
00010000
,
00001000
00000000
00000000
00000000
00000000
00000000
00000000
00000000
00010000
00000100
00010000
00000100
00010000
00000100
00010000
00000100
,
00001000
00000000
00000000
00000000
;

//---------------dance-single - ----------------
#NOTES:
     dance-single:
     :
     Challenge:
     16:
     0.708333,0.906250,0.166667,0.343750,0.770833,427.000000,16.000000,33.000000,92.000000,0.000000,0.000000,0.708333,0.906250,0.166667,0.343750,0.770833,427.000000,16.000000,33.000000,92.000000,0.000000,0.000000:
// measure 0
0000
0000
0000
0000
,  // measure 1
0000
0000
0000
0000
,  // measure 2
0000
0000
0000
0000
,  // measure 3
0000
0000
0000
0000
,  // measure 4
0000
0000
0000
0000
,  // measure 5
MMMM
0000
0100
0000
0110
0000
MMMM
0000
1000
0000
0100
1000
0000
0001
0000
1000
,  // measure 6
0000
0000
0100
0000
0110
0000
MMMM
0000
0001
0000
0100
0001
0000
1000
0000
0001
,  // measure 7
0000
0000
0100
0000
0110
0000
MMMM
0000
0010
0000
1000
0010
0000
0001
0000
0010
,  // measure 8
0200
0000
0000
0000
0300
0000
MMMM
0000
0010
0100
0010
0100
0010
0100
0010
0100
,  // measure 9
0010
0000
0010
0000
0010
0000
0010
MMMM
,  // measure 10
0100
0000
0100
0000
0100
0000
0100
MMMM
,  // measure 11
0001
0000
0000
0001
0000
0000
0010
0000
1000
0000
0000
1000
0000
0000
0010
0000
,  // measure 12
0100
0000
0000
0100
0000
0000
1000
0000
0010
0000
0000
0100
0000
0000
0101
0000
,  // measure 13
1000
0000
1000
0000
1000
0000
1000
MMMM
,  // measure 14
0001
0000
0001
0000
0001
0000
0001
MMMM
,  // measure 15
1000
0000
0000
1000
0000
0000
0010
0000
0001
0000
0000
0001
0000
0000
0010
0000
,  // measure 16
0100
0000
0000
0100
0000
0000
0001
0000
2000
0000
0000
0000
3001
0000
MMMM
0000
,  // measure 17
1001
0000
0001
0000
0100
0000
0010
1000
0000
0001
0000
1000
0100
0000
1000
0000
,  // measure 18
MMMM
0000
1000
0000
0100
0000
0010
0001
0000
1000
0000
0001
0100
0000
0010
0000
,  // measure 19
1000
0000
0001
1000
0000
0100
1000
0001
1000
0000
0001
1000
0000
0001
1000
0001
,  // measure 20
0100
0000
0010
0100
0000
0010
1000
0010
0100
0000
0010
0100
0000
0010
0100
0000
,  // measure 21
MMMM
0000
1000
0000
0010
0000
0100
0001
0000
1000
0000
0001
0010
0000
0100
0000
,  // measure 22
MMMM
0000
0001
0000
0010
0000
0100
1000
0000
0001
0000
1000
0010
0000
0100
0000
,  // measure 23
0001
0000
1000
0001
0000
1000
0010
0100
0001
0000
1000
0001
0000
0010
0100
1000
,  // measure 24
0001
0000
0100
0010
0000
1000
0100
0010
0002
0000
1000
0000
2003
0000
0001
0000
,  // measure 25
3002
0000
0000
0000
0020
0000
0000
0000
0000
0000
0033
0000
MMMM
0000
0001
0100
,  // measure 26
0002
0000
0000
0010
0000
0000
1000
0000
2003
0000
0000
0100
0000
0000
3010
0000
,  // measure 27
0020
0000
0000
0001
0000
0000
1030
0000
MMMM
0000
2000
0000
3200
0000
2300
0000
,  // measure 28
3002
0023
0230
2300
3010
0200
0301
0020
,  // measure 29
0200
0000
0300
0000
0030
0100
1000
0100
,  // measure 30
0001
1000
0100
0010
,  // measure 31
0001
0000
0000
0010
0000
0000
1000
0000
0000
0000
MMMM
0000
0000
0000
1000
0100
,  // measure 32
0020
0000
0000
0001
0002
0000
0033
MMMM
,  // measure 33
1001
0000
0001
0000
0100
0010
1000
0001
0100
0000
0100
0000
0010
1000
0100
0010
,  // measure 34
0001
0000
0000
1000
0000
0000
2100
0000
0000
0000
3100
0000
1000
0100
0010
0000
,  // measure 35
0100
0000
1000
0010
0000
0010
0100
0000
0001
0000
0010
0100
0000
0100
0010
0001
,  // measure 36
0100
1000
0100
0001
0100
0020
0000
1030
,  // measure 37
1001
0000
MMMM
0000
0000
0000
1000
0100
0010
0000
0100
0000
1000
0000
0010
0000
,  // measure 38
0100
1000
1000
0200
0000
0310
1000
0100
,  // measure 39
0110
0000
0010
0001
0000
1000
0001
0000
0101
0000
0100
0010
0000
1000
0010
0000
,  // measure 40
1010
0000
1000
0001
0000
0010
0001
0000
0101
0000
0001
1000
0000
0100
1000
0000
,  // measure 41
1001
0000
0001
0000
0010
0100
1000
0010
0100
0000
0100
0000
0010
0100
0001
0010
,  // measure 42
0100
0000
0000
1000
0000
0000
1020
0000
0000
0000
0130
0000
1000
0100
0010
0100
,  // measure 43
0001
0000
0001
0100
0000
1000
0100
0000
0010
0000
1000
0100
0000
0001
0100
1000
,  // measure 44
0001
0100
0001
1000
0001
0020
0000
0130
,  // measure 45
1001
0000
MMMM
0000
0000
0000
0001
0100
0010
0000
0100
0000
1000
0000
0100
0000
,  // measure 46
0010
1000
0001
0020
0000
0130
1000
0010
,  // measure 47
1010
0000
1000
0010
0000
0100
0001
0100
1000
0000
0100
0001
0000
0010
1000
0010
,  // measure 48
0001
0000
0100
0010
0000
1000
0100
1000
0010
0000
0100
0001
0000
0010
0001
0100
,  // measure 49
0001
1000
0001
0010
0100
0010
0001
0100
0001
1000
0010
1000
0000
0001
0000
1000
,  // measure 50
0010
0100
0010
1000
0100
1000
0001
0100
0001
1000
0100
1000
0000
0001
0000
1000
,  // measure 51
0001
0100
0001
0010
0100
0010
0001
1000
0001
0100
0001
1000
0100
1000
0001
0010
,  // measure 52
0001
0000
1000
0010
0000
0010
0100
0001
0010
0000
0001
0100
0000
1000
0100
0000
,  // measure 53
MMMM
0000
0001
0000
1000
0100
1000
0001
0000
0100
0000
0010
0000
1000
0000
0001
,  // measure 54
MMMM
0000
1000
0000
0001
0100
0001
1000
0000
0100
1000
0001
0010
0000
0001
0100
,  // measure 55
0020
0000
0000
0100
0200
0000
0330
MMMM
,  // measure 56
1000
0000
0000
0000
0100
0000
0000
0000
0002
0000
0000
0020
0003
0000
0200
0030
,  // measure 57
2000
0000
0300
0000
0000
0000
3001
0000
0010
0100
0010
0100
0010
0100
0010
0100
,  // measure 58
MMMM
0000
0000
0000
;
