#TITLE:Rock the House;
#SUBTITLE:;
#ARTIST:Gorillaz;
#TITLETRANSLIT:;
#SUBTITLETRANSLIT:;
#ARTISTTRANSLIT:;
#CREDIT:;
#BANNER:rock.png;
#BACKGROUND:rock bg.png;
#LYRICSPATH:;
#CDTITLE:;
#MUSIC:Rock the House.mp3;
#OFFSET:-0.098;
#SAMPLESTART:39.726;
#SAMPLELENGTH:12.000;
#SELECTABLE:YES;
#BPMS:0.000=86.001,2.000=85.998,3.000=86.001,4.000=85.998,5.000=86.001,6.000=85.998,7.000=86.001,9.000=85.998,10.000=86.001,11.000=85.998,12.000=86.001,13.000=85.998,14.000=86.001,15.000=85.998,16.000=86.001,18.000=85.998,19.000=86.001,20.000=85.998,21.000=86.001,22.000=85.998,23.000=86.001,24.000=85.998,25.000=86.001,27.000=85.998,28.000=86.001,29.000=85.998,30.000=86.001,31.000=85.998,32.000=86.001,34.000=85.998,35.000=86.001,36.000=85.998,37.000=86.001,38.000=85.998,39.000=86.001,40.000=85.998,41.000=86.001,42.000=85.998,43.000=86.001,44.000=85.998,45.000=86.001,46.000=85.998,47.000=86.001,48.000=85.998,49.000=86.001,50.000=85.998,51.000=86.001,52.000=85.998,53.000=86.001,54.000=85.998,55.000=86.001,56.000=85.998,57.000=86.001,58.000=85.998,59.000=86.001,60.000=85.998,61.000=86.001,62.000=85.998,63.000=86.001,64.000=85.998,65.000=86.001,66.000=85.998,67.000=86.001,68.000=85.998,69.000=86.001,70.000=85.998,71.000=86.001,72.000=85.998,73.000=86.001,74.000=85.998,75.000=86.001,76.000=85.998,77.000=86.001,78.000=85.998,79.000=86.001,80.000=85.998,81.000=86.001,82.000=85.998,83.000=86.001,84.000=85.998,85.000=86.001,86.000=85.998,87.000=86.001,88.000=85.998,89.000=86.001,90.000=85.998,91.000=86.001,92.000=85.998,93.000=86.001,94.000=85.998,95.000=86.001,96.000=85.998,97.000=86.001,98.000=85.998,99.000=86.001,100.000=85.998,101.000=86.001,102.000=85.998,103.000=86.001,104.000=85.998,105.000=86.001,106.000=85.998,107.000=86.001,108.000=85.998,109.000=86.001,110.000=85.998,111.000=86.001,112.000=85.998,113.000=86.001,114.000=85.998,115.000=86.001,116.000=85.998,117.000=86.001,118.000=85.998,119.000=86.001,120.000=85.998,121.000=86.001,122.000=85.998,123.000=86.001,124.000=85.998,125.000=86.001,126.000=85.998,127.000=86.001,128.000=85.998,129.000=86.001,130.000=85.998,131.000=86.001,132.000=85.998,133.000=86.001,134.000=85.998,135.000=86.001,136.000=85.998,137.000=86.001,138.000=85.998,139.000=86.001,140.000=85.998,141.000=86.001,142.000=85.998,143.000=86.001,144.000=85.998,145.000=86.001,146.000=85.998,147.000=86.001,148.000=85.998,149.000=86.001,150.000=85.998,151.000=86.001,152.000=85.998,153.000=86.001,154.000=85.998,155.000=86.001,156.000=85.998,157.000=86.001,158.000=85.998,159.000=86.001,160.000=85.998,161.000=86.001,162.000=85.998,163.000=86.001,164.000=85.998,165.000=86.001,166.000=85.998,167.000=86.001,168.000=85.998,169.000=86.001,170.000=85.998,171.000=86.001,172.000=85.998,173.000=86.001,174.000=85.998,175.000=86.001,176.000=85.998,177.000=86.001,178.000=85.998,179.000=86.001,180.000=85.998,181.000=86.001,182.000=85.998,183.000=86.001,184.000=85.998,185.000=86.001,186.000=85.998,187.000=86.001,188.000=85.998,189.000=86.001,190.000=85.998,191.000=86.001,192.000=85.998,193.000=86.001,194.000=85.998,195.000=86.001,196.000=85.998,197.000=86.001,198.000=85.998,199.000=86.001,200.000=85.998;
#STOPS:;
#BGCHANGES:0.000=Gorillaz - Rock The House.avi=1.000=1=1=0
,202.500=rock bg.png=1.000=0=0=1
;

//---------------dance-single - ----------------
#NOTES:
     dance-single:
     :
     Challenge:
     9:
     0.610,0.573,0.256,0.277,0.885: // measure 1
0000
0000
0000
0000
2000
0000
3020
0000
0230
0000
0302
0000
1003
0100
0000
0010
,  // measure 2
0000
0001
0100
0010
1000
0000
0100
0000
0010
0001
0000
1000
0000
0001
0000
1000
,  // measure 3
1001
0100
0000
0100
2001
0000
3020
0000
0230
0000
0302
0000
1003
0100
0000
0010
,  // measure 4
0000
0001
0100
0010
1000
0000
0100
0000
0010
0001
0000
0001
0000
1000
0000
0001
,  // measure 5
1001
0100
0000
0100
1002
0000
0203
0000
0320
0000
2030
0000
3001
0010
0000
0100
,  // measure 6
0000
1000
0010
0100
0001
0000
0010
0000
0100
1000
0000
1000
0000
0001
0000
1000
,  // measure 7
1001
0010
0000
0010
1002
0000
0203
0000
0320
0000
2030
0000
3001
0010
0000
0100
,  // measure 8
0000
1000
0010
0100
0001
0000
0010
0000
0100
1000
0000
1000
0000
1000
0000
1000
,  // measure 9
1100
0000
0011
0000
1001
1000
0100
0010
0100
0000
1000
0000
0000
0001
0010
0100
,  // measure 10
0010
0000
0001
0000
0000
0100
1000
0100
2000
0000
0000
3101
0000
0100
0001
0100
,  // measure 11
0002
0000
0000
1103
0000
1000
0100
0010
0200
0000
0000
1300
0000
0001
0000
0100
,  // measure 12
0020
0000
0000
0000
0000
0000
0130
0000
0000
0000
0001
0000
0000
0000
1000
0000
0200
0000
0000
0000
0000
1000
0300
0000
0000
0000
0010
0000
0000
0000
0100
0000
,  // measure 13
0002
0000
0000
0000
0000
0000
0103
0000
0000
0000
0010
0000
0000
0000
1000
0000
0200
0000
0000
0000
0000
0010
0300
0000
0000
0000
0001
0000
0000
0000
0100
0000
,  // measure 14
2000
0000
0000
3100
0000
0001
0100
1000
0100
0000
0000
0001
0000
1000
0100
0000
,  // measure 15
1000
0000
1100
0000
0101
0000
1000
0100
1000
0001
0010
0001
1000
0010
1000
0001
,  // measure 16
1000
0100
1000
0001
0000
1000
0100
0010
0001
0010
0100
1000
0100
0010
0100
1000
,  // measure 17
0100
0010
0001
1000
1000
0000
0100
0000
1000
0100
0000
1000
0000
0100
0000
1000
,  // measure 18
0000
1000
0100
0010
0001
0000
0010
0000
0001
0010
0000
0001
0000
1100
1000
0000
,  // measure 19
1100
1000
0100
0010
0001
0000
0010
0000
0001
0010
0000
0001
0000
0010
0000
0001
,  // measure 20
0000
0010
0100
1000
0100
0000
1000
0000
1000
0001
0000
1000
0000
1100
1000
0000
,  // measure 21
1100
0100
1000
0100
1100
0000
0001
0000
1000
0100
0000
0100
0000
0100
0000
0100
,  // measure 22
0000
1000
0100
0010
0001
0000
1000
0000
1000
0100
0000
0020
0000
0000
0000
0030
,  // measure 23
1000
0100
1000
0100
1000
0100
1000
0100
1000
0000
0000
0000
1000
0000
0000
0000
1000
0000
0100
0000
0001
0000
0100
0000
1000
0000
0000
0000
0001
0000
0000
0000
,  // measure 24
0100
0000
0000
0000
0010
0000
0000
0000
0100
0000
0000
0000
0001
0000
0000
0000
0000
0000
0000
0000
1000
0000
0000
0000
0000
0000
0000
0000
0001
0000
0000
0000
1000
0000
0000
0000
0000
0000
0000
0000
0100
0000
0000
0000
0000
0000
0000
0000
2002
0000
0000
0000
0000
0000
0000
0000
0000
0000
0000
0000
0000
0000
0000
3003
,  // measure 25
1001
1000
0100
0010
0001
1001
0000
0100
0010
0000
0001
0000
1000
0000
0010
0100
,  // measure 26
0000
0000
0000
0001
0000
0000
1000
0010
0100
0001
0010
0100
1000
0100
0010
0001
0000
0100
0001
0000
0000
0000
0000
0000
,  // measure 27
1000
0000
1000
0001
0000
0001
0000
1000
0001
0000
0100
0000
0010
0000
0001
2000
,  // measure 28
0000
0000
0000
0000
0000
0000
0000
0000
0000
3000
0000
0000
1000
0000
0010
0000
0100
0000
0001
0000
0010
0000
0100
0000
1000
0000
0100
0000
0010
0000
0001
0000
0000
0000
0100
0000
0001
0000
0000
0000
0000
0000
0000
0000
0000
0000
0000
0000
,  // measure 29
0000
0000
1000
0000
0000
0100
0000
1000
0100
0000
0010
0000
0100
0000
0010
0002
,  // measure 30
0000
0000
0000
0000
0000
0000
1003
0010
0100
0001
0010
0100
1000
0100
0010
0001
0000
0100
0001
0000
0000
0000
0000
0000
,  // measure 31
0000
0000
0010
0001
0000
1000
0000
0100
0010
0000
0010
0100
1000
0100
0010
0002
,  // measure 32
0000
0000
0000
0000
0000
0000
1003
0010
0100
0001
0010
0100
1000
0100
0010
0001
0000
0100
0001
0000
0000
0000
0000
0000
,  // measure 33
1010
0000
1001
0000
1100
0000
0010
0100
0001
0000
0010
0000
0100
1000
0010
0100
,  // measure 34
0001
0000
0100
0000
0010
0100
0001
0100
0010
0100
0001
1000
0001
0000
0000
2000
,  // measure 35
0000
0000
0000
0000
0000
0000
0000
3000
1010
0000
0000
0000
0000
0000
0000
0000
1001
0000
0000
0000
0100
0000
0000
0000
1000
0000
0000
0000
0001
0000
0000
0000
1000
0000
0000
0000
0100
0000
0000
0000
0010
0000
0000
0000
0100
0000
0000
0000
1000
0000
0000
0000
0010
0000
0000
0000
0100
0000
0000
0000
1000
0000
0000
0000
,  // measure 36
0100
0000
0010
0000
0100
0010
1000
0000
0001
0010
0100
0010
0001
1000
0010
1000
,  // measure 37
0001
0000
1001
0000
1001
0000
0010
0100
0002
0000
0000
1003
0000
0000
0001
0010
,  // measure 38
0001
0010
0100
0000
0000
1000
0100
1000
0200
0000
0300
0010
0000
0001
1000
0001
,  // measure 39
1000
0000
1100
0000
0011
0000
2002
3003
2002
3003
2002
3003
0000
0010
0001
0010
,  // measure 40
0100
0000
0100
1000
0000
0000
1010
0000
1001
0000
1100
0000
1000
0100
0010
0000
,  // measure 41
0001
0000
0100
0010
0000
0010
0100
0000
0002
0000
0000
0000
1003
0100
0010
0001
,  // measure 42
0010
0000
0001
0000
1000
0100
0010
0001
1000
0000
0010
0000
1000
0000
1000
0100
,  // measure 43
0010
0000
0001
0000
1000
0100
0010
0100
1000
0000
0010
0000
1000
0001
1000
0001
,  // measure 44
0100
0010
0100
0000
1000
0100
0010
0001
1000
0100
0010
0001
1000
0100
0010
0001
,  // measure 45
1000
0001
1000
0000
0000
0001
0000
1000
0010
0001
0010
0000
1000
0000
0001
0010
,  // measure 46
0000
0000
0000
0100
0000
0000
0000
0000
0000
0000
0000
0000
1000
0000
0000
0000
0100
0000
0000
0000
0000
0010
0000
0000
0000
0000
0000
0001
0000
0000
0000
0000
0000
0000
0000
0000
1000
0000
0000
0001
0000
0000
1000
0000
0000
0001
0000
0000
,  // measure 47
1000
0100
0010
0000
0001
0010
0100
1000
0000
0010
0000
0000
1000
0100
1000
0010
,  // measure 48
1000
0010
0100
0000
0001
1000
0010
0100
0000
0001
0000
1000
1000
0000
0001
0010
,  // measure 49
1000
0000
0010
0000
0000
1000
0000
0100
0010
0000
0001
0000
1000
0000
0010
0100
,  // measure 50
0000
0000
0000
0001
0000
0000
1000
0010
0100
0001
0010
0100
1000
0100
0010
0001
0000
0100
0001
0000
0000
0000
0000
0000
,  // measure 51
1000
0010
1001
0000
0000
0000
0000
0000
;

//---------------dance-single - Copied from----------------
#NOTES:
     dance-single:
     Copied from:
     Hard:
     8:
     0.514,0.469,0.069,0.138,0.733:
0000
0000
0000
0000
1000
0000
0010
0000
0100
0000
0001
0000
1000
0100
0000
0010
,
0000
0001
0100
0010
1000
0000
0100
0000
0010
0001
0000
1000
0000
0001
0000
1000
,
0100
0000
0000
0100
1000
0000
0010
0000
0100
0000
0001
0000
1000
0100
0000
0010
,
0000
0001
0100
0010
1000
0000
0100
0000
0010
0001
0000
0001
0000
1000
0000
0001
,
1000
0100
0000
0100
0001
0000
0000
0000
0010
0000
1000
0000
0001
0010
0000
0100
,
0000
1000
0010
0100
0001
0000
0010
0000
0100
1000
0000
1000
0000
0001
0000
1000
,
0001
0010
0000
0010
0002
0000
0203
0000
0320
0000
2030
0000
3001
0010
0000
0100
,
0000
1000
0010
0100
0001
0000
0010
0000
0100
1000
0000
1000
0000
1000
0000
1000
,
0100
0000
0010
0000
0001
1000
0100
0010
0100
0000
1000
0000
0000
0001
0010
0100
,
0010
0000
0001
0000
0000
0100
1000
0100
1000
0000
0000
0001
0000
0100
0001
0100
,
0001
0000
0000
1000
0000
1000
0100
0010
0100
0000
0000
1000
0000
0001
0000
0100
,
0010
0000
0000
0000
0000
0000
0100
0000
0000
0000
0001
0000
0000
0000
1000
0000
0100
0000
0000
0000
0000
1000
0000
0000
0000
0000
0010
0000
0000
0000
0100
0000
,
0001
0000
0000
0000
0000
0000
0100
0000
0000
0000
0010
0000
0000
0000
1000
0000
0100
0000
0000
0000
0000
0010
0000
0000
0000
0000
0001
0000
0000
0000
0100
0000
,
1000
0000
0000
0100
0000
0001
0100
0001
0100
0000
0000
0001
0000
1000
0100
0000
,
1000
1001
1001
1000
1000
0010
1000
1000
,
0001
1000
0001
1000
0000
0010
0001
0010
0000
0100
1000
0100
0000
0010
0001
0010
,
0000
1000
0100
1000
0000
0000
0100
0000
1000
0100
0000
1000
0000
0100
0000
1000
,
0000
1000
0100
0010
0001
0000
0010
0000
0001
0010
0000
0001
0000
1000
0100
0000
,
0100
1000
0100
0000
0001
0000
0010
0000
0001
0010
0000
0001
0000
0010
0000
0001
,
0000
0010
0100
1000
0100
0000
1000
0000
1000
0001
0000
1000
0000
1000
0100
0000
,
0100
1000
0100
1000
0100
0000
0001
0000
1000
0100
0000
0100
0000
0100
0000
0100
,
0000
1000
0100
0000
0001
0000
1000
0000
1000
0100
0000
0020
0000
0000
0000
0030
,
1000
0001
1000
0001
1000
0000
1000
0000
1000
0100
0010
0000
0010
0000
0001
0000
,
0100
0000
0000
0000
0010
0000
0000
0000
0100
0000
0000
0000
0000
0000
0000
0000
0000
0000
0000
0000
1000
0000
0000
0000
0000
0000
0000
0000
0001
0000
0000
0000
1000
0000
0000
0000
0000
0000
0000
0000
0100
0000
0000
0000
0000
0000
0000
0000
2002
0000
0000
0000
0000
0000
0000
0000
0000
0000
0000
0000
0000
0000
0000
3003
,
0000
1000
0100
0010
0001
0000
0001
0000
1000
0000
0010
0000
1000
0000
0001
0000
,
0100
0000
0000
0000
1000
0100
0010
0001
0010
0100
1000
0100
0010
0000
0000
0000
,
1000
0000
1000
0001
0000
0001
0000
1000
0001
0000
0100
0000
0010
0000
0001
2000
,
0000
0000
0000
3000
0001
0010
0100
1000
0100
0010
0001
0010
0100
0000
0000
0000
,
0000
0000
1000
0000
0000
0100
0000
1000
0100
0000
0010
0000
0100
0000
0010
0002
,
0000
0000
0000
0000
1003
0100
0001
0100
1000
0100
0001
0100
1000
0000
0000
0000
,
0000
0000
0010
0001
0000
1000
0000
0100
0010
0000
1000
0100
1000
0100
1000
0002
,
0000
0000
0000
0003
0001
0100
1000
0100
0001
0100
1000
0100
0001
0000
0000
0000
,
1010
0000
1010
0000
1010
0000
0010
0100
0001
0000
0010
0000
0100
0000
0010
0100
,
0001
0000
0100
0000
0010
0100
0001
0000
0010
0100
0001
0000
0001
0000
0000
2000
,
0000
0000
0000
0000
0000
0000
0000
3000
1000
0000
0000
0000
0000
0000
0000
0000
1001
0000
0000
0000
0000
0000
0000
0000
1000
0000
0000
0000
0001
0000
0000
0000
1000
0000
0000
0000
0000
0000
0000
0000
0010
0000
0000
0000
0000
0000
0000
0000
1000
0000
0000
0000
0010
0000
0000
0000
0100
0000
0000
0000
0010
0000
0000
0000
,
0100
0000
0010
0000
0100
0010
1000
0000
0001
0010
0100
0000
0001
1000
0010
1000
,
0000
0000
0001
0000
1001
0000
0010
0100
0002
0000
0000
1003
0000
0000
0001
0010
,
0001
0010
0001
0000
0000
1000
0100
1000
0200
0000
0300
1000
0000
0001
1000
0001
,
1000
0000
1001
0000
1001
0000
0200
0300
0020
0030
0200
0300
0000
0010
0001
0010
,
0100
0000
0100
1000
0000
0000
2000
3000
0002
0003
2000
3000
1000
0100
0010
0000
,
0001
0000
0100
0010
0000
0010
0100
0000
0002
0000
0000
0000
1003
0100
0010
0000
,
0010
0000
0001
0000
1000
0100
0010
0000
1000
0000
0010
0000
1000
0000
1000
0100
,
0010
0000
0001
0000
1000
0100
0010
0000
1000
0000
0010
0000
1000
0001
1000
0001
,
0100
0010
0100
0000
1000
0100
1000
0100
1000
0001
1000
0001
1000
0100
1000
0100
,
1000
0001
1000
0000
0000
0001
0000
1000
0010
0001
0010
0000
1000
0000
0001
0010
,
0000
0000
0000
0100
0000
0000
0000
0000
0000
0000
0000
0000
1000
0000
0000
0000
0100
0000
0000
0000
0000
0010
0000
0000
0000
0000
0000
0001
0000
0000
0000
0000
0000
0000
0000
0000
1000
0000
0000
0001
0000
0000
1000
0000
0000
0001
0000
0000
,
1000
0100
0010
0000
0001
0010
0100
1000
0000
0010
0000
0000
1000
0100
1000
0000
,
1000
0010
0100
0000
0001
1000
0010
0000
0000
0001
0000
1000
0001
0000
0001
0010
,
0001
0000
0010
0000
0000
1000
0000
0100
0010
0000
0001
0000
1000
0000
0010
0100
,
0000
0000
0001
0000
1000
0100
0001
0100
1000
0100
0001
0100
1000
0000
0000
0000
,
1000
0010
1000
0000
0000
0000
0000
0000
;

//---------------dance-single - ----------------
#NOTES:
     dance-single:
     :
     Medium:
     5:
     0.301,0.298,0.090,0.000,0.000:
0000
1000
0001
1000
,
0001
0000
0010
1000
0100
0000
0010
0001
,
0100
0000
0001
0000
1000
0000
0001
1000
,
0001
0000
1000
0001
1000
0000
0001
0100
,
0001
0000
1000
0100
1000
0000
0010
1000
,
0010
0000
0100
0001
0100
0000
0010
0001
,
0010
0000
0001
0010
0100
0000
1000
0010
,
0100
0000
0001
0010
0100
0000
1000
0010
,
0100
0000
0001
0000
1000
0000
0001
1000
,
0001
0000
1000
0001
1000
0000
0001
1000
,
0001
0000
0010
0100
0010
0000
0100
0010
,
0100
0000
0010
0100
0010
0000
0100
0010
,
0100
0000
0001
1000
0100
0000
0010
0001
,
0100
0000
0010
1000
0100
0000
0001
1000
,
0001
0000
1000
0010
0100
0001
0010
0100
,
1000
0010
0000
0001
0010
0100
1000
0010
,
0100
0001
0000
0001
0000
0100
0000
1000
,
0000
0100
0000
0001
0000
0100
0000
1000
,
0000
0100
0000
0001
0000
0100
0000
1000
,
0000
0100
0000
0001
0000
0100
0000
1000
,
0000
0100
0000
0001
0000
0100
0000
1000
,
0000
0100
0000
0001
0000
0100
0000
1000
,
0000
0100
0000
0001
0000
0100
0000
1000
,
0000
0100
0000
0001
0000
0100
0000
1000
,
0000
0100
0000
0010
1000
0100
0010
0001
,
0100
0000
0001
0100
0001
0100
0001
0000
,
1000
0000
0010
1000
0010
1000
0001
1000
,
0001
0000
0100
0010
0100
0010
0100
0000
,
1000
0000
0001
1000
0001
0000
0010
0100
,
0010
0000
1000
0100
0010
0001
0010
0100
,
1000
0000
0001
1000
0001
1000
0010
0100
,
0010
1000
0001
1000
,
1001
0000
1001
0000
0010
1000
0100
1000
,
0010
0000
0001
0100
0001
0010
0001
0100
,
0001
0000
1001
0000
0100
1000
0010
1000
,
0100
1000
0001
1000
0001
0100
0010
0100
,
0010
0000
1000
0001
1000
0001
0000
0010
,
0100
0010
0000
1000
0100
1000
0000
0001
,
0010
0001
1000
0010
0100
0010
0000
0001
,
1000
0010
1000
0100
0010
0001
0010
0100
,
1000
0010
1000
0001
1000
0000
1100
0000
,
0011
0000
0100
1000
0100
0000
0011
0000
,
1100
0000
0001
0100
0001
0000
1010
0000
,
0101
1001
0110
1001
,
0110
0000
0001
0100
0001
0100
0010
1000
,
0010
1000
0100
1000
0100
1000
0001
0010
,
0001
0010
0100
1000
0100
1000
0010
1000
,
0010
1000
0001
1000
0001
1000
0001
0100
,
0010
0100
0000
0001
0000
1000
0000
0001
,
0000
1000
0000
0001
0000
1000
0000
0001
,
0000
1000
0000
0001
0000
1000
0000
0000
;

//---------------dance-single - ----------------
#NOTES:
     dance-single:
     :
     Easy:
     2:
     0.199,0.156,0.000,0.000,0.000:
0000
1000
0100
0001
,
0100
1000
0100
0001
,
0100
1000
0100
0001
,
0100
1000
0100
0001
,
0100
1000
0010
0100
,
0001
1000
0010
0100
,
0001
1000
0010
0100
,
0001
1000
0010
0100
,
0001
0001
0010
1000
,
0010
0001
0010
1000
,
0010
0001
0100
1000
,
0100
0001
0100
1000
,
0100
0001
1000
0100
,
0010
0001
0100
0010
,
0100
0001
1000
0100
,
0001
0100
1000
0100
,
0001
0100
1000
0100
,
0001
0100
1000
0100
,
0001
0100
1000
0010
,
0001
0010
1000
0010
,
0001
0010
1000
0010
,
0001
0010
1000
0100
,
0001
0100
1000
0100
,
0001
0100
1000
0100
,
0001
0100
1000
0010
,
0001
0010
1000
0100
,
0001
0100
1000
0010
,
0001
0010
1000
0100
,
0001
0100
1000
0010
,
0100
0001
1000
0100
,
0010
0001
0010
0100
,
1000
0100
0001
0100
,
1000
0100
0001
0100
,
1000
0010
0001
0010
,
1000
0010
0001
0010
,
1000
0010
0001
0010
,
1000
0010
0001
0010
,
1000
0100
0001
0100
,
1000
0100
0001
0100
,
1000
0010
0001
0010
,
1000
0100
1000
0010
,
1000
0100
0010
0001
,
0100
0001
0010
1000
,
0010
0001
1000
0010
,
0100
0001
0100
1000
,
0100
0001
0100
1000
,
0100
0001
0100
1000
,
0100
0001
0100
1000
,
0100
0001
0010
1000
,
0010
0001
0010
1000
,
0010
0001
0000
0000
;
