#TITLE:Re Cutie Honey;
#SUBTITLE:;
#ARTIST:Kumi Koda;
#TITLETRANSLIT:;
#SUBTITLETRANSLIT:;
#ARTISTTRANSLIT:;
#CREDIT:;
#BANNER:Re Cutie Honey.png;
#BACKGROUND:Re Cutie Honey-bg.png;
#LYRICSPATH:;
#CDTITLE:;
#MUSIC:Re Cutie Honey.mp3;
#OFFSET:-0.040;
#SAMPLESTART:17.070;
#SAMPLELENGTH:16.840;
#SELECTABLE:YES;
#BPMS:0.000=154.980;
#STOPS:;
#BGCHANGES:;

//---------------dance-single - ----------------
#NOTES:
     dance-single:
     :
     Beginner:
     3:
     0.297,0.504,0.237,0.305,0.000:
0000
0000
0000
0000
,
0000
0000
0000
0000
,
0000
1000
1000
0001
,
0001
0010
0100
0010
,
0000
0001
0000
1000
,
0001
0000
0000
0000
,
0001
0010
0100
1000
,
0200
0000
0320
0000
,
0030
0001
1000
1000
,
1000
0001
0000
1001
,
1001
0110
0110
1001
,
1001
0011
1100
0000
,
0110
0020
0030
0000
,
0110
0200
0300
0000
,
0000
0001
0001
1000
,
1000
0001
0001
0010
,
0010
0100
0100
1000
,
1000
0001
0001
0010
,
0010
0100
0100
1000
,
1000
0001
0010
0000
,
0100
1000
0000
0001
,
0000
0010
0100
0010
,
0002
0000
0000
0003
,
1001
1001
0000
0010
,
0100
0010
0001
0000
,
0000
1000
0000
0000
,
0010
0010
0010
0010
,
0100
0100
0100
0100
,
0100
0001
1000
0001
,
0000
1001
0000
0000
,
0010
0010
0010
0001
,
0200
0000
0000
0000
,
0300
0001
0001
0010
,
0010
0100
0100
1000
,
1000
0001
0000
1000
,
0001
1000
0001
1000
,
0001
1000
0001
1000
,
0001
0020
0000
0000
,
0030
0200
0000
0000
,
0000
0300
0000
0000
,
0000
0020
0000
0030
,
0000
0020
0000
0030
,
0000
0002
0000
0003
,
0000
0002
0000
0003
,
0000
2000
0000
3000
,
0000
2000
0000
3000
,
0000
0020
0230
0000
,
0320
0000
0000
0030
,
0000
1000
1001
0001
,
1001
1000
1000
0001
,
0001
0020
0030
0200
,
0300
0001
0000
0000
,
1000
0000
0100
0000
,
0000
1001
1001
0000
,
2002
3003
0220
0330
,
0022
0033
2200
3300
;

//---------------dance-single - ----------------
#NOTES:
     dance-single:
     :
     Easy:
     5:
     0.475,0.508,0.373,0.079,0.000:
0000
0000
1000
0010
0001
0000
0010
0100
,
1000
0001
0010
0100
1000
0000
0000
0000
,
0000
1000
1000
0010
0010
0001
0001
0010
,
0010
0100
0100
0100
1000
1000
0000
0000
,
0000
1000
1000
0001
0001
0010
0010
0100
,
0100
1000
1000
0100
0100
0010
0010
0010
,
0000
0001
0001
0010
0000
0010
0000
0100
,
1000
0001
0020
0000
0000
0000
0030
0000
,
0000
1000
0000
0001
0000
1000
0000
0001
,
0000
0000
0010
0000
0100
0010
0000
1001
,
0010
0100
0000
0001
0000
0010
0000
0100
,
0000
1000
0100
0000
0010
0000
0001
0000
,
0010
0200
0000
0000
0000
0300
0000
0001
,
0000
0020
0000
0000
0000
0000
0030
0000
,
0000
1000
1000
0000
0000
0001
0001
0000
,
0000
0010
0000
0100
0000
1001
1001
0010
,
0000
0100
0000
0010
0000
0100
0000
0010
,
0000
0100
0001
0000
0010
0100
0000
0000
,
0000
0001
0101
0001
0000
0101
0000
0000
,
0000
0001
0101
0000
0000
0001
0101
0000
,
0000
1001
0110
1001
,
0110
1001
0110
1001
,
0110
1001
0000
0110
0000
1001
0000
0000
,
0000
0010
0100
0110
0000
0000
0010
0000
,
0000
0001
0010
0000
0100
0000
1000
0100
,
0010
2002
0000
0000
0000
0000
0000
0000
,
3003
0010
0000
0001
0000
1000
0000
0010
,
0000
0001
0000
1000
0000
0010
0000
0100
,
0000
0010
0000
0001
0000
1000
0000
0010
,
0000
0100
0000
0010
0000
0100
0000
0010
,
0000
0001
0001
0010
0010
0000
0100
0100
,
0000
1000
0100
0010
0001
0001
0000
0000
,
0000
1000
1000
0100
0100
0010
0010
0001
,
0001
0010
0100
0100
1000
0100
0000
0000
,
0000
0001
0010
0000
0000
1000
0100
0000
,
0000
0001
0100
0000
1000
0000
0000
0000
,
0000
0001
0100
1000
0010
0000
0000
0000
,
0000
0001
0100
0010
1000
0001
0010
0100
,
1000
0001
0010
0000
0100
0000
0000
0000
,
0000
0001
0100
0010
1000
0001
0100
0010
,
1000
0001
0000
0010
0100
0010
0000
0000
,
0000
0010
0100
0000
1001
0000
0010
0100
,
0010
0100
0000
0010
0100
0010
0000
0100
,
0010
0100
0000
0010
0100
0010
0000
0000
,
0000
0010
0100
0010
0100
0010
0000
0000
,
0000
0010
0100
0010
0100
0010
0000
0000
,
0000
0010
0100
0010
0100
0000
0000
0000
,
0000
0010
0100
0010
0100
0010
0000
0000
,
0000
0010
0100
0010
0000
0000
0110
0010
,
0000
0010
0000
0010
0000
0100
0000
0000
,
0000
0010
0100
0000
0010
0000
0000
0010
,
0100
0000
0010
0000
0000
0001
0010
0100
,
0000
1000
0000
0001
0000
0010
0000
0000
,
0000
1001
1001
1001
0000
0000
0000
0000
,
0000
1001
1001
0000
0011
0000
0011
1100
,
1100
1100
0000
0000
0000
0000
0000
2002
,
0000
3003
0000
0000
;

//---------------dance-single - ----------------
#NOTES:
     dance-single:
     :
     Medium:
     6:
     0.625,0.762,0.757,0.102,0.011:
0000
1000
1000
0010
0001
0000
0010
1100
,
0001
0010
0100
0010
0100
0000
0001
0010
,
0000
0100
0100
1000
0001
0010
0100
0010
,
0001
0010
0000
0100
0000
1001
1001
0000
,
0000
0010
0010
0100
0100
0010
0010
0100
,
0000
1000
0100
0010
0001
0001
0001
0000
,
0000
1000
0100
0010
0001
0001
0010
0100
,
1000
0100
0100
0010
0001
0010
0100
0000
,
0000
1000
0100
0010
0001
0001
0010
0100
,
1000
1000
0100
0010
0001
0010
0010
0100
,
0010
0100
0000
1001
0001
1001
1001
1000
,
0000
0010
0100
0000
0001
0000
1000
1000
,
0010
0100
1000
0100
0010
0100
1000
0010
,
0100
1000
0100
0010
1000
0010
1000
0010
,
0001
0100
0001
0100
0000
0010
0200
0000
,
0000
0302
0000
0000
0000
0003
0000
0010
,
0100
0010
2002
0000
0000
3003
0000
0010
,
0100
0110
0010
0100
0000
0010
0000
0000
,
0000
0010
0100
0110
0110
0110
0110
0110
,
0000
1001
1001
0011
0011
1100
1100
0000
,
0000
0010
0110
0110
0000
0001
0100
0110
,
0000
1000
0000
0100
0000
0100
0001
0010
,
0000
0100
0000
0110
0010
0100
0001
0000
,
0000
1000
0100
0010
0001
1000
0100
0011
,
0000
0010
0100
0000
0010
0000
0100
0010
,
0000
2002
0000
0000
0000
0000
0000
3003
,
0000
1000
0010
0010
0000
1000
0000
0010
,
0000
1000
0000
0010
0010
0010
0000
1000
,
0000
0010
0010
0010
0000
0001
1000
0100
,
0000
1001
0000
0001
1000
0000
0000
0000
,
0000
0010
0100
0001
0010
0100
1000
0010
,
0100
0010
0100
0010
0002
0000
0000
0003
,
0000
1000
0010
0100
0010
0100
0010
0100
,
0010
0100
0000
1001
1001
0011
0011
0000
,
0000
0110
0110
0011
0011
1100
1100
1100
,
0000
0010
0000
0100
0010
0100
0010
0000
,
0000
1010
0000
0101
0000
0110
0000
1000
,
0000
1100
0000
1010
0000
1001
0000
0101
,
0000
0011
0000
0101
0000
1001
0000
1010
,
0000
1100
0000
1010
0000
1001
0000
0101
,
0000
0011
0000
0101
0000
1001
0000
1010
,
0000
1100
1001
0000
0010
0000
0100
0010
,
0100
0010
0100
0010
0100
0010
0100
0010
,
0000
0010
0000
0010
0100
0010
0100
0010
,
0000
0010
0000
0010
0100
0010
0100
0010
,
0000
0010
0100
0010
0000
0010
0100
0010
,
0000
0010
0100
0010
0000
0010
0000
0010
,
0000
0010
0100
0010
0100
0010
0100
0010
,
0000
0001
1000
0001
1000
0000
0001
0110
,
0000
0010
0000
0110
0110
1000
0000
0110
,
0110
0001
0110
0000
1000
0010
0000
0000
,
0001
0010
0100
0000
0000
0001
0000
1010
,
0000
0002
0000
0000
0000
0000
0000
0003
,
0000
0010
1001
1001
0000
0010
0100
0000
,
0000
0010
0001
0000
1000
0000
0010
0100
,
0010
0002
0000
0000
0000
0000
0003
0000
,
1000
0100
0010
0001
0000
0000
0000
0000
0000
0000
0000
0000
0000
0000
0000
0000
;

//---------------dance-single - ----------------
#NOTES:
     dance-single:
     :
     Hard:
     11:
     0.723,0.941,1.000,0.023,0.000:
0000
1001
1001
1001
1001
1001
1001
1001
,
1001
0010
0000
0000
0010
0000
0000
0000
,
0000
1000
1000
0100
0100
0010
0010
0001
,
0001
0001
0010
0010
0010
0100
0010
0000
,
0000
0001
0010
0100
1000
1000
1000
0100
,
0010
0001
0001
0001
0010
0100
1000
1000
,
1000
0100
0010
0001
0001
0001
0010
0100
,
1000
1000
1100
0000
0010
0001
0000
0010
,
0000
0000
1100
0000
0011
0100
0010
0100
,
0000
0000
0001
0000
1000
0011
0000
0100
,
0000
0000
1000
0100
1100
1000
1100
0100
,
0000
0010
0100
0000
0010
0000
0010
0110
,
0000
0001
0000
0010
0000
1100
0000
0001
,
0010
0100
0000
1100
1100
1100
1100
1100
,
0000
0011
0011
0101
0000
0100
0010
0100
,
0010
0010
0000
0010
0000
0000
0000
0011
,
0101
1001
0000
0000
0000
0011
0101
1001
,
0000
1100
0000
1010
0000
1000
0000
0000
,
0000
0010
0100
0010
0100
0110
0110
0000
,
0000
1001
1001
0011
0011
1100
1100
1100
,
0000
0010
0110
0110
0100
0001
0110
0010
,
0110
0100
0001
1000
0010
0100
0010
0100
,
0010
0100
0010
0100
0010
0100
0010
0000
,
0000
1001
0011
1100
0000
0010
0100
0000
,
0000
0010
0100
0000
0001
0000
1000
0010
,
0100
0002
0000
0000
0000
0000
0000
0003
,
0000
0001
1001
1000
0001
1000
0001
1000
,
1001
0001
1000
0001
1000
0001
1001
1001
,
0001
1001
1001
1000
1001
1001
1001
1001
,
1001
1001
1001
1001
1001
1001
1001
1001
,
0000
0010
0010
0010
0100
0101
1000
0001
,
0010
0100
0010
0100
0010
0000
0000
0000
,
0000
0101
0101
0010
0100
0110
0100
0001
,
1000
0010
0100
0110
0110
0110
0001
1000
,
0010
0100
0000
0000
1010
1010
1010
0100
,
0010
0100
0010
0110
0000
1000
1010
1000
,
0100
0100
0001
0001
0010
0000
0000
0100
,
0010
0020
0000
0000
0000
0000
0000
0030
,
0000
0000
1000
0000
0001
1000
0000
0010
,
0100
0000
0010
0000
1000
0001
0000
1001
,
1000
0010
0000
1000
1100
0100
1000
1100
,
0000
0010
0100
0000
0001
0000
1000
0010
,
1000
0100
1000
0010
1000
0100
1000
0010
,
1000
0100
1000
0010
1000
0100
1000
0010
,
1000
0010
1000
0010
1000
0001
1000
0010
,
1000
0100
1000
0100
1000
0100
1000
0100
,
1000
0100
1000
0100
1000
0001
1000
0001
,
1001
1000
0010
0001
0010
0001
0010
0001
,
0010
0001
0010
0000
0001
0000
0000
0000
,
0000
0001
0000
0011
0000
0011
0100
0011
,
0000
0011
0011
0011
0011
0001
0011
0011
,
0011
0011
0011
0011
0000
0010
0000
0001
,
0000
0011
0011
0011
0001
0001
0011
0011
,
0000
1001
1001
1001
0000
0010
0000
0000
,
0000
1000
0100
0010
1001
0100
0010
0001
,
1000
1100
0010
0000
0010
0000
0000
0000
;

//---------------dance-single - ----------------
#NOTES:
     dance-single:
     :
     Challenge:
     15:
     0.621,0.729,1.000,0.282,0.006:
0000
1000
1000
0010
0001
0010
0100
1000
,
0100
0011
0000
0010
0000
0000
1001
1001
,
0000
0010
0000
0001
1000
0010
0100
0110
,
0000
0011
0000
1000
0010
0100
0010
0000
,
0000
0001
0000
1010
0000
0110
0000
0110
,
0001
1000
0001
0010
0100
0010
0100
0000
,
0000
0001
0000
1001
1000
1010
0000
0110
,
0000
0110
0000
1001
0000
0011
0000
0110
,
0000
0000
0000
0010
0100
0010
0000
0100
,
0000
0010
0000
0001
1000
0001
0000
1001
,
1000
0010
0000
0100
0100
1010
1000
1010
,
0010
0100
0010
0000
0100
0001
0000
0110
,
0000
0100
0000
1010
0000
1010
0010
0010
,
0000
0210
0000
0000
0000
0000
0000
0300
,
0000
1000
0001
1000
0010
0110
0000
0000
,
0002
0000
0000
0000
0000
0003
0000
1000
,
0010
0100
0002
0000
0000
0003
0000
0010
,
0100
0010
0100
0000
0001
2000
0000
0000
,
3000
0010
1001
0010
0000
1001
0000
0000
,
0000
0010
1001
0010
1001
0010
0000
0100
,
0000
1000
0100
0001
0000
1000
0100
0001
,
0000
1100
0001
0000
0000
1100
0000
0010
,
0001
0010
0000
0100
0000
0010
0000
0000
,
0000
1001
0000
1001
0000
0010
0100
0000
,
0000
1001
0000
0000
0011
0000
0011
1100
,
1100
1100
0000
0010
0000
0100
0000
0001
,
0000
1000
0100
0011
0000
1100
0000
0011
,
0000
0011
0000
0100
1000
0100
0000
0010
,
0000
0001
1000
0100
0010
0110
0000
0000
,
0000
1001
0000
0011
0000
1100
0000
1010
,
0000
1001
1001
1001
0110
0110
0110
0110
,
0000
0001
0000
1010
0100
0000
0000
0000
,
0000
1000
1000
0010
0001
0010
0100
0000
,
0000
0010
0000
0100
0000
1001
1001
0000
,
0000
0010
0000
1001
1001
1001
1001
0011
,
0011
1100
1100
0010
0100
0010
0100
0010
,
0100
0001
0000
1000
0010
0100
0001
1010
,
0000
0100
0000
0001
0000
1000
0000
0010
,
0000
0000
0002
0000
1003
0010
0000
0100
,
0020
0000
0030
0001
1000
0010
0000
0110
,
0000
0000
0000
0002
0000
0000
0000
0000
,
0003
1001
1001
0101
0100
1100
0000
0110
,
0000
0110
0000
0011
0000
1010
0101
0010
,
0100
0000
0001
1000
0000
0000
0010
0000
0000
0010
0000
0000
0000
0000
0000
1000
0000
0000
0000
0000
0000
1000
0000
0000
,
0000
0001
1000
0010
0100
0010
0100
0001
,
1000
0110
0000
0110
0001
0001
0000
0100
,
0100
0101
0101
0101
0101
0101
0000
1010
,
1010
1010
0002
0000
0000
0203
0000
0000
,
0300
1000
0001
1000
0001
1000
0000
0000
,
0000
0002
0000
0023
0000
0230
0000
2300
,
0000
3000
0020
0000
0000
0230
0000
0000
,
0000
0302
0000
0000
0000
2003
0000
3020
,
0000
0230
0000
0302
0000
0023
0000
0000
,
0030
1001
1001
2002
0000
0000
0000
3003
,
0000
0110
0000
0001
0000
1000
0000
0110
,
0010
0110
0000
0001
0000
2002
0000
0000
,
0000
3003
0000
0000
0000
0000
0000
0000
;

//---------------dance-double - Copied from----------------
#NOTES:
     dance-double:
     Copied from:
     Easy:
     4:
     0.421,0.508,0.870,0.079,0.000:
00000000
00100000
00001100
00001000
,
00110000
00001100
00110000
00000000
,
00000000
00100000
00001000
00000100
,
00001000
00010000
00110000
00100000
,
00000000
00100000
00000100
00001000
,
00010000
00100000
00010000
00001000
,
00001000
00000100
00001000
00001000
,
00110000
00002100
00000000
00003000
,
00000000
00100000
00000100
00100000
,
00000100
00001000
00010000
00001000
,
00001100
00010000
00000100
00001000
,
00010000
00110000
00001000
00000100
,
00001000
00020000
00000000
00030000
,
00000100
00002000
00000000
00003000
,
00000000
00100000
00000000
00000100
,
00000000
00001000
00010000
00100100
,
00001000
00010000
00001000
00010000
,
00001000
00010100
00001000
00010000
,
00000000
00010100
00000100
00010100
,
00000000
00010100
00000000
00010100
,
00000000
00100100
00011000
00100100
,
00011000
00100100
00011000
00100100
,
00011000
00100100
00011000
00100100
,
00000000
00011000
00011000
00001000
,
00000000
00001100
00010000
00100000
,
00011000
00200200
00000000
00000000
,
00300300
00001000
00000100
00100000
,
00001000
00000100
00100000
00001000
,
00010000
00001000
00000100
00100000
,
00001000
00010000
00001000
00010000
,
00001000
00000100
00001000
00010000
,
00010000
00110000
00001100
00000100
,
00000000
00100000
00010000
00001000
,
00000100
00011000
00110000
00010000
,
00000000
00001100
00000000
00110000
,
00000000
00010100
00100000
00000000
,
00000000
00010100
00101000
00000000
,
00000000
00010100
00101000
00001100
,
00110000
00001100
00010000
00000000
,
00000000
00010100
00101000
00010100
,
00101000
00000100
00011000
00001000
,
00000000
00011000
00100100
00001000
,
00011000
00010000
00011000
00001000
,
00011000
00010000
00011000
00001000
,
00000000
00011000
00011000
00001000
,
00000000
00011000
00011000
00001000
,
00000000
00011000
00011000
00000000
,
00000000
00011000
00011000
00001000
,
00000000
00011000
00001000
00011000
,
00001000
00001000
00001000
00010000
,
00000000
00011000
00001000
00000000
,
00011000
00001000
00000000
00001100
,
00010000
00100000
00000100
00001000
,
00000000
00100100
00100100
00000000
,
00000000
00100100
00001100
00001100
,
00110000
00110000
00000000
00000000
,
00200200
00300300
00000000
00000000
;

//---------------dance-double - Copied from ----------------
#NOTES:
     dance-double:
     Copied from:
     Medium:
     11:
     0.723,0.941,1.000,0.023,0.000: // measure 1
00000000
10010000
10010000
10010000
10010000
10010000
10010000
10010000
,  // measure 2
10010000
00100000
00000000
00000000
00100000
00000000
00000000
00000000
,  // measure 3
00000000
10000000
10000000
01000000
01000000
00100000
00100000
00010000
,  // measure 4
00010000
00010000
00100000
00100000
00100000
01000000
00100000
00000000
,  // measure 5
00000000
00010000
00100000
01000000
10000000
10000000
10000000
01000000
,  // measure 6
00100000
00010000
00010000
00010000
00100000
01000000
10000000
10000000
,  // measure 7
10000000
01000000
00100000
00010000
00010000
00010000
00100000
01000000
,  // measure 8
10000000
10000000
11000000
00000000
00100000
00010000
00000000
00100000
,  // measure 9
00000000
00000000
11000000
00000000
00110000
01000000
00100000
01000000
,  // measure 10
00000000
00000000
00010000
00000000
10000000
00110000
00000000
01000000
,  // measure 11
00000000
00000000
10000000
01000000
11000000
10000000
11000000
01000000
,  // measure 12
00000000
00100000
01000000
00000000
00100000
00000000
00100000
01100000
,  // measure 13
00000000
00010000
00000000
00100000
00000000
11000000
00000000
00010000
,  // measure 14
00100000
01000000
00000000
11000000
11000000
11000000
11000000
11000000
,  // measure 15
00000000
00110000
00110000
01010000
00000000
01000000
00100000
01000000
,  // measure 16
00100000
00100000
00000000
00100000
00000000
00000000
00000000
00110000
,  // measure 17
01010000
10010000
00000000
00000000
00000000
00110000
01010000
10010000
,  // measure 18
00000000
11000000
00000000
10100000
00000000
10000000
00000000
00000000
,  // measure 19
00000000
00100000
01000000
00100000
01000000
01100000
01100000
00000000
,  // measure 20
00000000
10010000
10010000
00110000
00110000
11000000
11000000
11000000
,  // measure 21
00000000
00100000
01100000
01100000
01000000
00010000
01100000
00100000
,  // measure 22
01100000
01000000
00010000
10000000
00100000
01000000
00100000
01000000
,  // measure 23
00100000
01000000
00100000
01000000
00100000
01000000
00100000
00000000
,  // measure 24
00000000
10010000
00110000
11000000
00000000
00100000
01000000
00000000
,  // measure 25
00000000
00100000
01000000
00000000
00010000
00000000
10000000
00100000
,  // measure 26
01000000
00020000
00000000
00000000
00000000
00000000
00000000
00030000
,  // measure 27
00000000
00010000
10010000
10000000
00010000
10000000
00010000
10000000
,  // measure 28
10010000
00010000
10000000
00010000
10000000
00010000
10010000
10010000
,  // measure 29
00010000
10010000
10010000
10000000
10010000
10010000
10010000
10010000
,  // measure 30
10010000
10010000
10010000
10010000
10010000
10010000
10010000
10010000
,  // measure 31
00000000
00100000
00100000
00100000
01000000
01010000
10000000
00010000
,  // measure 32
00100000
01000000
00100000
01000000
00100000
00000000
00000000
00000000
,  // measure 33
00000000
01010000
01010000
00100000
01000000
01100000
01000000
00010000
,  // measure 34
10000000
00100000
01000000
01100000
01100000
01100000
00010000
10000000
,  // measure 35
00100000
01000000
00000000
00000000
10100000
10100000
10100000
01000000
,  // measure 36
00100000
01000000
00100000
01100000
00000000
10000000
10100000
10000000
,  // measure 37
01000000
01000000
00010000
00010000
00100000
00000000
00000000
01000000
,  // measure 38
00100000
00200000
00000000
00000000
00000000
00000000
00000000
00300000
,  // measure 39
00000000
00000000
10000000
00000000
00010000
10000000
00000000
00100000
,  // measure 40
01000000
00000000
00100000
00000000
10000000
00010000
00000000
10010000
,  // measure 41
10000000
00100000
00000000
10000000
11000000
01000000
10000000
11000000
,  // measure 42
00000000
00100000
01000000
00000000
00010000
00000000
10000000
00100000
,  // measure 43
10000000
01000000
10000000
00100000
10000000
01000000
10000000
00100000
,  // measure 44
10000000
01000000
10000000
00100000
10000000
01000000
10000000
00100000
,  // measure 45
10000000
00100000
10000000
00100000
10000000
00010000
10000000
00100000
,  // measure 46
10000000
01000000
10000000
01000000
10000000
01000000
10000000
01000000
,  // measure 47
10000000
01000000
10000000
01000000
10000000
00010000
10000000
00010000
,  // measure 48
10010000
10000000
00100000
00010000
00100000
00010000
00100000
00010000
,  // measure 49
00100000
00010000
00100000
00000000
00010000
00000000
00000000
00000000
,  // measure 50
00000000
00010000
00000000
00110000
00000000
00110000
01000000
00110000
,  // measure 51
00000000
00110000
00110000
00110000
00110000
00010000
00110000
00110000
,  // measure 52
00110000
00110000
00110000
00110000
00000000
00100000
00000000
00010000
,  // measure 53
00000000
00110000
00110000
00110000
00010000
00010000
00110000
00110000
,  // measure 54
00000000
10010000
10010000
10010000
00000000
00100000
00000000
00000000
,  // measure 55
00000000
10000000
01000000
00100000
10010000
01000000
00100000
00010000
,  // measure 56
10000000
11000000
00100000
00000000
00100000
00000000
00000000
00000000
;
