#TITLE:Raving Beats;
#SUBTITLE:(Nightcore);
#ARTIST:Dj Paul Estak & Mental Theo feat. Gin Dutch;
#TITLETRANSLIT:;
#SUBTITLETRANSLIT:;
#ARTISTTRANSLIT:;
#GENRE:;
#CREDIT:;
#BANNER:;
#BACKGROUND:;
#LYRICSPATH:;
#CDTITLE:;
#MUSIC:Raving Beats.mp3;
#OFFSET:0.000000;
#SAMPLESTART:100.000000;
#SAMPLELENGTH:12.000000;
#SELECTABLE:YES;
#BPMS:0.000000=210.300003
,350.250000=155.000000
,373.250000=210.300003
;
#STOPS:62.000000=1.200000,
574.583313=0.050000,
576.583313=0.050000,
577.583313=0.050000,
578.583313=0.050000,
579.583313=0.050000
;
#BGCHANGES:0.000=(Nightcore Remix) Raving Beats.avi=1.000=0=0=0=StretchNoLoop====,
99999=-nosongbg-=1.000=0=0=0 // don't automatically add -songbackground-
;
#KEYSOUNDS:;
#ATTACKS:;

//---------------dance-single - ----------------
#NOTES:
     dance-single:
     :
     Challenge:
     15:
     1.000000,1.000000,0.793912,0.364419,1.000000,1688.000000,183.000000,84.000000,0.000000,16.000000,0.000000,1.000000,1.000000,0.793912,0.364419,1.000000,1688.000000,183.000000,84.000000,0.000000,16.000000,0.000000:
// measure 0
0000
0000
0000
0000
0000
2000
0000
3000
,  // measure 1
2000
3000
0000
0000
,  // measure 2
0000
0000
0000
0000
0000
0000
0000
0000
0000
0000
0000
0200
0000
0000
0000
0000
,  // measure 3
0300
0200
0000
0000
0000
0000
0300
0000
0000
0000
0000
0000
0000
0000
0000
0000
,  // measure 4
0000
0000
0000
0000
0000
0000
0000
0000
0000
0002
0000
0000
0000
0000
0003
0002
,  // measure 5
0000
0000
0000
0000
0000
0003
0000
0000
0000
0000
0000
0000
0000
0000
0000
0000
,  // measure 6
0000
0000
0000
0000
0000
0000
0000
2000
0000
0000
0000
0000
0000
3000
2000
0000
,  // measure 7
0000
0000
0000
3000
0000
0000
0000
0000
0000
0000
0000
0000
0000
0000
1000
0100
,  // measure 8
1000
0100
0001
0010
1000
0100
0001
0010
1000
0100
0000
0000
0100
0000
0100
0000
,  // measure 9
0100
0100
0100
0100
0001
0001
0001
0001
,  // measure 10
0001
0001
0100
0100
0100
0100
0100
0100
,  // measure 11
0100
0010
0010
0010
0010
0010
0010
0010
,  // measure 12
1100
1100
1100
0110
0110
0110
0011
0011
,  // measure 13
0011
1100
0011
0011
1100
0011
0011
1100
,  // measure 14
0011
0011
0110
0110
0000
2000
3002
2003
,  // measure 15
3002
0000
0000
2003
0000
0000
3002
0000
0000
0003
0000
0000
1001
0000
1000
0000
0100
0000
0010
0000
0001
0000
0010
0000
,  // measure 16
0100
1000
0100
0010
0001
0010
0100
1000
0100
0010
0100
1000
,  // measure 17
0100
0010
0001
0010
0100
0010
0001
0010
0100
1000
0100
0010
,  // measure 18
0100
1000
0100
1000
0100
0001
0010
0001
0010
0001
0100
0010
,  // measure 19
1000
0100
0010
0001
0010
0100
1000
0100
0010
0100
1000
0100
,  // measure 20
0010
0001
0010
0100
0010
0001
0010
1000
0100
0010
0001
0010
,  // measure 21
1000
0100
0001
0010
1000
0100
0010
0001
0010
0100
0010
0001
,  // measure 22
0010
0100
1000
0100
0010
0001
0010
0100
1000
0100
0010
0001
,  // measure 23
1000
0100
0001
0010
0000
2000
0000
0000
0000
3100
0010
0001
,  // measure 24
0010
1000
0100
0010
0001
0010
0100
0010
0100
1000
0100
0010
,  // measure 25
0001
0010
1000
0100
0010
0001
0010
0100
0010
0001
0010
0100
,  // measure 26
1000
0100
0010
0001
0010
0100
0010
0001
1000
0100
0010
0001
,  // measure 27
0010
0100
0010
0000
0001
0001
1000
0100
0010
0001
1000
0100
,  // measure 28
0010
0100
1000
0100
0010
0001
0010
0100
0010
0001
0010
0100
,  // measure 29
1000
0100
0001
0010
0100
0010
0001
0100
1000
0010
0001
0100
,  // measure 30
1000
0010
0100
0001
0010
0100
1000
0000
0100
0010
0000
1000
,  // measure 31
0001
0010
0100
0010
0001
0010
0100
1000
0000
0200
0000
0300
,  // measure 32
1000
0100
0100
0010
0010
0001
0010
0010
,  // measure 33
0100
0100
1000
0100
0100
0010
0010
0100
,  // measure 34
0100
0010
0010
0001
0001
0010
0010
0100
,  // measure 35
0100
0000
0001
0010
0001
0010
0000
0000
0000
0000
1000
0100
0000
0100
0001
0010
,  // measure 36
0000
1010
0100
0000
0100
0001
0010
0000
0010
0100
1000
0000
1000
0000
0000
1000
,  // measure 37
0100
0100
1000
0100
0010
0001
0010
0010
0001
0010
1000
0100
0010
0001
0010
0100
,  // measure 38
0000
0000
0000
0100
0000
0000
0010
0000
0000
1000
0000
0000
0001
0000
0000
0001
0000
0000
1000
0000
0000
0010
0000
0000
0100
0000
0000
0100
0000
0000
0010
0000
0000
1000
0000
0000
0001
0000
0000
0000
0000
0000
0010
0000
0001
0000
0010
0000
,  // measure 39
0001
0010
0001
0010
0001
0010
0001
0010
0001
0010
0001
0010
0001
0010
0001
0010
0001
0010
1001
0000
0000
1000
0000
0000
,  // measure 40
0100
0001
0001
1000
1000
0100
0100
0010
,  // measure 41
0010
0001
0001
1000
1000
0010
0010
0100
,  // measure 42
0100
1000
1000
0001
0001
1000
0010
1000
,  // measure 43
0001
0100
0001
0010
0000
1100
1100
0110
,  // measure 44
1001
0110
1001
2002
0010
0010
0000
0010
,  // measure 45
0010
0000
0010
0010
0000
0000
0100
0100
,  // measure 46
0000
0000
3023
0000
0000
0100
1000
0100
,  // measure 47
1000
0001
0100
0001
0130
1000
0010
0001
,  // measure 48
0100
0000
1000
0010
0001
0100
1000
0010
,  // measure 49
0100
1000
0100
0001
0010
1000
0100
0001
,  // measure 50
0010
1000
0100
0001
0010
1000
0100
0010
,  // measure 51
0100
0000
0000
1000
0100
0001
0010
0000
,  // measure 52
0010
0100
1000
0100
1000
0100
0001
0010
,  // measure 53
1000
0100
0100
0010
0010
0100
1000
0001
,  // measure 54
0010
0100
0010
0010
0100
0100
0010
0010
,  // measure 55
0000
2200
3322
0033
0000
1000
0100
0000
,  // measure 56
0100
0010
0010
0001
0001
0010
1010
0100
,  // measure 57
0100
0010
0010
0001
0001
1000
1000
0100
,  // measure 58
0100
0001
0001
0100
0100
1000
1000
0001
,  // measure 59
2000
3200
0320
0030
1000
0100
0100
1000
,  // measure 60
0010
0010
1000
0100
0100
1000
0001
0001
,  // measure 61
0010
0100
0000
0100
0100
0000
1000
1000
,  // measure 62
0001
0001
0010
0010
0100
0100
2000
3000
,  // measure 63
0100
0000
0200
0000
0300
0000
0100
0000
0100
0000
0000
0000
0000
0000
0100
0001
,  // measure 64
0100
0001
1000
0010
1000
0010
0000
1000
0100
1000
0100
0001
0010
0001
0010
0000
,  // measure 65
1000
0100
1000
0100
0000
0001
0010
0001
0010
0000
1000
0010
1000
0010
0000
0100
,  // measure 66
0001
0100
0001
0000
1000
0001
1000
0001
0100
0010
0100
0010
0000
0000
1000
0100
,  // measure 67
1000
0100
0000
0010
0100
0010
0100
0000
1000
0001
1000
0001
0000
0010
0100
0010
,  // measure 68
0100
0000
1000
0001
1000
0001
0010
0100
0010
0100
0000
1000
0100
1000
0100
0000
,  // measure 69
0100
0001
0100
0001
1000
0010
1000
0010
0100
0001
0100
0001
0100
0010
0100
0010
0000
0000
1000
0100
1000
0100
0000
0001
,  // measure 70
0010
0001
0010
0000
0000
1000
0100
1000
0100
0000
2200
0000
0022
0000
0000
0033
0000
0000
0011
3300
0000
0022
0000
0000
,  // measure 71
0000
0000
0000
0000
1100
0100
1100
0133
,  // measure 72
1100
0010
0110
0010
0110
0010
0110
1000
,  // measure 73
1001
1000
1001
1000
1001
0010
0110
0010
,  // measure 74
0110
0010
0110
1000
1001
0001
1001
0010
,  // measure 75
0110
0010
0110
0100
0100
0100
0110
1001
,  // measure 76
1100
0011
0101
1010
0001
1100
0011
1100
,  // measure 77
1100
1100
0022
0000
0033
1100
1100
0110
,  // measure 78
0110
0011
0011
0110
1001
0110
1000
0100
,  // measure 79
0100
0000
1000
0000
0001
0000
0010
0000
0010
0000
0001
0010
0001
0010
1000
0100
,  // measure 80
1000
0100
0001
0010
0001
0010
1000
0100
1000
0100
0001
0010
0001
0010
1000
0100
,  // measure 81
1000
0100
0000
0100
0010
0100
0010
1000
0001
1000
0001
0000
0010
0100
0010
0100
,  // measure 82
1000
0001
1000
0001
1000
0100
1000
0100
0001
0010
0001
0010
0000
0010
1000
0010
,  // measure 83
1000
0100
0001
0100
0001
0000
0010
0100
0010
0100
1000
0100
1000
0100
0000
0001
,  // measure 84
0010
0001
0010
1000
0100
1000
0100
0000
0100
0010
0100
0010
1000
0001
1000
0001
,  // measure 85
0100
0001
0100
0001
0010
1000
0010
1000
0000
0010
1000
0010
1000
0001
0100
0001
,  // measure 86
0100
0000
0000
1000
0100
1000
0100
0000
2002
0000
0000
0000
0000
0000
0000
0000
,  // measure 87
0000
0000
0000
0000
0000
0000
0000
0000
0000
3003
1000
0100
1000
0100
0001
0010
,  // measure 88
0001
0010
1000
0001
1000
0001
0010
1000
0010
1000
0100
0001
0100
0001
1000
0100
,  // measure 89
1000
0100
0001
0100
0001
0100
0010
1000
0010
1000
0100
0010
0100
0010
0001
0010
,  // measure 90
0001
0010
0000
0000
1000
0100
0010
0001
0000
0000
0000
1000
0100
1000
0100
1000
,  // measure 91
0001
0010
0001
0010
0001
0000
0100
0010
0100
0010
0100
0000
1000
0001
1000
0001
,  // measure 92
1000
0000
0000
0010
0001
0010
0001
0010
0000
0001
0010
0100
1000
0000
0000
0000
,  // measure 93
0100
0010
0001
0010
0100
1000
1100
0000
0000
0000
1100
0000
0000
0000
1100
0000
,  // measure 94
0000
1100
0000
1100
0000
0110
0000
0110
,  // measure 95
0000
0110
0000
0110
0000
0110
0000
0011
,  // measure 96
0000
0011
0000
0011
0000
0011
0000
0011
,  // measure 97
0000
0011
0000
0110
0000
1100
0000
0011
,  // measure 98
0000
0110
0000
1100
0000
0011
0000
0110
,  // measure 99
0000
1100
0000
1100
0000
1100
0000
0110
,  // measure 100
0000
0110
0000
0110
0000
0110
0000
0011
,  // measure 101
0000
0110
0000
2200
0000
3300
0000
1000
,  // measure 102
0100
0100
1000
0010
0010
1000
0001
0001
,  // measure 103
1000
0100
0100
1000
0001
0010
0010
0001
,  // measure 104
1000
0100
0100
1000
0010
0100
0100
0010
,  // measure 105
1000
0001
0001
1000
0100
0100
1000
0010
,  // measure 106
0010
1000
0001
0001
0010
0100
0100
1000
,  // measure 107
0010
0100
1000
0010
0100
1000
0010
0100
,  // measure 108
1000
0010
0100
1000
0100
0100
0000
0001
,  // measure 109
0001
0000
0100
0000
0100
0000
0000
2000
3100
1000
0100
0001
0010
0001
0010
1000
,  // measure 110
0100
1000
0001
0010
0010
0001
1000
0100
0100
1000
0010
0100
0100
0010
1000
0001
,  // measure 111
0001
1000
0010
0100
0100
0010
1000
0001
1000
0001
0100
0010
0100
0010
1000
0001
,  // measure 112
1000
0001
0100
0010
0100
0010
1000
0010
1000
0010
0100
0001
0100
0001
1000
0010
,  // measure 113
1000
0000
0000
0010
0000
0000
0100
0000
0000
1000
0000
0000
0100
0000
0000
1000
0000
0000
0010
0000
0000
0001
0000
0000
0010
0000
0000
0001
0000
0000
0000
0000
0000
0000
1000
0000
0100
0000
1000
0000
0100
0000
0001
0000
0010
0000
0001
0000
,  // measure 114
0010
1000
0100
1000
0100
0000
0100
0010
0100
0010
0001
0010
0001
0010
1000
0100
0010
0100
1000
0001
0010
0100
0010
0001
,  // measure 115
1000
0100
0010
0001
0010
0100
1000
0100
0010
0001
0000
0000
0000
1000
0200
0310
0001
0010
0100
0010
0001
0010
0100
2000
,  // measure 116
3100
0010
0100
1000
0000
0000
2000
3200
1300
0001
0010
0001
1000
0200
1300
0001
0010
0001
1000
0100
0010
0001
0010
1000
,  // measure 117
0100
0010
1000
0010
0100
0001
0010
0100
0000
0000
0000
0000
2000
0000
0000
0000
0000
0000
3000
0000
0000
2000
0000
0000
,  // measure 118
0000
3000
0000
0000
0000
0000
0000
0000
,  // measure 119
0000
0000
0000
0000
0002
0000
0000
0003
,  // measure 120
0020
0000
0000
0030
0000
0000
0000
0000
,  // measure 121
0000
0000
2000
0000
,  // measure 122
3000
0000
0000
0200
0000
0000
0000
0300
,  // measure 123
0000
0000
0000
0000
0000
0000
0000
0000
0002
0000
0003
0002
0000
0003
0020
0000
,  // measure 124
0030
0000
0000
0020
0000
0000
0000
0000
0000
0230
0000
0000
0000
0000
0000
0300
0000
0000
0200
0000
0000
0000
0000
0000
0300
0000
0000
0000
1000
0000
0000
0000
0100
0000
0000
0000
1000
0000
0000
0000
0100
0000
0000
0000
1000
0000
0000
0000
,  // measure 125
0000
0100
0000
0010
0000
0100
0000
0010
0000
0100
0000
0000
0000
0000
0000
2000
0000
0000
0000
0000
0000
0000
0000
0000
,  // measure 126
3000
2000
0000
0000
3000
0000
0000
0000
,  // measure 127
0000
0000
0002
0000
,  // measure 128
0003
0002
0000
0000
0000
0003
0000
0000
,  // measure 129
0000
0000
2000
0000
,  // measure 130
3000
0000
2000
0000
,  // measure 131
3000
0000
0002
0003
0002
0003
2000
3000
,  // measure 132
2000
0000
0000
3200
0000
0000
0300
0000
0000
0200
0000
0000
0300
0000
0010
0000
0001
0000
0010
0000
0001
0000
0010
0000
,  // measure 133
1000
0100
1000
0100
1000
0000
0000
0000
1000
0100
0010
0001
,  // measure 134
0010
0100
1000
0100
0010
0100
1000
0100
0010
0001
0010
0010
,  // measure 135
1000
0100
0010
0001
0010
0100
0010
0001
0010
0100
1000
0100
,  // measure 136
0010
0001
0010
0100
0010
0010
0000
1000
0100
1000
0010
0010
,  // measure 137
0000
0000
1000
0000
1000
0000
0000
1000
0100
0010
0001
0010
,  // measure 138
0100
0010
0001
0010
0100
1000
0100
0010
0100
1000
0001
0010
,  // measure 139
0001
0010
1000
0100
1000
0100
0001
0010
0100
1000
0100
0010
,  // measure 140
0001
0010
0100
1000
0100
0010
0000
0010
1000
0001
1000
0001
,  // measure 141
1000
0000
0001
0000
0010
0000
0100
0000
0000
0000
0220
0000
0000
0000
0330
0000
0000
0000
0000
0000
0000
1100
0000
0000
,  // measure 142
0000
1100
0000
1100
0000
1100
0000
1100
,  // measure 143
0000
0000
0110
0000
0000
0000
0110
0000
0000
0000
0220
0330
0000
0000
0110
0000
,  // measure 144
0000
0000
2002
3003
0000
0000
2002
3003
0000
0000
2002
3003
0000
0000
2002
3003
,  // measure 145
0000
1000
0100
0100
1000
0001
0001
0010
,  // measure 146
0010
1000
0001
1000
0100
0100
1000
1000
,  // measure 147
0100
0100
0000
0010
0010
1000
1000
0010
,  // measure 148
0010
0100
0100
0001
0001
1000
1000
0100
,  // measure 149
0100
0010
0010
0100
0010
0100
0000
0010
,  // measure 150
0100
0100
1000
1000
0100
0001
0010
1000
,  // measure 151
0100
1000
0001
0001
1000
1000
0100
0100
,  // measure 152
1000
1000
0100
0100
1000
1000
0200
0000
,  // measure 153
0001
0001
1000
1000
0010
0010
1000
1000
,  // measure 154
0010
0310
0001
0001
1000
1000
0100
0010
,  // measure 155
0100
1000
0001
1000
0010
0010
0100
0100
,  // measure 156
1000
1000
0001
0001
0010
0010
0100
0100
,  // measure 157
1000
1000
0100
0100
0010
0010
0001
0001
,  // measure 158
1000
1000
0100
0100
1000
1000
0100
0100
,  // measure 159
0010
0010
0100
0100
0010
0010
0100
0100
,  // measure 160
0010
0010
1000
1000
0100
0100
0010
0010
,  // measure 161
0100
0000
0100
0000
1000
0100
1000
0100
0001
0010
0001
0010
1000
0010
1000
0010
,  // measure 162
0001
0100
0001
0100
0010
1000
0010
1000
0100
0010
0100
0010
1000
0001
0010
1000
,  // measure 163
0001
0010
1000
0100
0000
1000
0100
0010
0001
1000
0100
0010
0001
1000
0010
1000
,  // measure 164
0010
0001
0100
0001
0100
0000
1000
0001
1000
0001
0010
0100
0210
0300
0110
0000
,  // measure 165
0110
0000
0000
1000
0100
1000
0100
0001
0010
0001
0010
1000
0100
1000
0100
0010
,  // measure 166
0100
0010
1000
0001
1000
0001
0010
0100
0010
0100
0010
1000
0010
1000
0100
0001
,  // measure 167
0100
0001
0010
1000
0010
1000
0100
0001
0100
0001
0010
0100
0010
0100
1000
0100
,  // measure 168
1000
0100
0001
0010
0001
0010
0100
1000
0100
1000
0010
0100
0010
0100
1000
0001
,  // measure 169
1000
0001
0100
0010
0100
0010
1000
0100
1000
0100
0001
0010
0001
0010
1000
0100
,  // measure 170
1000
0100
0001
0010
0001
0010
1000
0100
1000
0100
0010
0001
0010
0001
1000
0100
,  // measure 171
1000
0100
0010
0001
0010
0100
0010
0001
1000
0100
0010
0100
1000
0100
0000
0010
,  // measure 172
0001
0010
0100
0010
0001
1000
0100
1000
0100
1000
0100
1000
0001
0010
0001
0010
,  // measure 173
0001
0010
0001
1000
0100
0010
0001
0010
0100
1000
0100
0010
0001
0010
0100
1000
,  // measure 174
0100
1000
0100
1000
0001
0010
0001
0010
0001
0100
0010
0100
0010
0100
0010
1000
,  // measure 175
0100
1000
0100
1000
0100
0010
0001
0010
0001
0010
0001
0100
1000
0100
1000
0100
,  // measure 176
1000
0010
0001
0010
0001
0010
1000
0100
1000
0100
1000
0010
0100
0010
0100
0010
,  // measure 177
1100
1100
1100
1100
,  // measure 178
1100
0110
0110
0110
,  // measure 179
0110
0110
0011
0011
,  // measure 180
0011
0011
0110
0110
,  // measure 181
0110
0110
1100
1100
,  // measure 182
1100
1100
0011
1100
,  // measure 183
0011
1100
0110
1001
,  // measure 184
0110
1001
1100
0011
,  // measure 185
1100
0110
0011
1100
,  // measure 186
0110
1100
0011
1100
,  // measure 187
0011
0101
1010
0101
,  // measure 188
1010
0110
1001
0110
,  // measure 189
1001
1010
0101
1010
,  // measure 190
1100
0011
1100
0101
,  // measure 191
1010
0000
0000
0000
1001
0000
0000
0000
0100
0010
0100
0010
0100
0010
0100
0010
,  // measure 192
0100
0010
0100
0000
0000
0000
0000
0000
0000
0000
0000
0000
0000
0000
0000
0000
;
