#TITLE:Rainbow Night Sky Highway;
#SUBTITLE:;
#ARTIST:Sakuzyo;
#TITLETRANSLIT:;
#SUBTITLETRANSLIT:;
#ARTISTTRANSLIT:;
#GENRE:;
#CREDIT:;
#BANNER:Rainbow Night Sky Highway-banner.png;
#BACKGROUND:Rainbow Night Sky Highway-bg.png;
#LYRICSPATH:;
#CDTITLE:;
#MUSIC:Cytus-Rainbow Night Sky Highway.mp3;
#OFFSET:0.000000;
#SAMPLESTART:100.000000;
#SAMPLELENGTH:12.000000;
#SELECTABLE:YES;
#BPMS:0.000000=87.000000
,15.166667=150.000000
;
#STOPS:140.000000=0.050000,
140.500000=0.050000,
146.000000=0.050000,
146.500000=0.050000,
148.000000=0.050000,
251.666672=0.010000
;
#BGCHANGES:;
#KEYSOUNDS:;
#ATTACKS:;

//---------------dance-single - ----------------
#NOTES:
     dance-single:
     :
     Challenge:
     20:
     1.000000,1.000000,0.293800,1.000000,1.000000,700.000000,37.000000,263.000000,0.000000,2.000000,0.000000,1.000000,1.000000,0.293800,1.000000,1.000000,700.000000,37.000000,263.000000,0.000000,2.000000,0.000000:
// measure 0
0000
0000
0000
0000
0000
0000
0000
2000
0000
0000
0000
0000
,  // measure 1
3010
0000
0000
0010
0000
0000
0000
0000
0001
0000
0000
0000
0001
0000
0000
0000
0000
0000
0000
0000
0000
0000
0000
0000
0000
0000
0000
1000
0000
0000
0200
0000
0000
0000
0000
0000
0000
0000
0000
0300
0000
0000
0020
0000
0000
0000
0000
0000
,  // measure 2
0031
0001
0000
0000
0000
1000
0002
0000
0013
0000
0000
0000
0000
0000
0000
0000
,  // measure 3
1000
0000
0000
1000
0000
0000
0001
0000
0000
0001
0000
0000
1000
0000
0100
0000
1000
0000
0100
0000
1000
0000
0100
0000
0000
0000
0000
0000
0000
0000
0000
0000
0000
0000
0000
0000
2000
0000
0000
0000
0000
0000
0000
0000
0000
0000
0000
0000
,  // measure 4
0000
0000
0000
0000
0000
0000
0000
0000
3000
0000
0100
0000
0010
0001
0001
0000
,  // measure 5
0010
0200
0000
0300
0000
0000
0000
2000
0000
3200
0320
0031
0010
0100
0000
2000
,  // measure 6
0000
0000
3000
0200
0320
0032
0003
0000
0010
0100
0010
0001
0010
0100
0000
0000
,  // measure 7
1000
0100
0010
0001
0010
0100
0010
0001
1000
0100
0010
0001
0100
0100
1000
0100
,  // measure 8
0010
0100
1000
0100
0010
0010
0010
0010
0010
0000
0000
2000
3200
0310
0001
0010
,  // measure 9
0100
1000
0010
0001
0010
1000
0100
1000
0100
0010
0001
0000
2000
3200
0000
0000
,  // measure 10
0320
0000
0000
0030
0000
0000
0000
0000
0000
0002
0000
0000
0003
0000
0000
0000
1000
0000
0000
0000
1000
0000
0000
0000
1000
0000
0000
0000
1000
0000
0000
0000
1000
0000
0000
0000
0100
0000
0000
0000
0000
0000
0010
0000
0000
0001
0000
0000
,  // measure 11
0010
0100
0010
0001
0010
0100
1000
0000
0100
1000
0100
1000
0000
1000
1000
1000
,  // measure 12
1000
0000
0000
1000
0000
0000
1000
0000
0000
1000
0000
0000
0000
0000
0000
0200
0000
0000
0320
0000
0000
0032
0000
0000
0003
0000
0000
0000
0000
0000
2000
0000
0000
3200
0000
0000
0300
0000
0010
0000
0002
0000
0000
0000
0000
0000
0000
0000
,  // measure 13
0003
0000
0020
0230
2300
3200
0320
0030
0002
0003
0020
0230
0320
0031
1000
0000
,  // measure 14
0100
0010
0001
0010
0100
0010
0001
0010
,  // measure 15
0020
0230
2300
0200
3020
0332
0020
0003
0030
0200
2300
3000
0100
0000
0010
0000
,  // measure 16
0001
0000
0010
0000
0100
0000
1000
0000
0100
0000
0010
0000
0001
0020
0230
0300
,  // measure 17
1000
0000
0000
0000
0000
0000
0000
0010
0000
0100
0000
1000
0100
0001
0010
0000
0001
1000
0010
0100
0002
0003
0000
0000
,  // measure 18
2000
0000
0000
0000
0000
0000
0000
0000
0000
0000
0000
0000
0002
3000
0000
0000
0000
0000
0000
0000
0000
0000
0000
0000
,  // measure 19
0000
0003
0000
0000
0000
0000
1000
0000
0000
0100
0000
0000
1100
0000
0100
0000
0010
0000
0001
0000
0010
0000
0100
0000
,  // measure 20
1000
0000
0100
0000
0010
0000
0100
0000
1000
0000
0000
0000
1000
0000
0000
0100
0000
0000
1100
0000
0100
0000
0010
0000
,  // measure 21
0001
0000
0010
0000
0100
0000
0010
0000
0001
0000
0010
0000
0100
0000
1000
0000
0100
0000
0010
0000
0001
1000
0000
0000
,  // measure 22
0100
0000
0000
1100
0000
0000
0100
0000
0010
0000
0001
0000
0010
0000
0100
0000
1000
0000
0100
0000
0010
0000
0001
0000
,  // measure 23
0010
0000
0100
0000
0010
0000
0001
0000
0010
0000
0100
0000
0010
0000
0001
0010
0000
0000
0001
0000
0000
0011
0000
0000
,  // measure 24
0010
0000
0100
0000
1000
0000
0100
0000
0010
0000
0100
0000
1000
0000
0100
0000
0010
0000
0001
0000
0000
0010
0000
0000
,  // measure 25
0011
0001
0010
0100
1000
0100
0010
0001
0010
0001
0010
0001
,  // measure 26
0010
0000
0100
0000
0010
0000
0100
0000
0010
1000
0000
0000
0100
0000
0000
1100
0000
0000
0010
0000
0000
0100
0000
0000
,  // measure 27
0110
0000
0001
0000
0010
0000
0011
0000
0000
1000
0100
0010
0001
0000
1000
0100
,  // measure 28
0010
0001
0010
0100
0010
0001
0000
1000
0100
0010
0000
0000
0001
0010
0100
1000
,  // measure 29
0100
0010
0000
0001
0010
0100
0000
1000
0100
0010
0000
0001
0010
0100
1000
0000
,  // measure 30
0100
0010
0001
0010
0100
0000
1000
0100
0010
0001
0000
1000
0100
0010
0001
0000
,  // measure 31
0010
0100
1000
0000
0000
0000
0000
0000
0000
0000
0000
0002
0000
0000
2003
0000
,  // measure 32
0000
0000
0000
3000
0000
0000
0000
0000
0000
0000
0000
0000
0000
0000
0000
0000
,  // measure 33
1001
0000
0000
0000
0110
0000
0000
0000
1001
0000
0000
0000
1000
0100
0010
0001
,  // measure 34
0010
0000
1001
0110
,  // measure 35
1001
0000
0000
1001
0000
0000
1000
0001
1000
0001
1000
0001
1000
0001
0000
0000
0000
0000
0000
0000
0000
0000
0000
0000
,  // measure 36
1001
0110
1001
0110
1001
1001
0000
0000
,  // measure 37
0110
0000
0100
0000
0010
0000
0100
0000
0010
0000
0000
0000
2000
0000
0000
3200
0000
0000
0320
0000
0000
0032
0000
0000
0023
0000
0000
0000
0000
0000
0230
0000
0000
0300
0000
0000
0000
0000
0000
2000
0000
0000
3000
0000
0000
0000
0000
0000
,  // measure 38
0000
0000
0000
0000
,  // measure 39
0000
0000
0000
0000
2000
3200
0320
0032
0023
0230
2300
3200
0320
0032
0013
0200
,  // measure 40
2300
3200
2300
3200
2300
3200
0300
0200
0320
0230
0320
0230
0320
0032
0023
0032
,  // measure 41
0023
0230
0320
0032
0203
2300
3200
0320
0002
0003
0000
0002
0003
0000
0000
0030
,  // measure 42
0000
0000
2000
3200
0320
0032
0023
0030
0200
2300
3200
0320
0230
2300
3200
0320
,  // measure 43
0032
0000
0000
0003
0000
0000
0020
0000
0000
0030
0000
0000
0002
0000
0023
0000
0230
0000
2300
0000
0000
3200
0000
0000
2300
0000
0000
3000
0000
0000
0020
0000
0000
0230
0000
0000
0320
0000
0000
0230
0000
0000
0320
0000
0000
0030
0000
0000
,  // measure 44
2000
0000
0000
3200
0000
0000
0320
0000
0000
0230
0000
0000
2300
0000
0000
3200
0000
0000
0320
0000
0000
0032
0000
0000
0023
0000
0000
0230
0000
0000
0300
0000
0000
0000
2000
0000
3200
0000
2300
0000
3200
0000
2300
0000
3200
0000
2300
0000
,  // measure 45
3200
0000
2300
0000
3200
0000
0300
0000
0000
0200
0000
0000
0300
0000
0000
0200
0000
0000
0320
0000
0000
0030
0000
0000
0020
0000
0000
0030
0000
0000
2000
0000
0000
0000
0000
0000
3200
0000
0000
0320
0000
0000
0032
0000
0000
0023
0000
0000
,  // measure 46
0230
0320
0032
0013
0200
2000
3300
0020
0030
0002
0003
0200
0320
2030
3000
0000
,  // measure 47
2000
3200
0320
0032
0023
0032
0013
2000
3200
0302
0023
2030
3200
0320
0031
0020
,  // measure 48
0230
0320
0032
0003
0002
0003
0002
0003
0002
0023
0230
2300
3200
0320
0032
0023
,  // measure 49
0230
2300
3200
0320
0032
0023
0230
2300
3200
0320
0230
2300
3200
2300
3200
0320
,  // measure 50
0032
0003
2000
3200
2300
3200
2300
3200
0320
0230
0320
0032
0023
0230
2300
3200
,  // measure 51
0320
0000
0000
0032
0000
0000
0003
0000
0000
0000
0002
0000
0023
0000
0032
0000
0023
0000
0032
0000
0023
0000
0032
0000
0003
0000
0000
0020
0000
0000
0230
0000
0000
2300
0000
0000
3200
0000
0000
0320
0000
0000
0230
0000
0000
0300
0000
0000
,  // measure 52
2000
0000
0000
3200
0000
0000
2300
0000
0000
3200
0000
0000
2300
0000
0000
3200
0000
0000
0320
0000
0000
0230
0000
0000
0320
0000
0000
0032
0000
0000
0003
0000
0000
0000
0000
0000
1000
0000
0000
0000
0100
0000
0000
0000
1100
0000
0000
0000
,  // measure 53
0001
0000
0010
0000
0011
0000
0000
0000
1000
0000
0100
0000
1100
0000
0001
0000
0010
0000
0011
0000
0000
1000
0000
0000
,  // measure 54
0100
0000
0000
1100
0000
0000
0100
0000
0010
0000
0001
0000
0010
0000
0100
0000
1000
0000
0100
0000
0010
0000
0000
0000
,  // measure 55
1000
0000
0000
1100
0000
0000
0100
0000
0010
0000
0001
0000
0010
0000
0100
0000
1000
0000
0100
0000
0010
0000
0001
0000
,  // measure 56
0100
0000
1000
0100
0010
0001
0010
0100
1000
0000
0100
0010
0001
0100
1000
0100
,  // measure 57
0000
0000
0001
0010
0001
1000
0100
1000
0000
0000
0000
0002
0020
0033
0002
0003
,  // measure 58
2000
0000
0000
3200
0000
0000
2300
0000
0000
3002
0000
0000
0003
0000
0000
0200
0000
0000
0300
0000
0000
0000
0000
0000
2000
0000
0000
0000
3200
0000
0000
0000
0320
0000
0000
0000
0030
0000
0000
0000
0001
0000
0000
0000
0010
0000
0000
0000
,  // measure 59
0001
0010
0000
0100
1000
0100
0001
0010
0001
0000
0000
0000
,  // measure 60
1000
0100
0010
0001
1000
0100
0010
0001
1000
0100
0010
0000
,  // measure 61
0001
0010
0100
0000
1000
0100
0000
0001
0010
0000
1000
0100
,  // measure 62
0010
0001
0000
1000
0100
0010
0001
0000
1100
0011
0000
1001
,  // measure 63
1000
0001
1000
0001
0000
0000
0000
0000
0000
0000
0000
0000
0110
0000
0000
0000
0000
0000
1001
0000
0000
0000
0000
0000
,  // measure 64
0110
0000
0000
0000
0000
0000
1000
0000
0000
0001
0000
0000
1000
0000
0000
0001
0000
0000
1000
0000
0000
0001
1000
0000
,  // measure 65
0001
0000
0000
0000
1000
0000
0000
0000
0001
0000
0000
0000
1000
0000
0000
0000
0001
0000
0000
0000
1000
0000
0000
0000
0001
0000
0000
0000
0000
0000
1000
0000
0000
0001
0000
0000
1000
0000
0000
0001
0000
0000
1000
0000
0000
0001
0000
0000
,  // measure 66
1000
0000
0000
0001
0000
0000
0000
0000
1000
0000
0001
0000
1000
0000
0001
0000
1000
0000
0001
0000
1000
0000
0001
0000
1000
0000
0001
0000
1000
0000
0001
0000
0110
0000
0000
0000
1001
0000
0000
0000
0110
0000
0000
0000
0000
0000
0000
0000
,  // measure 67
0000
0000
0000
0000
2000
0000
0000
0000
3200
0000
0000
0000
0000
0320
0000
0000
0000
0000
0000
0000
0032
0000
0000
0000
,  // measure 68
0000
0000
0000
0023
0000
0000
0000
0000
0000
0000
0000
0230
0000
0000
0000
0000
0000
0000
0000
2000
0300
0000
0000
0000
,  // measure 69
0000
0000
3200
0000
0000
0000
0000
0000
0000
0320
0000
0000
0000
0000
0000
0000
0032
0000
0000
0000
0000
0000
0000
0023
,  // measure 70
0000
0030
0000
0000
0000
0000
0000
0000
;
