#TITLE:RUGGED ASH;
#SUBTITLE:;
#ARTIST:CHALLENGE EDIT;
#TITLETRANSLIT:;
#SUBTITLETRANSLIT:;
#ARTISTTRANSLIT:;
#CREDIT:;
#BANNER:RUGGED ASH.png;
#BACKGROUND:RUGGED ASH-bg.png;
#LYRICSPATH:;
#CDTITLE:xk_w.png;
#MUSIC:RUGGED ASH.ogg;
#OFFSET:-0.039;
#SAMPLESTART:41.320;
#SAMPLELENGTH:19.420;
#SELECTABLE:YES;
#DISPLAYBPM:168.000;
#BPMS:0.000=168.040;
#STOPS:;
#BGCHANGES:;

//---------------dance-single - Copied from MANIAC----------------
#NOTES:
     dance-single:
     Copied from MANIAC:
     Challenge:
     14:
     0.785,0.921,0.835,0.261,0.313: // measure 1
0000
0000
0000
0000
,  // measure 2
0000
0000
0000
0000
,  // measure 3
0000
0000
0000
0000
,  // measure 4
0000
0000
0000
0000
,  // measure 5
0000
0000
0020
0000
0000
2030
0000
0000
,  // measure 6
3000
0000
0200
0002
0000
0303
0000
0000
,  // measure 7
0000
0000
0002
0000
0000
0203
0000
0000
,  // measure 8
0300
0000
0020
2000
0000
3030
0000
0000
,  // measure 9
0010
0000
0000
0000
0100
0000
0000
0001
0000
1000
0010
0000
0100
0000
0000
0000
,  // measure 10
0001
0000
0000
0000
1000
0000
0000
0010
0000
0100
0001
0000
1000
0000
0000
0000
,  // measure 11
0100
0000
0000
0000
0001
0000
0000
0100
0000
0010
1000
0000
0001
0000
0000
0000
,  // measure 12
1000
0000
0000
0000
0010
0000
0000
0001
0000
1000
0010
0000
0100
0000
0000
0000
,  // measure 13
0001
0101
0000
1000
1010
0000
0100
0101
,  // measure 14
0000
0010
1010
0000
0100
0101
1000
0010
,  // measure 15
0100
0101
0000
0010
0110
0000
1000
1100
,  // measure 16
0000
0001
0011
0000
0100
1001
0100
0010
,  // measure 17
1001
0100
0001
1100
0010
0001
1000
0010
,  // measure 18
0110
0001
1000
0101
1000
0010
1001
0010
,  // measure 19
1001
1000
0010
0101
0010
1000
2100
0000
,  // measure 20
0000
0000
3002
0000
0200
0000
0000
0303
,  // measure 21
1010
0100
0001
1001
0010
1000
0001
0010
,  // measure 22
1100
0010
0001
1010
0100
0010
1001
0100
,  // measure 23
0011
0100
1000
1010
0001
0010
1001
0000
,  // measure 24
1000
0000
0002
0000
2000
0003
0000
3010
,  // measure 25
0000
1000
0100
0001
0000
0000
0000
0000
,  // measure 26
1001
0000
0001
0010
0100
0000
0010
0000
0010
0100
1000
0000
0001
0000
0010
0100
,  // measure 27
1000
0000
0100
0000
0001
0010
1000
0000
0010
0000
0001
0100
0010
0000
1000
0010
,  // measure 28
0100
0000
0001
1000
0010
0000
0100
0000
0010
1000
0100
0000
0010
0000
0001
0100
,  // measure 29
0010
0000
0100
0000
1000
0100
0001
0000
0010
0000
1000
0010
0001
0000
1000
0000
,  // measure 30
1100
1001
0100
0011
1001
0100
1100
1001
,  // measure 31
0100
0011
1001
0100
1100
1001
0100
0010
,  // measure 32
0101
0101
0010
1010
1010
0100
0101
0101
,  // measure 33
0010
1010
1010
0100
0001
0101
0010
1000
,  // measure 34
1001
0001
1000
0110
0100
0001
0010
0001
,  // measure 35
0011
0010
0100
1100
0010
0001
1010
0100
,  // measure 36
0101
1000
0001
1010
0100
0010
1001
0000
,  // measure 37
0001
2000
0002
3003
,  // measure 38
1010
0001
0100
1001
0100
0010
0100
1000
,  // measure 39
0101
0010
0100
1001
0010
0100
1010
0100
,  // measure 40
0101
0010
0100
0110
1000
0010
0101
0000
,  // measure 41
1000
0000
0002
0000
2000
3003
1001
0100
,  // measure 42
0000
0000
1000
0010
0001
0000
0200
0000
0000
0000
0000
0000
0300
0000
0000
0000
,  // measure 43
0010
0000
0100
0000
1000
0000
0001
0100
0001
0100
0001
0000
0100
0000
0010
0100
,  // measure 44
1000
0000
0010
0000
0100
0000
0010
1000
0010
1000
0010
0000
1000
0000
0100
0010
,  // measure 45
0001
0000
0100
0000
0010
0000
0100
1000
0100
1000
0100
0000
1000
0000
0010
0100
,  // measure 46
0001
0000
0100
0000
0001
0000
1000
0010
1000
0010
1000
0000
0010
0000
0100
0000
,  // measure 47
0001
0100
1000
0000
0010
0000
1000
0001
1000
0001
1000
0000
0001
0000
0010
0100
,  // measure 48
1000
0000
0001
0000
0010
0000
0100
0010
0100
0010
0100
0000
0010
0000
0001
0100
,  // measure 49
1000
0000
0100
0001
0010
0000
0100
0000
1000
0010
0001
0000
0001
0000
0001
0010
,  // measure 50
1000
0000
0010
0100
0001
1000
0010
0100
0010
1000
0001
0010
0100
1000
0001
0100
,  // measure 51
2002
0000
0000
0000
0000
0000
0000
3003
0000
0000
0000
0000
0000
0000
0000
0000
;
