#TITLE:Rocket Love;
#SUBTITLE:;
#ARTIST:Mikki Masashi;
#TITLETRANSLIT:;
#SUBTITLETRANSLIT:;
#ARTISTTRANSLIT:;
#CREDIT:;
#BANNER:Rocket Love.png;
#BACKGROUND:Rocket Love-bg.png;
#LYRICSPATH:;
#CDTITLE:cdtitle.png;
#MUSIC:Rocket Love.mp3;
#OFFSET:-2.260;
#SAMPLESTART:44.470;
#SAMPLELENGTH:16.180;
#SELECTABLE:YES;
#BPMS:0.000=133.100;
#STOPS:;
#BGCHANGES:25.188=chain1.avi=1.000=1=0=1,
33.188=circle11.avi=1.000=0=0=1,
36.000=cyber1.avi=1.000=0=0=1,
50.000=heat1b.avi=1.000=0=0=1,
52.563=kaliedoscope8.avi=1.000=0=0=1,
54.000=circle1b.avi=1.000=0=0=1,
64.750=pentagon1.avi=1.000=0=0=1,
71.375=ring3r.avi=1.000=0=0=1,
75.000=smoke1r.avi=1.000=0=0=1,
79.313=spikes1.avi=1.000=0=0=1,
84.875=circle1c.avi=1.000=0=0=1,
91.438=night1.avi=1.000=0=0=1,
94.000=boy3.avi=1.000=0=0=1,
100.063=arrows2.avi=1.000=0=0=1,
101.000=circle1d.avi=1.000=0=0=1,
102.000=arrows2.avi=1.000=0=0=1,
103.000=circle1d.avi=1.000=0=0=1,
112.000=hexagon1.avi=1.000=0=0=1,
115.583=rotation1.avi=1.000=0=0=1,
116.938=boy3.avi=1.000=0=0=1,
133.125=heat1a.avi=1.000=0=0=1,
135.688=scissors1r.avi=1.000=0=0=1,
143.875=ring8.avi=1.000=0=0=1,
152.875=ring12a.avi=1.000=0=0=1,
154.000=heat1a.avi=1.000=0=0=1,
157.000=heat1.avi=1.000=0=0=1,
159.000=kaliedoscope7.avi=1.000=0=0=1,
161.000=rainbow1.avi=1.000=0=0=1,
163.000=pentagon1r.avi=1.000=0=0=1,
165.000=cube12b.avi=1.000=0=0=1,
167.000=circlesh.avi=1.000=0=0=1,
169.000=cross2-60fps.avi=1.000=0=0=1,
171.000=ring5.avi=1.000=0=0=1,
172.000=ring3.avi=1.000=0=0=1,
173.000=rainbow2.avi=1.000=0=0=1,
174.000=smoke1r.avi=1.000=0=0=1,
175.000=spikes1.avi=1.000=0=0=1,
176.000=star9.avi=1.000=0=0=1,
185.000=smoke1.avi=1.000=0=0=1,
189.000=square5dr.avi=1.000=0=0=1,
190.625=rainbow1.avi=1.000=0=0=1,
192.125=Rocket Love-bg.png=1.000=0=0=1,
99999=-nosongbg-=1.000=0=0=0 // don't automatically add -songbackground-
;

//---------------dance-single - ----------------
#NOTES:
     dance-single:
     :
     Beginner:
     3:
     0.295,0.436,0.272,0.503,0.000:
0000
0000
0000
0000
,
1000
0100
0010
0001
,
2000
0000
0000
0000
,
3020
0000
0000
0000
,
0230
0000
0000
0000
,
0302
0000
0000
0000
,
0023
0000
0000
0000
,
0230
0000
0000
0000
,
2300
0000
0000
0000
,
3100
0010
0001
0010
,
0100
1000
0010
0110
,
0000
0110
0000
0110
,
1001
1001
0000
1001
,
1001
0000
0110
0110
,
1001
1001
0000
1001
,
1001
0000
0000
0000
,
0110
0110
0000
0110
,
0110
0000
0000
0000
,
1001
0110
0000
0000
,
2002
0000
0000
3003
,
0020
0030
0200
0300
,
0002
0003
0020
0230
,
0300
1000
0110
0001
,
0010
0120
0000
0030
,
0120
0030
0210
0300
,
0002
0023
0230
2300
,
3000
0001
0000
0001
,
0000
0001
0000
0110
,
1000
1000
0100
0010
,
0001
1000
0100
0020
,
0000
0001
0000
0001
,
0000
0001
0000
0031
,
2000
3010
0000
0000
,
0100
0010
0001
0010
,
0200
0310
0000
0000
,
1000
0001
0010
0100
,
0002
0003
2000
3000
,
0020
0030
0200
0300
,
0002
0003
0020
0030
,
0200
2300
3200
0320
,
0032
0023
0230
2300
,
3200
2300
3020
0032
,
0023
0230
2300
3100
,
2002
0000
0000
0000
,
3003
0100
0010
0100
,
0010
0100
0010
0100
,
0020
0100
0000
0030
,
0100
0100
0100
0010
,
0001
1000
0001
1000
,
0001
0000
0000
0000
;

//---------------dance-single - ----------------
#NOTES:
     dance-single:
     :
     Easy:
     4:
     0.380,0.436,0.545,0.388,0.052:
0000
0000
0000
0000
,
0110
0011
0110
0000
,
0002
0010
0010
0013
,
2000
0000
0000
0000
0100
0000
0000
0000
0100
0000
0000
0000
3100
0000
0000
0100
,
0010
0000
0000
0000
0001
0000
0000
0000
0010
0000
0000
0000
0100
0000
0000
0100
,
1000
0000
0000
1000
0100
0000
0000
0000
0010
0000
0000
0000
0001
0000
0000
0000
,
0010
0100
1000
0100
,
1100
0110
0011
0110
,
1100
0000
0000
0000
0020
0000
0000
0000
0130
0000
0000
0000
1100
0000
0000
1000
,
0001
0000
0010
0010
0100
0000
1100
0000
,
0012
0000
0010
0010
,
0010
0010
0010
0013
,
0200
1300
0020
0031
,
0020
0031
0002
0013
,
0002
0013
1200
0300
,
0200
2000
0000
3300
,
0220
0000
0300
0030
,
1001
1001
1001
1001
,
0220
0300
0000
0030
,
0110
0011
1100
0110
,
2200
3300
0022
0033
,
0202
0303
2020
3030
,
1000
1000
1001
1000
,
1000
1000
1000
1000
,
0020
0130
0100
0100
,
0001
0000
0000
0010
0001
0000
0000
0000
0001
0000
0000
0000
0001
0000
0000
0000
,
2000
3010
0200
0301
,
0200
0310
0020
0130
,
0010
0000
0000
0000
0110
0000
0000
0000
0000
0000
0000
0000
0000
0000
0000
1000
,
0010
0110
0000
0000
,
0100
0110
0110
0110
,
1000
0000
0000
0000
0100
0000
0000
0000
0010
0000
0000
0000
0000
0000
0000
1000
,
0100
0010
0100
0010
,
0100
1002
0013
1000
,
2001
0020
0000
3030
,
0200
0302
0020
0000
,
0003
0030
0230
0301
,
0010
1001
0010
0100
,
0010
0001
0001
0000
,
0000
0000
0000
1000
0001
0000
0000
0000
0000
0000
0000
0000
1001
0000
0000
0000
,
0000
0110
0000
0011
,
0000
1100
0000
0110
,
0000
0011
0000
0011
,
1001
0000
0000
0000
1010
0000
0000
0000
0110
0000
0000
0100
0001
0000
0000
0000
,
0002
0000
1000
0000
,
1000
1000
1000
1003
,
0000
1000
0000
0000
,
1000
0000
0000
0000
0100
0000
0000
0100
0010
0000
0000
0000
0011
0000
0000
0000
,
0110
1010
0110
0011
,
0110
0000
0000
0000
;

//---------------dance-single - ----------------
#NOTES:
     dance-single:
     :
     Medium:
     7:
     0.376,0.410,0.325,0.262,0.026:
0000
0000
0000
0000
,
1000
0000
0100
1000
0100
0000
1000
0000
0000
0000
0000
0000
0001
0000
0010
0001
0010
0000
0001
0000
0000
0000
0000
0000
,
0020
0000
0100
0000
0100
0000
0100
0030
,
0200
0010
0010
0310
,
1000
0001
1000
0001
,
1000
0000
0001
0000
1000
0000
1001
0001
,
0001
0020
0130
1000
,
1000
0000
1001
0000
0001
0000
1000
1000
,
0020
0130
0100
0100
,
0100
0000
0100
0000
0200
0000
0310
0001
,
1000
0000
0010
0000
0001
0000
1000
0020
,
0000
0000
0000
0000
0000
0000
0000
0030
,
0000
1000
0000
0000
0000
0000
1000
0000
,
1000
0000
1000
0000
1000
0000
1000
1000
,
1000
0001
0000
0001
0000
0001
0000
0001
,
0001
0020
0130
0000
,
0010
2002
0000
0000
0000
0000
3003
0000
,
0000
1100
0110
0000
0011
0110
0000
1100
,
0020
0000
0200
0000
0000
0000
0000
0330
,
0000
1100
0110
0000
0011
0110
1000
0000
,
0020
0000
0130
0000
0000
0001
0001
0000
,
0001
0001
0001
2000
,
0000
0000
3010
0000
0000
0001
1010
0001
,
0020
0030
0000
0000
,
0001
1010
0001
0000
0000
0001
0010
0000
,
0000
0001
1010
0001
0000
0000
0000
0000
,
0001
1010
0001
0000
0001
1010
0001
0000
,
0001
1010
1100
0000
0010
0000
0000
0000
,
0000
1000
0101
0010
0000
0000
0000
0000
,
0000
1000
0101
0010
0000
0000
0000
0000
,
1000
0101
1000
0000
1000
0101
1000
0000
,
1000
0101
1000
0100
0000
0000
0000
0000
,
0020
0200
0000
0000
0000
0330
0000
0000
,
1000
1000
0001
0010
0100
1000
0001
0000
,
0010
2002
0000
3003
,
0110
1100
0110
0011
,
1010
0100
0010
0100
,
0010
0000
0100
0100
0000
1001
0010
0100
,
0002
0000
0000
0013
0000
1000
1000
1000
,
0200
0000
0020
0300
0002
0000
0030
0000
,
1003
0010
0100
0100
,
0001
0000
0001
0000
0010
0010
0010
0010
,
0200
0000
0310
0000
0010
0000
0000
0001
,
1000
0010
0100
0001
,
2000
0000
0000
0000
,
0010
0000
0000
0000
0010
0010
3000
0000
,
0002
0000
0000
0000
,
1000
0000
0000
0000
0000
0000
1000
0000
0000
1000
0000
0000
0000
0000
0000
1000
0000
0000
1000
0000
0000
0003
0000
1000
,
0000
0010
0100
0010
0100
0010
0100
0010
;

//---------------dance-single - ----------------
#NOTES:
     dance-single:
     :
     Hard:
     8:
     0.380,0.411,0.126,0.314,0.681: // measure 1
0000
0000
0000
0000
,  // measure 2
2000
0000
0000
0000
0000
0000
0000
0000
0000
0000
0000
3000
0000
0020
0000
0000
0000
0000
0000
0000
0000
0000
0000
0000
0000
0000
0002
0030
0000
0000
0000
0000
0000
0000
0000
0000
0000
0200
0003
0000
0000
0000
0000
0000
0000
0000
0000
0000
0000
1000
0300
0000
0000
0000
0000
0000
0000
0000
0000
0000
0000
0000
0000
0000
,  // measure 3
1000
0000
0000
0000
1000
0000
0000
0001
0000
0010
0000
0000
0100
1000
0001
0000
,  // measure 4
0000
0010
0000
0000
0000
0100
0000
0000
0000
0010
0000
0000
0000
0000
0000
0000
,  // measure 5
0000
0100
0000
0001
0000
0010
0000
0000
0100
0000
0000
0001
0000
0010
0000
0000
,  // measure 6
0000
0001
0000
0000
0020
0000
0000
0000
0100
0000
0000
0000
0100
0000
0000
0000
,  // measure 7
0100
0100
0100
0100
,  // measure 8
0100
0000
0000
0000
0100
0000
0000
0000
0100
0000
0000
0000
0100
0030
0000
0000
,  // measure 9
0000
0100
0000
1100
0000
0000
0000
0000
0010
0000
0000
0110
0000
0000
0000
0000
,  // measure 10
0000
0000
0001
0000
0010
0000
0000
0000
0100
0000
0000
1000
0000
0100
0000
0000
,  // measure 11
0000
0010
0000
0000
0001
0000
0000
0000
0000
0010
0000
0000
0000
0100
0000
0000
,  // measure 12
0000
1000
0000
0000
1000
0100
0000
0000
0000
0010
0000
0010
0001
0000
0000
0000
,  // measure 13
0020
0000
0000
0100
0100
0000
0000
0000
0000
0000
0000
0000
0100
0100
0000
0000
,  // measure 14
0000
0000
0030
1000
0000
0001
0000
0010
0000
0100
0000
0000
0000
0000
0000
0000
,  // measure 15
0000
1000
1000
0000
1000
0000
0000
0000
0010
0000
0010
0000
0010
0000
0000
0000
,  // measure 16
0000
0010
0000
0000
0010
0000
0000
0000
0010
0000
0000
0000
0000
0000
0000
0000
,  // measure 17
1000
0001
0000
0020
0000
0000
0000
0000
0000
0000
0000
0000
0000
0000
0030
0000
,  // measure 18
0000
0000
1100
0000
0110
0000
0000
0000
0000
0011
0000
0110
0000
0000
0000
0000
,  // measure 19
2000
0000
0000
0020
0000
0000
0000
0000
0000
0000
0000
3000
0000
0000
0000
0000
,  // measure 20
0000
0200
0000
0000
0000
0030
0000
0000
0002
0000
0000
0000
0000
0000
0303
0000
,  // measure 21
0000
2000
0000
0000
0000
0010
0000
3000
0000
0000
0000
0001
1000
0001
0000
1000
,  // measure 22
0001
0000
0000
0000
0000
0020
0000
0000
0000
0000
0100
0000
0000
0100
0000
0000
,  // measure 23
0100
0000
0030
0000
0000
0000
0000
0000
0000
0000
0010
0100
0010
0000
0000
0100
,  // measure 24
0010
0000
0000
0000
0000
0020
0000
0000
0000
0001
0000
0000
0001
0000
0000
0000
,  // measure 25
0000
0031
0000
0000
0000
0000
0000
0000
0000
0010
0000
1000
0001
0000
1000
0000
,  // measure 26
0000
0000
0010
0000
0100
0000
0000
0001
0000
0022
0000
0033
1100
0000
0000
1010
,  // measure 27
0000
0220
0000
0000
0000
0301
0030
0000
0002
0000
0000
0000
0000
0013
0000
0000
,  // measure 28
0200
0000
0000
0000
0000
0000
0000
0000
0000
0000
0000
0300
0000
0000
0000
0000
,  // measure 29
0000
1000
0000
0000
0000
1000
0000
0000
0000
0001
0000
0000
0010
0100
0010
0000
,  // measure 30
0000
0000
0000
0001
0000
1000
0000
0010
0000
0100
0000
0000
0010
0100
0010
0000
,  // measure 31
0000
0002
0000
0000
0000
0013
0000
0000
0000
0100
0000
0000
0000
0200
0000
0000
,  // measure 32
1000
0000
0000
0000
0000
0300
0000
0000
0000
0000
0000
0000
0000
0000
0000
0000
,  // measure 33
1000
0100
0000
0020
0000
0000
0000
0000
0000
0000
0000
0000
0000
0000
0000
0030
,  // measure 34
0000
0000
0001
0000
0000
1000
0000
0000
0000
0010
0000
0000
0100
0000
0000
0000
,  // measure 35
0000
0010
0010
0220
0000
0000
0000
0000
0000
0000
0000
0000
0000
0000
0330
0000
,  // measure 36
0000
0001
0000
1000
0000
0010
0000
0100
0000
0001
0000
1000
0000
0010
0000
0000
,  // measure 37
0000
0002
0000
0000
0000
1003
0000
0000
0000
2000
0000
0000
0000
3001
0000
0000
,  // measure 38
0000
0020
0000
0000
0000
0000
0000
0000
0000
0100
0000
0000
0000
0100
0030
0000
,  // measure 39
0000
0200
0000
0000
0000
0000
0000
0000
0010
0000
0000
0000
0010
0000
0000
0300
,  // measure 40
0000
0000
0000
0000
0000
0001
0000
0000
0000
0001
0000
0000
0000
0000
0000
0000
,  // measure 41
0000
1000
0000
1000
0000
1000
0000
0000
0000
0010
0000
0010
0000
0010
0000
0000
,  // measure 42
0000
0001
0000
0001
0000
0000
0000
0001
0000
0000
0000
0000
0000
0000
0000
0000
,  // measure 43
0000
1000
0000
1000
0000
1000
0000
0000
0000
1000
1000
0000
1000
0000
0000
0000
,  // measure 44
0000
0010
0010
0010
0000
0000
0000
0000
0000
0000
0000
0000
0000
0000
0000
0000
,  // measure 45
0000
1000
0000
1000
0000
1000
0000
1000
0000
1000
0000
0000
1000
0000
1000
1000
,  // measure 46
0000
1000
0000
1000
0000
1000
0000
0000
1000
0001
0000
0000
0000
0010
0000
0000
,  // measure 47
0000
0100
0000
0000
1000
0000
0000
0000
0000
0010
0000
0000
0000
0000
0000
0000
,  // measure 48
0000
0001
0000
0001
1000
0000
1000
0000
0001
0000
1000
0000
0020
0000
0000
0000
,  // measure 49
0000
0100
0000
0000
0000
0100
0000
0000
0100
0030
1000
0000
0100
0000
0010
0000
,  // measure 50
1001
0000
0000
0000
;

//---------------dance-single - Copied from----------------
#NOTES:
     dance-single:
     Copied from:
     Challenge:
     11:
     0.539,0.640,0.251,0.566,0.786:
0000
0000
0000
0000
,
1000
0100
0010
0001
0010
0100
1000
0100
0010
0001
0000
0000
0001
0010
0100
0000
,
1000
0000
0000
0010
0000
0100
0000
0000
0001
0000
1000
0000
0000
0001
1000
0010
,
0000
0000
0100
0000
0000
1000
0000
0001
0000
0000
0010
0000
0000
0000
0100
0000
,
0000
1000
0000
0001
0010
0000
0000
0000
0100
0000
1000
0000
0000
0100
1000
0000
,
0000
1000
0000
0100
0010
0001
0010
0000
0100
1000
0100
0010
0000
0001
0010
0000
,
0100
0000
0000
1000
0020
0000
0000
0200
0030
0000
0301
0000
1000
0000
0020
0000
,
0000
0130
0000
0001
1000
0000
0000
0010
0000
0000
0000
0000
0000
0000
0000
0000
,
1100
0000
0110
0000
0011
0000
0110
0000
0000
1100
0000
0110
0000
0110
0000
0010
,
0000
0011
0010
0000
0000
0100
0010
0000
0020
0000
0000
2000
0000
0030
0002
0000
,
3000
0000
0000
0000
0020
0000
0000
0030
0003
0000
1000
0000
0010
0000
0100
0002
,
0000
0000
0000
0000
2003
0000
0000
0000
0020
3000
0000
0000
0130
0000
0000
0000
,
0000
0000
1010
0000
1200
0000
0000
0000
0020
0000
0000
0000
0030
0300
0000
0000
,
0020
0000
0000
0000
0200
0030
0000
0000
2000
0300
0000
0000
0000
3000
0000
0000
,
2020
3000
0002
0003
,
2000
0000
0000
0000
0000
3000
0030
0000
0000
0000
0000
0000
0000
0000
0000
0000
,
0010
0000
0100
0012
0000
0000
0000
0000
0000
0000
0000
0000
0000
0003
0000
0000
,
1000
0000
0001
0010
1000
0000
0100
1000
0001
0010
0000
0100
1000
0000
0001
0010
,
0000
0100
1000
0000
0001
0010
0000
0100
1000
0001
0000
0010
0100
0000
1000
0000
,
0020
0000
0000
0200
0030
0000
0301
0000
1000
0000
0010
0000
0001
0010
0000
0000
,
0000
0200
0000
0000
0000
1300
0000
0000
0000
1000
0000
0000
0000
0001
0000
0000
,
0000
1000
0000
0000
0000
0010
0000
0000
0100
0000
0000
1000
0001
1000
0000
0001
,
0000
0010
0000
0100
0000
0010
0000
0000
0100
0000
0010
0010
0100
0000
0010
0001
,
0000
1000
0000
0020
0000
0000
0000
0100
0030
0000
0001
0000
0000
1000
0000
0000
,
0000
0020
0000
0000
0230
0000
0000
0000
0302
0000
0000
1003
0000
1001
0000
0020
,
0000
0000
0130
0000
0001
0000
1000
0000
0020
0000
0000
0000
0031
0000
0000
1000
,
0000
0002
0000
0000
0000
0200
0003
0000
0000
0320
0000
0000
0000
0130
0010
0000
,
0200
0000
0000
0000
0020
0300
0000
0000
0032
0000
0000
0000
2003
0000
0000
0000
,
3000
0010
0000
0100
0010
0000
0000
0100
0010
0000
0000
0001
1000
0000
0001
1000
,
0000
0000
0010
0000
0000
0100
0000
0001
0020
0000
0000
0000
0130
0000
0000
0001
,
2000
0000
0000
0000
0000
3020
0000
0000
0000
0130
0001
0000
0000
0010
0000
0100
,
2000
0000
0000
0000
0000
0000
0000
0000
0000
3000
0010
0000
0100
0000
0000
0000
,
1001
1001
0000
0220
0000
0000
0000
0000
0000
0000
0330
0000
0000
0000
0000
0000
,
1001
0000
0000
1001
0000
0000
1001
0000
0000
1001
0000
0000
1001
0000
0000
1001
,
0000
0110
0000
0000
1002
0000
0000
0000
0000
0000
0003
0000
0000
0000
0000
0000
,
0000
1000
0000
0000
1000
1000
0000
0000
0000
0100
0000
0000
0100
0100
0000
0000
,
0000
0010
0000
0000
0010
0010
0000
0000
0000
0001
0000
0000
0001
0001
0000
0000
,
0000
1000
0000
0000
0000
1000
0000
1000
0000
0000
0000
0010
0000
0000
0000
0010
,
0000
0010
0000
0000
0000
0001
0000
0000
0000
0001
0000
0001
0000
0000
0000
0000
,
0000
1000
0000
0000
1000
1000
0000
0000
0000
0100
0000
0000
0100
0000
0100
0000
,
0000
1000
0000
0000
0000
0000
1000
0000
1000
0000
0000
0100
0000
0100
0000
0000
,
0000
0020
0000
0000
0000
0031
0000
0000
0000
2000
0000
0000
0010
0000
3000
0000
,
0000
1000
0000
2000
0000
0000
0000
3000
1000
0000
0000
0000
0000
0000
0000
0000
,
0000
0010
0000
0020
0000
0000
0030
0010
0000
0020
0000
0000
0000
0030
0010
0000
,
0020
0000
0000
0000
0030
0010
0000
0010
0000
0020
0000
0000
0000
0130
0000
0001
,
0000
1000
0010
0000
0000
0100
0001
0000
0000
0010
0000
0100
0000
0000
0000
0000
,
1000
1000
0000
1000
0000
1000
0000
1000
0000
0000
1000
1000
1000
1000
0000
1000
,
0000
0020
0000
0200
0030
0000
0000
0302
0000
0020
0003
0000
0100
0030
0000
0000
,
0000
1000
0001
1000
0001
1000
0001
1000
0010
0000
0000
0100
0000
0010
0100
0000
;
