#TITLE:REINCARNATION;
#SUBTITLE:;
#ARTIST:DJ TAKA;
#TITLETRANSLIT:;
#SUBTITLETRANSLIT:;
#ARTISTTRANSLIT:;
#CREDIT:Graphics by Darkanine;
#BANNER:banner.png;
#BACKGROUND:BG.png;
#LYRICSPATH:;
#CDTITLE:;
#MUSIC:reincarnation.mp3;
#OFFSET:0.060;
#SAMPLESTART:72.430;
#SAMPLELENGTH:12.000;
#SELECTABLE:YES;
#BPMS:0.000=86.380,19.000=146.860;
#STOPS:;
#BGCHANGES:19.000=IMADOKI.avi=1.000=1=0=1,
22.000=-random-=1.000=0=0=1,
27.500=-random-=1.000=0=0=1,
30.500=-random-=1.000=0=0=1,
37.500=-random-=1.000=0=0=1,
49.000=-random-=1.000=0=0=1,
51.500=-random-=1.000=0=0=1,
58.500=-random-=1.000=0=0=1,
67.000=-random-=1.000=0=0=1,
80.000=-random-=1.000=0=0=1,
84.000=-random-=1.000=0=0=1,
114.000=-random-=1.000=0=0=1,
124.500=-random-=1.000=0=0=1,
128.000=-random-=1.000=0=0=1,
128.500=-random-=1.000=0=0=1,
129.500=-random-=1.000=0=0=1,
130.500=-random-=1.000=0=0=1,
135.500=-random-=1.000=0=0=1,
153.000=-random-=1.000=0=0=1,
163.500=-random-=1.000=0=0=1,
187.500=-random-=1.000=0=0=1,
205.500=-random-=1.000=0=0=1,
206.000=-random-=1.000=0=0=1,
206.500=-random-=1.000=0=0=1,
229.000=-random-=1.000=0=0=1,
246.000=-random-=1.000=0=0=1,
99999=-nosongbg-=1.000=0=0=0 // don't automatically add -songbackground-
;

//---------------dance-single - ----------------
#NOTES:
     dance-single:
     :
     Beginner:
     4:
     0.382,0.518,0.561,0.388,0.000:
0000
0000
0000
0000
,
0000
1001
0000
1001
,
0000
0000
0100
0000
,
0010
0000
0010
0000
,
0000
0100
0000
1000
,
1000
1000
1000
0002
,
0000
0010
0100
2003
,
0010
0100
0001
3020
,
0100
0100
0100
0031
,
1001
1001
1001
1001
,
1001
1001
1001
0020
,
0030
0200
0300
0000
,
0002
2000
3003
0010
,
0110
0100
0110
0010
,
0110
0100
0110
0010
,
0110
0100
0110
0010
,
0110
0100
0110
0110
,
0110
0110
0100
0110
,
0010
0110
0100
0110
,
0010
0110
0010
0110
,
0100
0110
0100
0110
,
0010
0110
0010
0110
,
0010
0010
0010
0110
,
0100
0110
0110
0110
,
0011
1100
1010
1001
,
0101
0011
0101
1001
,
1010
1100
1010
1001
,
0101
0011
0101
1010
,
1100
0020
0100
0100
,
0200
0000
0330
2000
,
3002
0000
0000
0000
,
0023
0000
0000
0000
,
0200
0030
0000
0000
,
0000
0000
0000
0000
,
0302
0000
0000
0000
,
0020
0003
0000
0000
,
0000
2030
0000
0000
,
0000
3200
0300
0020
,
0030
0002
2003
3020
,
0230
0302
0000
0000
,
0003
0010
0010
0010
,
0010
2002
0000
0000
,
3003
0220
0000
0000
,
0330
1000
0100
0010
,
0001
1000
0100
0010
,
0001
0000
1100
0010
,
0001
0010
1100
0010
,
0001
1100
0010
1100
,
0010
1100
0000
0010
,
0011
0000
0101
0010
,
0100
0012
0010
0000
,
0010
0013
2000
3100
,
0020
0031
2000
3010
,
0200
0310
0002
0013
,
2000
3100
0020
0130
,
0002
1003
0020
0130
,
0020
0130
0020
0130
,
0210
0300
0002
2000
,
3000
0200
0300
0010
,
0100
1000
0013
0010
,
0010
0010
0010
0010
,
0010
0010
0010
0010
,
0110
0000
0110
0000
,
0110
0000
0110
1000
,
0001
1000
0001
1000
,
0001
1000
0002
0000
,
2000
0000
0000
3003
;

//---------------dance-single - ----------------
#NOTES:
     dance-single:
     :
     Easy:
     4:
     0.475,0.516,0.276,0.354,0.000: // measure 1
0000
0000
0000
0000
,  // measure 2
0000
0000
1000
1000
1000
1000
0000
1000
,  // measure 3
1000
1000
1000
0010
0010
0010
0010
0000
,  // measure 4
0100
0100
0100
0100
0000
0001
0001
0001
,  // measure 5
0001
0000
1000
1000
0001
0001
0000
0020
,  // measure 6
0000
0100
0000
0100
0000
0200
0000
0000
,  // measure 7
0000
0000
0000
0000
0000
0000
0330
0002
,  // measure 8
0000
1000
0003
0020
0000
0200
0030
0302
,  // measure 9
0000
1000
0000
0020
0030
0100
0003
1000
,  // measure 10
0100
0010
0001
1000
0100
0010
0001
1000
,  // measure 11
0100
0010
0001
1000
0100
0010
0001
0000
,  // measure 12
1100
0010
0001
0010
0100
1000
0000
0000
,  // measure 13
0001
0010
1100
0000
0000
0000
0000
0010
,  // measure 14
1100
0010
0100
0010
0100
0000
0000
0010
,  // measure 15
0100
0010
0000
0100
0000
1100
0000
0000
,  // measure 16
0010
1100
0010
0100
0010
0100
0010
0000
,  // measure 17
0010
1100
0010
0100
0010
0100
0010
0000
,  // measure 18
0010
1100
0010
0100
0010
0100
1100
0000
,  // measure 19
0020
0000
0001
0030
2000
0000
0010
0000
,  // measure 20
3200
0000
0010
0000
0010
0300
0000
0000
,  // measure 21
2002
0000
0000
0000
0000
0000
0000
3003
,  // measure 22
2002
0000
0000
0000
0000
0000
0000
3003
,  // measure 23
0220
0000
0000
0000
0000
0000
0000
0330
,  // measure 24
0022
0000
0000
0000
0000
0000
0000
0033
,  // measure 25
2200
0000
0000
0300
,  // measure 26
0010
3000
0001
0000
1000
0000
0001
0000
,  // measure 27
0000
1000
0000
0001
0000
1000
0000
0101
,  // measure 28
0000
0010
0000
0100
0000
0010
0000
0100
,  // measure 29
0000
0110
0000
0110
0000
0110
0000
0110
,  // measure 30
0000
2002
0000
0000
0000
0003
3000
0020
,  // measure 31
0000
0230
0000
0000
0000
0000
0000
0300
,  // measure 32
0000
1000
1000
1000
1000
1000
1000
1000
,  // measure 33
1000
0010
0010
0010
0000
0010
0010
0010
,  // measure 34
0010
0010
0010
0010
0010
0010
0010
0010
,  // measure 35
0000
0110
0210
0000
0000
0000
0000
0000
,  // measure 36
0300
0110
0120
0000
0000
0000
0000
0000
,  // measure 37
0030
0110
0200
0000
0000
0320
0000
0000
,  // measure 38
0000
0032
0000
0000
0000
0000
2003
0000
,  // measure 39
0000
3020
0230
0302
,  // measure 40
2003
0000
0000
0000
0000
0000
0000
3000
,  // measure 41
0000
0000
0010
0010
0000
0010
0000
0010
,  // measure 42
0000
0010
0002
0000
0000
0000
0000
0000
,  // measure 43
0000
0000
0010
0100
1000
0000
0000
0003
,  // measure 44
0000
0000
1000
0100
0010
0001
0010
0000
,  // measure 45
1100
0000
0100
0010
0001
0010
0000
0100
,  // measure 46
1000
0100
0010
0001
0010
0100
1000
0100
,  // measure 47
0010
0001
0000
0010
0000
0010
0000
0010
,  // measure 48
0000
0010
0000
1000
0100
0010
0001
0010
,  // measure 49
0100
0000
1000
0100
0010
0001
0010
0100
,  // measure 50
1000
0100
0010
0001
0100
0010
0100
0010
,  // measure 51
0100
0010
0100
0010
0011
0100
1000
0000
,  // measure 52
0100
0000
0000
0011
1100
1010
0000
0101
,  // measure 53
0010
0100
0110
0010
0100
0000
0010
0100
,  // measure 54
0010
0100
0010
0100
0010
0011
0000
0100
,  // measure 55
1000
0100
0010
0001
0010
0100
1000
0100
,  // measure 56
0010
0001
0010
0100
1000
0100
0010
0001
,  // measure 57
0010
0100
0000
1000
0100
0010
0001
0010
,  // measure 58
0100
1000
0100
0010
0001
0010
0100
1000
,  // measure 59
0100
0010
0100
0010
0100
0010
0100
1000
,  // measure 60
0100
0010
0001
0010
0100
1000
0000
0100
,  // measure 61
0020
0000
0001
0001
0000
2030
0000
0000
,  // measure 62
0010
0000
0010
0010
3002
0000
0000
0000
,  // measure 63
1000
0000
1000
1000
0023
0000
0000
0000
,  // measure 64
0100
0000
0100
0100
0030
2000
0000
0000
,  // measure 65
0000
0010
0010
0000
0010
0010
0000
0000
,  // measure 66
3002
0000
0010
0000
0010
1003
0000
0000
,  // measure 67
0000
0001
0001
0000
0001
0000
0000
0000
;

//---------------dance-single - ----------------
#NOTES:
     dance-single:
     :
     Medium:
     9:
     0.550,0.660,0.293,0.345,0.060:
0000
0000
0000
0000
,
0000
0000
0000
0000
2001
0010
0001
0010
0001
0010
0001
0000
3000
0000
0002
0000
,
1000
0100
1000
0100
1000
0100
1000
0100
1000
0100
1000
0003
0000
0000
0000
0000
,
1000
0100
1000
0100
1000
0000
0000
0000
0000
0000
0001
0010
0001
0010
0001
0000
,
0000
0000
0000
0000
0001
0010
0001
0010
0001
0000
0000
0000
0000
0000
0220
0000
,
0000
0030
0300
2002
0000
0000
3003
2020
,
0000
0000
0030
3200
0000
0000
0000
0020
,
0000
0000
0030
0302
0000
0000
0000
2000
,
0000
0000
0003
0020
0000
3000
0030
0100
,
0100
0100
0000
0010
0010
0010
0000
1000
,
0010
0001
1000
0000
0100
0010
0001
1000
,
0100
0010
0000
0001
1000
0100
0010
0001
,
1000
0100
0010
0001
0010
0100
1000
0001
,
0010
0100
1000
0001
0010
0100
1000
0001
,
0010
0100
1000
0001
0010
0100
1000
0001
,
0010
0100
1000
0001
0010
0100
1000
0011
,
0000
1100
0000
0011
0000
1100
0010
0001
,
0010
0100
0010
0100
0010
0100
0010
0100
,
0010
0100
0010
0100
0010
0110
0100
0010
,
0100
0010
0100
0010
0100
0010
0100
0000
,
0110
0110
0110
0110
0110
0110
0110
0000
,
2000
0010
3002
0000
0010
0103
0010
0000
,
0100
0010
0100
0010
0002
0010
0100
0013
,
0000
0200
0310
0001
0010
0100
1000
0011
,
0000
1000
0010
0001
0010
0100
1010
0000
,
0100
0010
0100
0010
0100
0010
0100
0010
,
0100
0010
0100
0010
0100
0010
0001
0000
,
0000
0101
1010
0100
0010
0100
0010
0100
,
0000
0101
1010
0100
0000
0110
0000
0000
,
0000
0101
0000
1000
0000
0000
0000
0020
,
0000
1000
0000
1000
1000
0000
0000
0030
,
0000
0001
0000
0001
0001
0001
0000
0000
,
0000
0000
1000
1000
1000
0000
1000
0000
,
0000
0000
0010
0100
0002
1000
0010
0100
,
1000
0010
0100
1000
0010
0100
1000
0010
,
0100
1000
0010
0000
0100
1000
0000
0000
,
0010
0020
0000
0030
,
0000
2000
0003
0020
,
3000
0000
0200
0000
0030
0000
0002
0300
,
0000
2000
0000
0000
,
3003
0110
0000
0110
0000
0110
0000
0110
,
0000
0110
0010
0100
0110
0010
0100
0010
,
0100
0110
0000
0002
0000
0000
0000
0000
,
0003
0000
0000
1000
1000
1000
1000
1000
,
1000
1000
1000
0001
0001
0001
0001
0001
,
0001
0001
0001
0010
0010
0010
0010
0010
,
0010
0010
0010
0100
0100
0100
0100
0100
,
0100
0100
0100
1000
1000
1000
1000
1000
,
1000
1000
1000
0001
0001
0001
0001
0001
,
0001
0001
0001
0010
0010
0010
0010
0010
,
0010
0010
0010
0000
0100
1100
0100
0100
,
0100
0100
0100
0010
0011
0010
0000
0010
,
0010
0000
0010
0010
1100
0010
0010
0010
,
0010
0010
0010
0010
0100
0100
0100
0100
,
0100
0100
0100
0100
0000
0001
0000
2000
,
0010
0100
0000
3002
0010
0000
0100
0010
,
0000
0100
0010
0000
0100
0010
0000
0100
,
1000
0010
0100
1000
0023
0000
0100
0100
,
0000
0130
0000
0000
0002
0000
1000
0003
,
2000
0000
0001
3000
0002
0000
0000
1000
,
0023
0000
0000
0230
0300
0010
0100
0010
,
0100
0020
0000
0130
0020
0100
0000
0100
,
0000
0100
0100
0000
0100
0030
0002
0000
,
1000
1000
0000
1000
0000
0020
0000
0000
,
0000
0030
0000
0000
0000
2000
0000
0000
,
0000
3000
0000
0000
0000
0020
0000
0000
,
0000
0030
0000
0000
1003
0000
0000
0000
;

//---------------dance-single - ----------------
#NOTES:
     dance-single:
     :
     Hard:
     10:
     0.635,0.749,0.570,0.492,0.129:
0000
0000
0000
0000
,
0000
0000
0000
0000
0000
0020
0000
0000
0100
0030
0000
0001
0000
0010
0000
0000
0200
0000
0000
0000
1000
0000
1000
0000
,
0000
1000
0300
0000
0010
0000
0001
0000
0000
0000
0010
0000
0100
0000
0000
0010
0000
0000
0100
0000
0000
0002
0000
0000
,
0000
1000
0003
0010
0000
0000
0100
0000
0010
0000
0100
0010
0000
0000
0000
0002
0000
0000
1000
0000
0010
0000
0003
0100
,
0000
2000
0000
0000
0000
3010
0000
0000
0100
0000
0010
0000
0100
0000
0010
0000
0001
0000
0000
0000
0000
0010
0000
0000
,
1001
0010
1001
0010
0100
0010
0100
0010
,
0010
0000
0100
0000
0010
0000
0000
0100
,
1001
0100
1001
0100
1001
0000
0100
0020
,
0000
0100
0100
0100
0030
0000
0000
0010
,
0110
0100
0110
0010
0110
0100
0110
0110
,
0010
0010
0002
0010
0100
1000
0013
0100
,
1000
0010
0100
0010
0000
0000
0000
1100
,
0110
0011
0000
0200
0000
1000
0300
0010
,
0002
1000
0010
0103
1000
0010
0100
0002
,
0010
0100
1000
0010
0100
1000
0013
0000
,
1000
0001
1000
0001
1000
0001
1000
0010
,
0100
0010
0100
0010
0100
0110
0000
0001
,
0010
0001
0010
0001
0010
0001
0010
0011
,
0000
1000
1100
0100
1000
0100
1000
0000
,
2000
0100
0010
0100
0010
3100
0000
0000
,
0020
0000
0100
0000
0100
0030
0000
0010
,
0020
1000
0100
1000
,
0100
0032
0000
0010
0000
0100
0000
0023
,
0000
0200
0030
0010
0000
0010
0000
0010
,
0302
2000
0000
3000
0000
0200
0000
0300
,
0003
0110
0110
0110
0110
0110
0110
0110
,
0000
1002
0000
0010
0000
0100
0000
0010
,
0000
0100
0000
0010
0000
0100
0000
0010
,
0000
0010
0000
0010
0000
0010
0000
0010
,
0003
1001
0000
1001
1001
0000
0000
2002
,
0000
3000
0000
0000
0000
0000
0000
0003
,
0000
0200
0000
0000
0000
0000
0000
0000
,
0000
2000
0300
0000
,
0000
0020
3000
0200
0030
0000
0302
0000
,
2003
3020
0230
0302
,
2003
0000
3020
0000
0032
2000
0003
0020
,
3000
0002
0030
2000
0003
0000
3020
0000
,
0230
0000
0000
0000
0301
0001
0001
0001
0001
0000
0000
0000
1000
1000
1000
1000
,
1000
0000
0000
0000
0001
0001
0001
0001
0001
0000
0000
0000
1000
1000
1000
1000
,
1000
0000
0020
0000
0100
0100
0100
0000
,
0030
0000
0010
0100
0000
0001
0000
0000
,
1000
0000
0000
0210
0010
0010
0010
0010
,
0010
0310
0000
0020
0100
0100
0100
0100
,
0030
0000
0000
1000
0100
0011
0000
1000
,
0010
0000
0100
0010
0001
0002
0000
0103
,
1001
1001
0110
0002
0010
0100
1003
1100
,
0000
0010
0011
0010
0100
0010
0100
0010
,
0000
1100
1010
0002
0010
0100
1000
0010
,
0000
0103
1001
1001
0011
0011
0010
0100
,
0010
0100
0010
0200
0000
0010
0010
0010
,
0000
0010
0310
0002
0010
0100
1000
0010
,
0010
0100
1000
0013
0200
0010
0000
0010
,
0001
0300
1000
0010
0100
0010
0002
0000
,
1000
0010
0000
0103
1100
0001
0010
0100
,
0010
0100
0010
0100
1100
0010
0002
0010
,
0100
0000
0003
0000
1100
0110
0011
0100
,
0110
0000
0110
0000
1100
1010
0012
0000
,
0010
0100
1000
0010
0100
1000
0010
0100
,
1000
0010
0100
1000
0010
0100
2000
0003
,
0000
0100
0001
0100
0000
0010
0001
0000
,
3020
0000
0100
0100
0032
1000
0010
0000
,
0100
0010
0100
1000
0013
0100
0010
0100
,
0002
1000
0010
0103
1000
0002
0010
0100
,
1000
0010
0003
0000
0000
0110
1001
0110
,
1001
0110
0101
0011
0000
0010
0100
0010
,
0100
1100
1100
1010
1001
1010
1001
0010
,
0100
0010
0100
0010
0000
0110
0110
0000
;
