#TITLE:Pumptris 8-bit;
#SUBTITLE:;
#ARTIST:Yahpp;
#TITLETRANSLIT:;
#SUBTITLETRANSLIT:;
#ARTISTTRANSLIT:;
#GENRE:;
#CREDIT:;
#BANNER:;
#BACKGROUND:;
#LYRICSPATH:;
#CDTITLE:;
#MUSIC:Pumptris Quattro 8 bit version.ogg;
#OFFSET:3.660;
#SAMPLESTART:2.115;
#SAMPLELENGTH:11.960;
#SELECTABLE:YES;
#DISPLAYBPM:162.000;
#BPMS:0.000=162.000,10.000=-162.000,15.000=162.000,20.000=-162.000,25.000=162.000,30.000=-162.000,35.000=162.000,40.000=-162.000,45.000=162.000,50.000=-162.000,55.000=162.000,60.000=-162.000,65.000=162.000,70.000=-162.000,75.000=162.000,80.000=-162.000,85.000=162.000,90.000=-162.000,95.000=162.000,100.000=-162.000,105.000=162.000,110.000=-162.000,115.000=162.000,120.000=-162.000,125.000=162.000,130.000=-162.000,135.000=162.000,140.000=-162.000,145.000=162.000,150.000=-162.000,155.000=162.000,160.000=-162.000,165.000=162.000,170.000=-162.000,175.000=162.000,180.000=-162.000,185.000=162.000,190.000=-162.000,195.000=162.000,200.000=-162.000,205.000=162.000,210.000=-162.000,215.000=162.000,220.000=-162.000,225.000=162.000,230.000=-162.000,235.000=162.000,240.000=-162.000,245.000=162.000,250.000=-162.000,255.000=162.000,260.000=-162.000,265.000=162.000,270.000=-162.000,275.000=162.000,280.000=-162.000,285.000=162.000,290.000=-162.000,295.000=162.000,300.000=-162.000,305.000=162.000,310.000=-162.000,315.000=162.000,320.000=-162.000,325.000=162.000,330.000=-162.000,335.000=162.000,340.000=-162.000,345.000=162.000,350.000=-162.000,355.000=162.000,360.000=-162.000,365.000=162.000,370.000=-162.000,375.000=162.000,380.000=-162.000,385.000=162.000,390.000=-162.000,395.000=162.000,400.000=-162.000,405.000=162.000,410.000=-162.000,415.000=162.000,420.000=-162.000,425.000=162.000,430.000=-162.000,435.000=162.000,440.000=-162.000,445.000=162.000,450.000=-162.000,455.000=162.000,460.000=-162.000,465.000=162.000,470.000=-162.000,475.000=162.000,480.000=-162.000,485.000=162.000,490.000=-162.000,495.000=162.000,500.000=-162.000,505.000=162.000,510.000=-162.000,515.000=162.000,520.000=-162.000,525.000=162.000,530.000=-162.000,535.000=162.000,540.000=-162.000,545.000=162.000,550.000=-162.000,555.000=162.000,560.000=-162.000,565.000=162.000,570.000=-162.000,575.000=162.000,580.000=-162.000,585.000=162.000,590.000=-162.000,595.000=162.000,600.000=-162.000,605.000=162.000,610.000=-162.000,615.000=162.000,620.000=-162.000,625.000=162.000,630.000=-162.000,635.000=162.000,640.000=-162.000,645.000=162.000,650.000=-162.000,655.000=162.000,660.000=-162.000,665.000=162.000,670.000=-162.000,675.000=162.000,680.000=-162.000,685.000=162.000,690.000=-162.000,695.000=162.000,700.000=-162.000,705.000=162.000,710.000=-162.000,715.000=162.000,720.000=-162.000,725.000=162.000,730.000=-162.000,735.000=162.000,740.000=-162.000,745.000=162.000,750.000=-162.000,755.000=162.000,760.000=-162.000,765.000=162.000,770.000=-162.000,775.000=162.000,780.000=-162.000,785.000=162.000,790.000=-162.000,795.000=162.000,800.000=-162.000,805.000=162.000,810.000=-162.000,815.000=162.000,820.000=-162.000,825.000=162.000,830.000=-162.000,835.000=162.000,840.000=-162.000,845.000=162.000,850.000=-162.000,855.000=162.000,860.000=-162.000,865.000=162.000,870.000=-162.000,875.000=162.000,880.000=-162.000,885.000=162.000,890.000=-162.000,895.000=162.000,900.000=-162.000,905.000=162.000,910.000=-162.000,915.000=162.000,920.000=-162.000,925.000=162.000,930.000=-162.000,935.000=162.000,940.000=-162.000,945.000=162.000,950.000=-162.000,955.000=162.000,960.000=-162.000,965.000=162.000,970.000=-162.000,975.000=162.000,980.000=-162.000,985.000=162.000,990.000=-162.000,995.000=162.000,1000.000=-162.000,1005.000=162.000,1010.000=-162.000,1015.000=162.000,1020.000=-162.000,1025.000=162.000,1030.000=-162.000,1035.000=162.000,1040.000=-162.000,1045.000=162.000,1050.000=-162.000,1055.000=162.000,1060.000=-162.000,1065.000=162.000,1070.000=-162.000,1075.000=162.000,1080.000=-162.000,1085.000=162.000,1090.000=-162.000,1095.000=162.000,1100.000=-162.000,1105.000=162.000,1110.000=-162.000,1115.000=162.000,1120.000=-162.000,1125.000=162.000,1130.000=-162.000,1135.000=162.000,1140.000=-162.000,1145.000=162.000,1150.000=-162.000,1155.000=162.000,1160.000=-162.000,1165.000=162.000,1170.000=-162.000,1175.000=162.000,1180.000=-162.000,1185.000=162.000,1190.000=-162.000,1195.000=162.000,1200.000=-162.000,1205.000=162.000,1210.000=-162.000,1215.000=162.000,1220.000=-162.000,1225.000=162.000,1230.000=-162.000,1235.000=162.000,1240.000=-162.000,1245.000=162.000,1250.000=-162.000,1255.000=162.000,1260.000=-162.000,1265.000=162.000,1270.000=-162.000,1275.000=162.000,1280.000=-162.000,1285.000=162.000,1290.000=-162.000,1295.000=162.000,1300.000=-162.000,1305.000=162.000,1310.000=-162.000,1315.000=162.000,1320.000=-162.000,1325.000=162.000,1330.000=-162.000,1335.000=162.000,1340.000=-162.000,1345.000=162.000,1350.000=-162.000,1355.000=162.000,1360.000=-162.000,1365.000=162.000,1370.000=-162.000,1375.000=162.000,1380.000=-162.000,1385.000=162.000,1390.000=-162.000,1395.000=162.000,1400.000=-162.000,1405.000=162.000,1410.000=-162.000,1415.000=162.000,1420.000=-162.000,1425.000=162.000,1430.000=-162.000,1435.000=162.000,1440.000=-162.000,1445.000=162.000,1450.000=-162.000,1455.000=162.000,1460.000=-162.000,1465.000=162.000,1470.000=-162.000,1475.000=162.000,1480.000=-162.000,1485.000=162.000,1490.000=-162.000,1495.000=162.000,1500.000=-162.000,1505.000=162.000,1510.000=-162.000,1515.000=162.000,1520.000=-162.000,1525.000=162.000,1530.000=-162.000,1535.000=162.000,1540.000=-162.000,1545.000=162.000,1550.000=-162.000,1555.000=162.000,1560.000=-162.000,1565.000=162.000,1570.000=-162.000,1575.000=162.000,1580.000=-162.000,1585.000=162.000,1590.000=-162.000,1595.000=162.000,1600.000=-162.000,1605.000=162.000,1610.000=-162.000,1615.000=162.000,1620.000=-162.000,1625.000=162.000,1630.000=-162.000,1635.000=162.000,1640.000=-162.000,1645.000=162.000,1650.000=-162.000,1655.000=162.000,1660.000=-162.000,1665.000=162.000,1670.000=-162.000,1675.000=162.000,1680.000=-162.000,1685.000=162.000,1690.000=-162.000,1695.000=162.000,1700.000=-162.000,1705.000=162.000,1710.000=-162.000,1715.000=162.000,1720.000=-162.000,1725.000=162.000,1730.000=-162.000,1735.000=162.000,1740.000=-162.000,1745.000=162.000,1750.000=-162.000,1755.000=162.000,1760.000=-162.000,1765.000=162.000,1770.000=-162.000,1775.000=162.000,1780.000=-162.000,1785.000=162.000,1790.000=-162.000,1795.000=162.000,1800.000=-162.000,1805.000=162.000,1810.000=-162.000,1815.000=162.000,1820.000=-162.000,1825.000=162.000,1830.000=-162.000,1835.000=162.000,1840.000=-162.000,1845.000=162.000,1850.000=-162.000,1855.000=162.000,1860.000=-162.000,1865.000=162.000,1870.000=-162.000,1875.000=162.000,1880.000=-162.000,1885.000=162.000,1890.000=-162.000,1895.000=162.000,1900.000=-162.000,1905.000=162.000,1910.000=-162.000,1915.000=162.000,1920.000=-162.000,1925.000=162.000,1930.000=-162.000,1935.000=162.000,1940.000=-162.000,1945.000=162.000,1950.000=-162.000,1955.000=162.000,1960.000=-162.000,1965.000=162.000,1970.000=-162.000,1975.000=162.000,1980.000=-162.000,1985.000=162.000,1990.000=-162.000,1995.000=162.000,2000.000=-162.000,2005.000=162.000,2010.000=-162.000,2015.000=162.000,2020.000=-162.000,2025.000=162.000,2030.000=-162.000,2035.000=162.000,2040.000=-162.000,2045.000=162.000,2050.000=-162.000,2055.000=162.000,2060.000=-162.000,2065.000=162.000,2070.000=-162.000,2075.000=162.000,2080.000=-162.000,2085.000=162.000,2090.000=-162.000,2095.000=162.000,2100.000=-162.000,2105.000=162.000,2110.000=-162.000,2115.000=162.000,2120.000=-162.000,2125.000=162.000,2130.000=-162.000,2135.000=162.000,2140.000=-162.000,2145.000=162.000,2150.000=-162.000,2155.000=162.000,2160.000=-162.000,2165.000=162.000,2170.000=-162.000,2175.000=162.000,2180.000=-162.000,2185.000=162.000,2190.000=-162.000,2195.000=162.000,2200.000=-162.000,2205.000=162.000,2210.000=-162.000,2215.000=162.000,2220.000=-162.000,2225.000=162.000,2230.000=-162.000,2235.000=162.000,2240.000=-162.000,2245.000=162.000,2250.000=-162.000,2255.000=162.000,2260.000=-162.000,2265.000=162.000,2270.000=-162.000,2275.000=162.000,2280.000=-162.000,2285.000=162.000,2290.000=-162.000,2295.000=162.000,2300.000=-162.000,2305.000=162.000,2310.000=-162.000,2315.000=162.000,2320.000=-162.000,2325.000=162.000,2330.000=-162.000,2335.000=162.000,2340.000=-162.000,2345.000=162.000,2350.000=-162.000,2355.000=162.000,2360.000=-162.000,2365.000=162.000,2370.000=-162.000,2375.000=162.000,2380.000=-162.000,2385.000=162.000,2390.000=-162.000,2395.000=162.000,2400.000=-162.000,2405.000=162.000,2410.000=-162.000,2415.000=162.000,2420.000=-162.000,2425.000=162.000,2430.000=-162.000,2435.000=162.000,2440.000=-162.000,2445.000=162.000,2450.000=-162.000,2455.000=162.000,2460.000=-162.000,2465.000=162.000,2470.000=-162.000,2475.000=162.000,2480.000=-162.000,2485.000=162.000,2490.000=-162.000,2495.000=162.000,2500.000=-162.000,2505.000=162.000,2510.000=-162.000,2515.000=162.000,2520.000=-162.000,2525.000=162.000,2530.000=-162.000,2535.000=162.000,2540.000=-162.000,2545.000=162.000,2550.000=-162.000,2555.000=162.000,2560.000=-162.000,2565.000=162.000,2570.000=-162.000,2575.000=162.000,2580.000=-162.000,2585.000=162.000,2590.000=-162.000,2595.000=162.000,2600.000=-162.000,2605.000=162.000,2610.000=-162.000,2615.000=162.000,2620.000=-162.000,2625.000=162.000,2630.000=-162.000,2635.000=162.000,2640.000=-162.000,2645.000=162.000,2650.000=-162.000,2655.000=162.000,2660.000=-162.000,2665.000=162.000,2670.000=-162.000,2675.000=162.000,2680.000=-162.000,2685.000=162.000,2690.000=-162.000,2695.000=162.000,2700.000=-162.000,2705.000=162.000,2710.000=-162.000,2715.000=162.000,2720.000=-162.000,2725.000=162.000,2730.000=-162.000,2735.000=162.000,2740.000=-162.000,2745.000=162.000,2750.000=-162.000,2755.000=162.000,2760.000=-162.000,2765.000=162.000,2770.000=-162.000,2775.000=162.000,2780.000=-162.000,2785.000=162.000,2790.000=-162.000,2795.000=162.000,2800.000=-162.000,2805.000=162.000,2810.000=-162.000,2815.000=162.000,2820.000=-162.000,2825.000=162.000,2830.000=-162.000,2835.000=162.000,2840.000=-162.000,2845.000=162.000,2850.000=-162.000,2855.000=162.000,2860.000=-162.000,2865.000=162.000,2870.000=-162.000,2875.000=162.000,2880.000=-162.000,2885.000=162.000,2890.000=-162.000,2895.000=162.000,2900.000=-162.000,2905.000=162.000,2910.000=-162.000,2915.000=162.000,2920.000=-162.000,2925.000=162.000,2930.000=-162.000,2935.000=162.000,2940.000=-162.000,2945.000=162.000,2950.000=-162.000,2955.000=162.000,2960.000=-162.000,2965.000=162.000,2970.000=-162.000,2975.000=162.000,2980.000=-162.000,2985.000=162.000,2990.000=-162.000,2995.000=162.000,3000.000=-162.000,3005.000=162.000,3010.000=-162.000,3015.000=162.000,3020.000=-162.000,3025.000=162.000,3030.000=-162.000,3035.000=162.000,3040.000=-162.000,3045.000=162.000,3050.000=-162.000,3055.000=162.000,3060.000=-162.000,3065.000=162.000,3070.000=-162.000,3075.000=162.000,3080.000=-162.000,3085.000=162.000,3090.000=-162.000,3095.000=162.000,3100.000=-162.000,3105.000=162.000,3110.000=-162.000,3115.000=162.000,3120.000=-162.000,3125.000=162.000,3130.000=-162.000,3135.000=162.000,3140.000=-162.000,3145.000=162.000,3150.000=-162.000,3155.000=162.000,3160.000=-162.000,3165.000=162.000,3170.000=-162.000,3175.000=162.000,3180.000=-162.000,3185.000=162.000,3190.000=-162.000,3195.000=162.000,3200.000=-162.000,3205.000=162.000,3210.000=-162.000,3215.000=162.000,3220.000=-162.000,3225.000=162.000,3230.000=-162.000,3235.000=162.000,3240.000=-162.000,3245.000=162.000,3250.000=-162.000,3255.000=162.000,3260.000=-162.000,3265.000=162.000,3270.000=-162.000,3275.000=162.000,3280.000=-162.000,3285.000=162.000,3290.000=-162.000,3295.000=162.000,3300.000=-162.000,3305.000=162.000,3310.000=-162.000,3315.000=162.000,3320.000=-162.000,3325.000=162.000,3330.000=-162.000,3335.000=162.000,3340.000=-162.000,3345.000=162.000,3350.000=-162.000,3355.000=162.000,3360.000=-162.000,3365.000=162.000,3370.000=-162.000,3375.000=162.000,3380.000=-162.000,3385.000=162.000,3390.000=-162.000,3395.000=162.000,3400.000=-162.000,3405.000=162.000,3410.000=-162.000,3415.000=162.000,3420.000=-162.000,3425.000=162.000,3430.000=-162.000,3435.000=162.000,3440.000=-162.000,3445.000=162.000,3450.000=-162.000,3455.000=162.000,3460.000=-162.000,3465.000=162.000,3470.000=-162.000,3475.000=162.000,3480.000=-162.000,3485.000=162.000,3490.000=-162.000,3495.000=162.000,3500.000=-162.000,3505.000=162.000,3510.000=-162.000,3515.000=162.000,3520.000=-162.000,3525.000=162.000,3530.000=-162.000,3535.000=162.000,3540.000=-162.000,3545.000=162.000,3550.000=-162.000,3555.000=162.000,3560.000=-162.000,3565.000=162.000,3570.000=-162.000,3575.000=162.000,3580.000=-162.000,3585.000=162.000,3590.000=-162.000,3595.000=162.000,3600.000=-162.000,3605.000=162.000,3610.000=-162.000,3615.000=162.000,3620.000=-162.000,3625.000=162.000,3630.000=-162.000,3635.000=162.000,3640.000=-162.000,3645.000=162.000,3650.000=-162.000,3655.000=162.000,3660.000=-162.000,3665.000=162.000,3670.000=-162.000,3675.000=162.000,3680.000=-162.000,3685.000=162.000,3690.000=-162.000,3695.000=162.000,3700.000=-162.000,3705.000=162.000,3710.000=-162.000,3715.000=162.000,3720.000=-162.000,3725.000=162.000,3730.000=-162.000,3735.000=162.000,3740.000=-162.000,3745.000=162.000,3750.000=-162.000,3755.000=162.000,3760.000=-162.000,3765.000=162.000,3770.000=-162.000,3775.000=162.000,3780.000=-162.000,3785.000=162.000,3790.000=-162.000,3795.000=162.000,3800.000=-162.000,3805.000=162.000,3810.000=-162.000,3815.000=162.000,3820.000=-162.000,3825.000=162.000,3830.000=-162.000,3835.000=162.000,3840.000=-162.000,3845.000=162.000,3850.000=-162.000,3855.000=162.000;
#STOPS:20.000=0.185
,30.000=0.185
,40.000=0.741
,50.000=0.185
,60.000=0.185
,70.000=0.185
,80.000=0.185
,90.000=0.185
,100.000=0.185
,110.000=0.185
,120.000=0.185
,130.000=0.185
,140.000=0.185
,150.000=0.185
,160.000=0.185
,170.000=0.185
,180.000=0.185
,190.000=0.370
,210.000=0.185
,220.000=0.185
,230.000=0.185
,240.000=0.185
,250.000=0.185
,260.000=0.185
,270.000=0.370
,280.000=0.370
,290.000=0.370
,300.000=0.370
,310.000=0.370
,320.000=0.185
,330.000=0.185
,340.000=0.185
,350.000=0.185
,360.000=0.185
,370.000=0.555
,380.000=0.185
,390.000=0.185
,400.000=0.185
,410.000=0.185
,420.000=0.720
,430.000=0.185
,440.000=0.185
,450.000=0.185
,460.000=0.185
,470.000=0.185
,480.000=0.185
,490.000=0.370
,500.000=0.370
,510.000=0.370
,520.000=0.370
,530.000=0.120
,540.000=0.120
,550.000=0.130
,560.000=0.120
,570.000=0.120
,580.000=0.130
,590.000=0.120
,600.000=0.120
,610.000=0.110
,620.000=0.410
,630.000=0.185
,640.000=0.185
,650.000=0.370
,660.000=0.185
,670.000=0.185
,680.000=0.600
,690.000=0.185
,700.000=0.360
,710.000=0.185
,720.000=0.185
,730.000=0.370
,740.000=0.185
,750.000=0.185
,760.000=0.580
,770.000=0.185
,780.000=0.370
,790.000=0.185
,800.000=0.185
,810.000=0.580
,820.000=0.185
,830.000=0.370
,840.000=0.185
,850.000=0.185
,860.000=0.185
,870.000=0.185
,880.000=0.185
,890.000=0.185
,900.000=0.370
,910.000=0.370
,920.000=0.370
,930.000=0.370
,940.000=0.370
,950.000=0.185
,960.000=0.185
,970.000=0.370
,980.000=0.185
,990.000=0.185
,1000.000=0.370
,1010.000=0.185
,1020.000=0.185
,1030.000=0.165
,1040.000=0.185
,1050.000=0.370
,1060.000=0.370
,1070.000=0.370
,1080.000=0.370
,1090.000=0.370
,1100.000=0.370
,1110.000=0.370
,1120.000=0.370
,1130.000=0.370
,1140.000=0.370
,1150.000=0.370
,1160.000=0.370
,1170.000=0.370
,1180.000=0.370
,1190.000=0.370
,1200.000=0.370
,1210.000=0.185
,1220.000=0.185
,1230.000=0.185
,1240.000=0.185
,1250.000=0.185
,1260.000=0.185
,1270.000=0.185
,1280.000=0.185
,1290.000=0.185
,1300.000=0.185
,1310.000=0.185
,1320.000=0.185
,1330.000=0.185
,1340.000=0.185
,1350.000=0.185
,1360.000=0.185
,1370.000=0.720
,1380.000=0.185
,1390.000=0.185
,1400.000=0.370
,1410.000=0.185
,1420.000=0.555
,1430.000=0.185
,1440.000=0.185
,1450.000=0.740
,1460.000=0.370
,1470.000=0.185
,1480.000=0.555
,1490.000=0.370
,1500.000=0.370
,1510.000=0.370
,1520.000=0.370
,1530.000=0.370
,1540.000=0.370
,1550.000=0.370
,1560.000=0.370
,1570.000=0.370
,1580.000=0.370
,1590.000=0.370
,1600.000=0.370
,1610.000=0.370
,1620.000=0.185
,1630.000=0.185
,1640.000=0.370
,1650.000=0.185
,1660.000=0.185
,1670.000=0.185
,1680.000=0.185
,1690.000=0.370
,1700.000=0.185
,1710.000=0.185
,1720.000=0.185
,1730.000=0.185
,1740.000=0.370
,1750.000=0.370
,1760.000=0.185
,1770.000=0.185
,1780.000=0.185
,1790.000=0.185
,1800.000=0.185
,1810.000=0.185
,1820.000=0.185
,1830.000=0.185
,1840.000=0.090
,1850.000=0.090
,1860.000=0.090
,1870.000=0.090
,1880.000=0.090
,1890.000=0.280
,1900.000=0.370
,1910.000=0.185
,1920.000=0.185
,1930.000=0.185
,1940.000=0.185
,1950.000=0.185
,1960.000=0.185
,1970.000=0.370
,1980.000=0.185
,1990.000=0.185
,2000.000=0.185
,2010.000=0.185
,2020.000=0.185
,2030.000=0.185
,2040.000=0.185
,2050.000=0.185
,2060.000=0.165
,2070.000=0.165
,2080.000=0.165
,2090.000=0.165
,2100.000=0.165
,2110.000=0.165
,2120.000=0.165
,2130.000=0.165
,2140.000=0.165
,2150.000=0.165
,2160.000=0.185
,2170.000=0.370
,2180.000=0.370
,2190.000=0.410
,2200.000=0.740
,2210.000=0.370
,2220.000=0.370
,2230.000=0.370
,2240.000=0.370
,2250.000=0.370
,2260.000=0.370
,2270.000=0.370
,2280.000=0.370
,2290.000=0.370
,2300.000=0.370
,2310.000=0.370
,2320.000=0.370
,2330.000=0.185
,2340.000=0.185
,2350.000=0.185
,2360.000=0.555
,2370.000=0.370
,2380.000=0.370
,2390.000=0.370
,2400.000=0.370
,2410.000=0.370
,2420.000=0.370
,2430.000=0.740
,2440.000=0.185
,2450.000=0.185
,2460.000=0.185
,2470.000=0.185
,2480.000=0.185
,2490.000=0.185
,2500.000=0.185
,2510.000=0.185
,2520.000=0.185
,2530.000=0.185
,2540.000=0.925
,2550.000=0.185
,2560.000=0.185
,2570.000=0.185
,2580.000=0.185
,2590.000=0.185
,2600.000=0.185
,2610.000=0.185
,2620.000=0.185
,2630.000=0.185
,2640.000=0.185
,2650.000=0.185
,2660.000=0.185
,2670.000=0.185
,2680.000=0.185
,2690.000=0.370
,2700.000=0.185
,2710.000=0.185
,2720.000=0.185
,2730.000=0.185
,2740.000=0.185
,2750.000=0.185
,2760.000=0.185
,2770.000=0.100
,2780.000=0.090
,2790.000=0.090
,2800.000=0.090
,2810.000=0.090
,2820.000=0.100
,2830.000=0.100
,2840.000=1.200
,2850.000=0.370
,2860.000=0.370
,2870.000=0.370
,2880.000=0.370
,2890.000=0.370
,2900.000=0.370
,2910.000=0.370
,2920.000=0.185
,2930.000=0.185
,2940.000=0.185
,2950.000=0.185
,2960.000=0.370
,2970.000=0.370
,2980.000=0.185
,2990.000=0.185
,3000.000=0.185
,3010.000=0.185
,3020.000=0.185
,3030.000=0.185
,3040.000=0.390
,3050.000=0.370
,3060.000=0.370
,3070.000=0.370
,3080.000=0.185
,3090.000=0.185
,3100.000=0.185
,3110.000=0.185
,3120.000=0.185
,3130.000=0.185
,3140.000=0.185
,3150.000=0.185
,3160.000=0.555
,3170.000=0.185
,3180.000=0.185
,3190.000=0.185
,3200.000=0.185
,3210.000=0.185
,3220.000=0.185
,3230.000=0.185
,3240.000=0.185
,3250.000=0.185
,3260.000=0.185
,3270.000=0.185
,3280.000=0.185
,3290.000=0.185
,3300.000=0.370
,3310.000=0.370
,3320.000=0.370
,3330.000=0.370
,3340.000=0.370
,3350.000=0.185
,3360.000=0.185
,3370.000=0.185
,3380.000=0.185
,3390.000=0.100
,3400.000=0.100
,3410.000=0.090
,3420.000=0.090
,3430.000=0.370
,3440.000=0.370
,3450.000=0.370
,3460.000=0.185
,3470.000=0.185
,3480.000=0.185
,3490.000=0.185
,3500.000=0.185
,3510.000=0.285
,3520.000=0.090
,3530.000=0.090
,3540.000=0.090
,3550.000=0.090
,3560.000=0.090
,3570.000=0.090
,3580.000=0.090
,3590.000=0.090
,3600.000=0.090
,3610.000=0.090
,3620.000=0.090
,3630.000=0.090
,3640.000=0.090
,3650.000=0.100
,3660.000=0.185
,3670.000=0.045
,3680.000=0.045
,3690.000=0.045
,3700.000=0.045
,3710.000=0.045
,3720.000=0.045
,3730.000=0.045
,3740.000=0.045
,3750.000=0.045
,3760.000=0.045
,3770.000=0.045
,3780.000=0.565
,3790.000=0.120
,3800.000=0.120
,3810.000=0.130
,3820.000=0.120
,3830.000=0.120
,3840.000=0.120
,3850.000=2.500
;
#BGCHANGES:;
#KEYSOUNDS:;

//---------------dance-double - Blank----------------
#NOTES:
     dance-double:
     Blank:
     Challenge:
     1:
     1.000,1.000,1.000,0.000,0.273: // measure 1
00000000
00000000
00000000
00000000
,  // measure 2
00000000
00000000
00000000
00000000
,  // measure 3
00000000
00000000
MMMMMMMM
MMMMMMMM
,  // measure 4
MMMMMMMM
MMMMMMMM
MMMMMMMM
MMMMMMMM
,  // measure 5
MMMMMMMM
00000000
00000000
00000000
,  // measure 6
MMM00MMM
MMM00MMM
MMM00MMM
MMM00MMM
,  // measure 7
MMM00MMM
MMM00MMM
MMM00MMM
00000000
,  // measure 8
00000000
00000000
MM0000MM
MM0000MM
,  // measure 9
MM0000MM
MM0000MM
MM0000MM
MM0000MM
,  // measure 10
MM0000MM
00000000
00000000
00000000
,  // measure 11
M000000M
M000000M
M000000M
M000000M
,  // measure 12
M000000M
M000000M
M000000M
00000000
,  // measure 13
00000000
00000000
M000000M
M000000M
,  // measure 14
M000000M
M000000M
M000000M
M000000M
,  // measure 15
M011100M
00000000
00000000
00000000
,  // measure 16
M000000M
M000000M
M000000M
M000000M
,  // measure 17
M000000M
M011100M
M010000M
00000000
,  // measure 18
00000000
00000000
M000000M
M000000M
,  // measure 19
M000000M
00000000
00000000
00000000
00000000
00000000
00000000
00000000
00000000
00000000
00000000
00000000
00000000
00000000
00000000
00000000
M000000M
00000000
00000000
00000000
00000000
00000000
00000000
00000000
00000000
00000000
00000000
00000000
00000000
00000000
00000000
00000000
M111000M
01000000
00000000
00000000
00000000
00000000
00000000
00000000
00000000
00000000
00000000
00000000
00000000
00000000
00000000
00000000
M100000M
00000000
00000000
00000000
00000000
00000000
00000000
00000000
00000000
00000000
00000000
00000000
00000000
00000000
00000000
00000000
,  // measure 20
M000000M
00000000
00000000
00000000
,  // measure 21
M000000M
M000000M
M000000M
M111000M
,  // measure 22
M100000M
M000000M
M000000M
00000000
,  // measure 23
00000000
00000000
M000000M
M000000M
,  // measure 24
M111000M
M100000M
M000000M
M000000M
,  // measure 25
M000000M
00000000
00000000
00000000
,  // measure 26
M000000M
M111000M
M100000M
M000000M
,  // measure 27
M000000M
M000000M
M000000M
00000000
,  // measure 28
00000000
00000000
M111000M
M100000M
,  // measure 29
M000000M
M000000M
M000000M
M000000M
,  // measure 30
M000000M
00000000
00000000
00000000
,  // measure 31
M111000M
M100000M
M000000M
M000000M
,  // measure 32
M000000M
M000000M
M001100M
00000000
,  // measure 33
00000000
00000000
M111000M
M100000M
,  // measure 34
M000000M
M000000M
M000000M
M001100M
,  // measure 35
M001100M
00000000
00000000
00000000
,  // measure 36
M111000M
M100000M
M000000M
M000000M
,  // measure 37
M000000M
M000110M
M000110M
00000000
,  // measure 38
00000000
00000000
M111000M
M100000M
,  // measure 39
M000000M
M000000M
M000110M
M000110M
,  // measure 40
M000000M
00000000
00000000
00000000
,  // measure 41
M111000M
M100000M
M000000M
M000110M
,  // measure 42
M000110M
M000000M
M000000M
00000000
,  // measure 43
00000000
00000000
M111000M
M100000M
,  // measure 44
M000110M
M000110M
M000000M
M000000M
,  // measure 45
M000000M
00000000
00000000
00000000
,  // measure 46
M111000M
M100110M
M000110M
M000000M
,  // measure 47
M000000M
M000000M
M000000M
00000000
,  // measure 48
00000000
00000000
M111110M
M100110M
,  // measure 49
M000000M
M000000M
M000000M
M000000M
,  // measure 50
M000000M
00000000
00000000
00000000
,  // measure 51
M111110M
M100110M
M000000M
M000000M
,  // measure 52
M000000M
M000000M
M000100M
00000000
,  // measure 53
00000000
00000000
M111110M
M100110M
,  // measure 54
M000000M
M000000M
M000000M
M000010M
,  // measure 55
M000010M
00000000
00000000
00000000
,  // measure 56
M111110M
M100110M
M000000M
M000000M
,  // measure 57
M000001M
M000001M
M000001M
00000000
,  // measure 58
00000000
00000000
M111110M
M100110M
,  // measure 59
M000000M
M000001M
M000001M
M000001M
,  // measure 60
M000001M
00000000
00000000
00000000
,  // measure 61
M111110M
M100110M
M000001M
M000001M
,  // measure 62
M000001M
M000001M
M000000M
00000000
,  // measure 63
00000000
00000000
M111110M
M100111M
,  // measure 64
M000001M
M000001M
M000001M
M000000M
,  // measure 65
M000000M
00000000
00000000
00000000
,  // measure 66
M111111M
M100111M
M000001M
M000001M
,  // measure 67
M000000M
M000000M
M000000M
00000000
,  // measure 68
00000000
00000000
MMM1111M
M100111M
,  // measure 69
M000001M
M000001M
M000000M
M000000M
,  // measure 70
M000000M
00000000
00000000
00000000
,  // measure 71
M11MM00M
00000110
00000000
00000000
00000000
00000000
00000000
00000000
00000000
00000000
00000000
00000000
00000000
00000000
00000000
00000000
M100111M
00000000
00000000
00000000
00000000
00000000
00000000
00000000
00000000
00000000
00000000
00000000
00000000
00000000
00000000
00000000
M000001M
00000000
00000000
00000000
00000000
00000000
00000000
00000000
00000000
00000000
00000000
00000000
00000000
00000000
00000000
00000000
M000001M
00000000
00000000
00000000
00000000
00000000
00000000
00000000
00000000
00000000
00000000
00000000
00000000
00000000
00000000
00000000
,  // measure 72
M000000M
M000000M
M000000M
00000000
,  // measure 73
00000000
00000000
M0011MMM
M100111M
,  // measure 74
M000001M
M000001M
M000000M
M000000M
,  // measure 75
M000000M
00000000
00000000
00000000
,  // measure 76
M000011M
M100111M
M000001M
M000001M
,  // measure 77
M000000M
M000000M
M000000M
00000000
,  // measure 78
00000000
00000000
M100111M
M000001M
,  // measure 79
M000001M
M000000M
M000000M
M000000M
,  // measure 80
M000000M
00000000
00000000
00000000
,  // measure 81
M100111M
M000001M
M000001M
M000000M
,  // measure 82
M000000M
M000000M
M011100M
00000000
,  // measure 83
00000000
00000000
M100111M
M000001M
,  // measure 84
M000001M
M000000M
M001000M
M001100M
,  // measure 85
M001000M
00000000
00000000
00000000
,  // measure 86
M100111M
M000001M
M000001M
M001000M
,  // measure 87
M001100M
M001000M
M000000M
00000000
,  // measure 88
00000000
00000000
M100111M
M000001M
,  // measure 89
M001001M
M001100M
M001000M
M000000M
,  // measure 90
M000000M
00000000
00000000
00000000
,  // measure 91
M100111M
M001001M
M001101M
M001000M
,  // measure 92
M000000M
M000000M
M000000M
00000000
,  // measure 93
00000000
00000000
M101111M
M001101M
,  // measure 94
M001001M
M000000M
M000000M
M000000M
,  // measure 95
M000000M
00000000
00000000
00000000
,  // measure 96
M101111M
M001101M
M001001M
M000000M
,  // measure 97
M000000M
M000000M
M011100M
00000000
,  // measure 98
00000000
00000000
M101111M
M001101M
,  // measure 99
M001001M
M000000M
M001000M
M001000M
,  // measure 100
M001100M
00000000
00000000
00000000
,  // measure 101
M101111M
M001101M
M001001M
M000100M
,  // measure 102
M000100M
M000110M
M000000M
00000000
,  // measure 103
00000000
00000000
M101111M
M001101M
,  // measure 104
M001011M
M000010M
M000011M
M000000M
,  // measure 105
M000000M
00000000
00000000
00000000
,  // measure 106
M101111M
M001111M
M001011M
M000011M
,  // measure 107
M000000M
M000000M
M000000M
00000000
,  // measure 108
00000000
00000000
M101111M
M001111M
,  // measure 109
M001011M
M000011M
M000000M
M000000M
,  // measure 110
M001100M
00000000
00000000
00000000
,  // measure 111
M101111M
M001111M
M001011M
M000011M
,  // measure 112
M000000M
M000100M
M001100M
00000000
,  // measure 113
00000000
00000000
M101111M
M001111M
,  // measure 114
M001011M
M000011M
M000100M
M001100M
,  // measure 115
M001000M
00000000
00000000
00000000
,  // measure 116
M101111M
M001111M
M001011M
M001011M
,  // measure 117
M011000M
M010000M
M000000M
00000000
,  // measure 118
00000000
00000000
M101111M
M001111M
,  // measure 119
M011011M
M110011M
M100000M
M000000M
,  // measure 120
M000000M
00000000
00000000
00000000
,  // measure 121
M101111M
M011111M
M111011M
M100011M
,  // measure 122
M000000M
M000000M
M000000M
00000000
,  // measure 123
00000000
00000000
MM1111MM
M111111M
,  // measure 124
M101011M
M000011M
M000000M
M000000M
,  // measure 125
M000000M
00000000
00000000
00000000
,  // measure 126
M1M00M1M
00011000
00000000
00000000
00000000
00000000
00000000
00000000
00000000
00000000
00000000
00000000
00000000
00000000
00000000
00000000
M111111M
00000000
00000000
00000000
00000000
00000000
00000000
00000000
00000000
00000000
00000000
00000000
00000000
00000000
00000000
00000000
M101011M
00000000
00000000
00000000
00000000
00000000
00000000
00000000
00000000
00000000
00000000
00000000
00000000
00000000
00000000
00000000
M000011M
00000000
00000000
00000000
00000000
00000000
00000000
00000000
00000000
00000000
00000000
00000000
00000000
00000000
00000000
00000000
,  // measure 127
M000000M
M000000M
M000000M
00000000
,  // measure 128
00000000
00000000
M01MM10M
M111111M
,  // measure 129
M101011M
M000011M
M000000M
M000000M
,  // measure 130
M000000M
00000000
00000000
00000000
,  // measure 131
M001100M
M111111M
M101011M
M000011M
,  // measure 132
M000000M
M000000M
M000000M
00000000
,  // measure 133
00000000
00000000
M111111M
M101011M
,  // measure 134
M000011M
M000000M
M000000M
M000000M
,  // measure 135
M000000M
00000000
00000000
00000000
,  // measure 136
MMMMMMMM
M101011M
M000011M
M000000M
,  // measure 137
M000000M
M000000M
M000000M
00000000
,  // measure 138
00000000
00000000
M111111M
M101011M
,  // measure 139
M000011M
M000000M
M000000M
M000000M
,  // measure 140
M000000M
00000000
00000000
00000000
,  // measure 141
MMMMMMMM
M101011M
M000011M
M000000M
,  // measure 142
M000000M
M000000M
M000000M
00000000
,  // measure 143
00000000
00000000
M111111M
M101011M
,  // measure 144
M000011M
M000000M
M000000M
M000000M
,  // measure 145
M000000M
00000000
00000000
00000000
,  // measure 146
MMMMMMMM
M101011M
M000011M
M000000M
,  // measure 147
M000000M
M000000M
M000000M
00000000
,  // measure 148
00000000
00000000
M111111M
M101011M
,  // measure 149
M000011M
M000000M
M000000M
M000000M
,  // measure 150
M000000M
00000000
00000000
00000000
,  // measure 151
MMMMMMMM
M101011M
M000011M
M000000M
,  // measure 152
M000000M
M000000M
M000000M
00000000
,  // measure 153
00000000
00000000
M111111M
M101011M
,  // measure 154
M000011M
M000000M
M000000M
M000000M
,  // measure 155
M000000M
00000000
00000000
00000000
,  // measure 156
M101011M
M000011M
M000000M
M000000M
,  // measure 157
M000000M
M000000M
M000000M
00000000
,  // measure 158
00000000
00000000
M101011M
M000011M
,  // measure 159
M000000M
M000000M
M000000M
M000000M
,  // measure 160
M011000M
00000000
00000000
00000000
,  // measure 161
M101011M
M000011M
M000000M
M000000M
,  // measure 162
M000100M
M001100M
M001000M
00000000
,  // measure 163
00000000
00000000
M101011M
M000011M
,  // measure 164
M000000M
M000100M
M001100M
M001000M
,  // measure 165
M000000M
00000000
00000000
00000000
,  // measure 166
M101011M
M000011M
M000100M
M001100M
,  // measure 167
M001000M
M000000M
M000000M
00000000
,  // measure 168
00000000
00000000
M101011M
M000111M
,  // measure 169
M001100M
M001000M
M000000M
M000000M
,  // measure 170
M000000M
00000000
00000000
00000000
,  // measure 171
M101111M
M001111M
M001000M
M000000M
,  // measure 172
M000000M
M000000M
M000000M
00000000
,  // measure 173
00000000
00000000
M101111M
M001111M
,  // measure 174
M001000M
M000000M
M000000M
M000000M
,  // measure 175
M000100M
00000000
00000000
00000000
,  // measure 176
M101111M
M001111M
M001000M
M000000M
,  // measure 177
M000000M
M001000M
M001000M
00000000
,  // measure 178
00000000
00000000
M101111M
M001111M
,  // measure 179
M001000M
M000000M
M010000M
M010000M
,  // measure 180
M010000M
00000000
00000000
00000000
,  // measure 181
M101111M
M001111M
M001000M
M000000M
,  // measure 182
M111100M
M000000M
M000000M
00000000
,  // measure 183
00000000
00000000
M101111M
M001111M
,  // measure 184
M001000M
M111100M
M000000M
M000000M
,  // measure 185
M000000M
00000000
00000000
00000000
,  // measure 186
M101111M
M011111M
M011000M
M010000M
,  // measure 187
M010000M
M000000M
M000000M
00000000
,  // measure 188
00000000
00000000
M101111M
M101111M
,  // measure 189
M101000M
M100000M
M100000M
M000000M
,  // measure 190
M000000M
00000000
00000000
00000000
,  // measure 191
M101111M
M101111M
M101000M
M100000M
,  // measure 192
M100000M
M000000M
M000000M
00000000
,  // measure 193
00000000
00000000
M101111M
M101111M
,  // measure 194
M101000M
M100000M
M100000M
M000000M
,  // measure 195
M011100M
00000000
00000000
00000000
,  // measure 196
M101111M
M101111M
M101000M
M100000M
,  // measure 197
M100000M
M011100M
M001000M
00000000
,  // measure 198
00000000
00000000
M101111M
M101111M
,  // measure 199
M101000M
M100000M
M101110M
M000100M
,  // measure 200
M000000M
00000000
00000000
00000000
,  // measure 201
M101111M
M101111M
M101000M
M100111M
,  // measure 202
M100010M
M000000M
M000000M
00000000
,  // measure 203
00000000
00000000
M101111M
M101111M
,  // measure 204
M101111M
M100010M
M100000M
M000000M
,  // measure 205
M000000M
00000000
00000000
00000000
,  // measure 206
M101111M
M101111M
M101111M
M100010M
,  // measure 207
M100000M
M000000M
M001100M
00000000
,  // measure 208
00000000
00000000
M101111M
M101111M
,  // measure 209
M101111M
M100010M
M100000M
M001100M
,  // measure 210
M000110M
00000000
00000000
00000000
,  // measure 211
M101111M
M101111M
M101111M
M100010M
,  // measure 212
M101100M
M000110M
M000000M
00000000
,  // measure 213
00000000
00000000
M101111M
M101111M
,  // measure 214
M101111M
M101110M
M100110M
M000000M
,  // measure 215
M000000M
00000000
00000000
00000000
,  // measure 216
M101111M
M101111M
M101111M
M101110M
,  // measure 217
M100110M
M000000M
M011100M
00000000
,  // measure 218
00000000
00000000
M101111M
M101111M
,  // measure 219
M101111M
M101110M
M100110M
M011100M
,  // measure 220
M000100M
00000000
00000000
00000000
,  // measure 221
M101111M
M101111M
M101111M
M101110M
,  // measure 222
M100110M
M000100M
M000100M
00000000
,  // measure 223
00000000
00000000
M101111M
M101111M
,  // measure 224
M101111M
M101110M
M100110M
M000010M
,  // measure 225
M000010M
00000000
00000000
00000000
,  // measure 226
M101111M
M101111M
M101111M
M101110M
,  // measure 227
M100111M
M000001M
M000011M
00000000
,  // measure 228
00000000
00000000
M101111M
M101111M
,  // measure 229
M101111M
M101111M
M100111M
M000011M
,  // measure 230
M000000M
00000000
00000000
00000000
,  // measure 231
M101111M
M101111M
M101111M
M101111M
,  // measure 232
M100111M
M000011M
M001100M
00000000
,  // measure 233
00000000
00000000
M101111M
M101111M
,  // measure 234
M101111M
M101111M
M101111M
M001111M
,  // measure 235
M000100M
00000000
00000000
00000000
,  // measure 236
M101111M
M101111M
M101111M
M101111M
,  // measure 237
M101111M
M001111M
M010100M
00000000
,  // measure 238
00000000
00000000
M101111M
M101111M
,  // measure 239
M101111M
M101111M
M101111M
M011111M
,  // measure 240
M010100M
00000000
00000000
00000000
,  // measure 241
M101111M
M101111M
M101111M
M101111M
,  // measure 242
M111111M
M011111M
M010100M
00000000
,  // measure 243
00000000
00000000
M101111M
M101111M
,  // measure 244
M101111M
M111111M
M111111M
M011111M
,  // measure 245
M010100M
00000000
00000000
00000000
,  // measure 246
M101111M
M101111M
M111111M
M111111M
,  // measure 247
M111111M
M011111M
M000100M
00000000
,  // measure 248
00000000
00000000
M101111M
M111111M
,  // measure 249
M111111M
M111111M
M111111M
M001111M
,  // measure 250
M000100M
00000000
00000000
00000000
,  // measure 251
M111111M
M111111M
M111111M
M111111M
,  // measure 252
M101111M
M001111M
M000100M
00000000
,  // measure 253
00000000
00000000
MMMMMMMM
MMMMMMMM
,  // measure 254
MMMMMMMM
MMMMMMMM
M101111M
M001111M
,  // measure 255
M000100M
00000000
00000000
00000000
,  // measure 256
M111111M
M111111M
M111111M
M111111M
,  // measure 257
M101111M
M001111M
M000100M
00000000
,  // measure 258
00000000
00000000
MMMMMMMM
MMMMMMMM
,  // measure 259
MMMMMMMM
MMMMMMMM
M101111M
M001111M
,  // measure 260
M000100M
00000000
00000000
00000000
,  // measure 261
M111111M
M111111M
M111111M
M111111M
,  // measure 262
M101111M
M001111M
M000100M
00000000
,  // measure 263
00000000
00000000
M1M1111M
M111111M
,  // measure 264
M111111M
M111111M
M101111M
M001111M
,  // measure 265
M000100M
00000000
00000000
00000000
,  // measure 266
MM10000M
00011110
00000000
00000000
00000000
00000000
00000000
00000000
00000000
00000000
00000000
00000000
00000000
00000000
00000000
00000000
M111111M
00000000
00000000
00000000
00000000
00000000
00000000
00000000
00000000
00000000
00000000
00000000
00000000
00000000
00000000
00000000
M111111M
00000000
00000000
00000000
00000000
00000000
00000000
00000000
00000000
00000000
00000000
00000000
00000000
00000000
00000000
00000000
M111111M
00000000
00000000
00000000
00000000
00000000
00000000
00000000
00000000
00000000
00000000
00000000
00000000
00000000
00000000
00000000
,  // measure 267
M101111M
M001111M
M000100M
00000000
,  // measure 268
00000000
00000000
00000000
00000000
00000000
00000000
00000000
00000000
00000000
00000000
00000000
00000000
00000000
00000000
00000000
00000000
00000000
00000000
00000000
00000000
00000000
00000000
00000000
00000000
00000000
00000000
00000000
00000000
00000000
00000000
00000000
00000000
M10M000M
00001110
00000000
00000000
00000000
00000000
00000000
00000000
00000000
00000000
00000000
00000000
00000000
00000000
00000000
00000000
M111111M
00000000
00000000
00000000
00000000
00000000
00000000
00000000
00000000
00000000
00000000
00000000
00000000
00000000
00000000
00000000
,  // measure 269
M111111M
M111111M
M101111M
M001111M
,  // measure 270
M000100M
00000000
00000000
00000000
,  // measure 271
M0010M0M
00001010
00000000
00000000
00000000
00000000
00000000
00000000
00000000
00000000
00000000
00000000
00000000
00000000
00000000
00000000
M111111M
00000000
00000000
00000000
00000000
00000000
00000000
00000000
00000000
00000000
00000000
00000000
00000000
00000000
00000000
00000000
M111111M
00000000
00000000
00000000
00000000
00000000
00000000
00000000
00000000
00000000
00000000
00000000
00000000
00000000
00000000
00000000
M111111M
00000000
00000000
00000000
00000000
00000000
00000000
00000000
00000000
00000000
00000000
00000000
00000000
00000000
00000000
00000000
,  // measure 272
M101111M
M001111M
M000100M
00000000
,  // measure 273
00000000
00000000
00000000
00000000
00000000
00000000
00000000
00000000
00000000
00000000
00000000
00000000
00000000
00000000
00000000
00000000
00000000
00000000
00000000
00000000
00000000
00000000
00000000
00000000
00000000
00000000
00000000
00000000
00000000
00000000
00000000
00000000
M00001MM
00001000
00000000
00000000
00000000
00000000
00000000
00000000
00000000
00000000
00000000
00000000
00000000
00000000
00000000
00000000
M111111M
00000000
00000000
00000000
00000000
00000000
00000000
00000000
00000000
00000000
00000000
00000000
00000000
00000000
00000000
00000000
,  // measure 274
M111111M
M111111M
M101111M
M001111M
,  // measure 275
M000100M
00000000
00000000
00000000
,  // measure 276
M000M01M
M111111M
M111111M
M111111M
,  // measure 277
M101111M
M001111M
M000100M
00000000
,  // measure 278
00000000
00000000
M000100M
M111111M
,  // measure 279
M111111M
M111111M
M101111M
M001111M
,  // measure 280
M000100M
00000000
00000000
00000000
,  // measure 281
M111111M
M111111M
M111111M
M101111M
,  // measure 282
M001111M
M000100M
M000000M
00000000
,  // measure 283
00000000
00000000
M1111M1M
M111111M
,  // measure 284
M111111M
M101111M
M001111M
M000100M
,  // measure 285
M000000M
00000000
00000000
00000000
,  // measure 286
M0M0010M
01011010
00000000
00000000
00000000
00000000
00000000
00000000
00000000
00000000
00000000
00000000
00000000
00000000
00000000
00000000
M111111M
00000000
00000000
00000000
00000000
00000000
00000000
00000000
00000000
00000000
00000000
00000000
00000000
00000000
00000000
00000000
M111111M
00000000
00000000
00000000
00000000
00000000
00000000
00000000
00000000
00000000
00000000
00000000
00000000
00000000
00000000
00000000
M101111M
00000000
00000000
00000000
00000000
00000000
00000000
00000000
00000000
00000000
00000000
00000000
00000000
00000000
00000000
00000000
,  // measure 287
M001111M
M000100M
M000000M
00000000
,  // measure 288
00000000
00000000
00000000
00000000
00000000
00000000
00000000
00000000
00000000
00000000
00000000
00000000
00000000
00000000
00000000
00000000
00000000
00000000
00000000
00000000
00000000
00000000
00000000
00000000
00000000
00000000
00000000
00000000
00000000
00000000
00000000
00000000
M010M00M
01010010
00000000
00000000
00000000
00000000
00000000
00000000
00000000
00000000
00000000
00000000
00000000
00000000
00000000
00000000
M111111M
00000000
00000000
00000000
00000000
00000000
00000000
00000000
00000000
00000000
00000000
00000000
00000000
00000000
00000000
00000000
,  // measure 289
M111111M
M101111M
M001111M
M000100M
,  // measure 290
M000000M
00000000
00000000
00000000
,  // measure 291
M00M100M
01000010
00000000
00000000
00000000
00000000
00000000
00000000
00000000
00000000
00000000
00000000
00000000
00000000
00000000
00000000
M111111M
00000000
00000000
00000000
00000000
00000000
00000000
00000000
00000000
00000000
00000000
00000000
00000000
00000000
00000000
00000000
M111111M
00000000
00000000
00000000
00000000
00000000
00000000
00000000
00000000
00000000
00000000
00000000
00000000
00000000
00000000
00000000
M101111M
00000000
00000000
00000000
00000000
00000000
00000000
00000000
00000000
00000000
00000000
00000000
00000000
00000000
00000000
00000000
,  // measure 292
M001111M
M000100M
M000000M
00000000
,  // measure 293
00000000
00000000
00000000
00000000
00000000
00000000
00000000
00000000
00000000
00000000
00000000
00000000
00000000
00000000
00000000
00000000
00000000
00000000
00000000
00000000
00000000
00000000
00000000
00000000
00000000
00000000
00000000
00000000
00000000
00000000
00000000
00000000
M00100MM
01000000
00000000
00000000
00000000
00000000
00000000
00000000
00000000
00000000
00000000
00000000
00000000
00000000
00000000
00000000
M111111M
00000000
00000000
00000000
00000000
00000000
00000000
00000000
00000000
00000000
00000000
00000000
00000000
00000000
00000000
00000000
,  // measure 294
M111111M
M101111M
M001111M
M000100M
,  // measure 295
M000000M
00000000
00000000
00000000
,  // measure 296
MM00001M
M111111M
M111111M
M101111M
,  // measure 297
M001111M
M000100M
M000000M
00000000
,  // measure 298
00000000
00000000
M100000M
M111111M
,  // measure 299
M111111M
M101111M
M001111M
M000100M
,  // measure 300
M000000M
00000000
00000000
00000000
,  // measure 301
M111111M
M111111M
M101111M
M001111M
,  // measure 302
M000100M
M000000M
M000000M
00000000
,  // measure 303
00000000
00000000
M11M111M
M111111M
,  // measure 304
M101111M
M001111M
M000100M
M000000M
,  // measure 305
M000000M
00000000
00000000
00000000
,  // measure 306
M11M111M
M111111M
M101111M
M001111M
,  // measure 307
M000100M
M000000M
M000000M
00000000
,  // measure 308
00000000
00000000
00000000
00000000
00000000
00000000
00000000
00000000
00000000
00000000
00000000
00000000
00000000
00000000
00000000
00000000
00000000
00000000
00000000
00000000
00000000
00000000
00000000
00000000
00000000
00000000
00000000
00000000
00000000
00000000
00000000
00000000
M0M1000M
01001110
00000000
00000000
00000000
00000000
00000000
00000000
00000000
00000000
00000000
00000000
00000000
00000000
00000000
00000000
M111111M
00000000
00000000
00000000
00000000
00000000
00000000
00000000
00000000
00000000
00000000
00000000
00000000
00000000
00000000
00000000
,  // measure 309
M101111M
M001111M
M000100M
M000000M
,  // measure 310
M000000M
00000000
00000000
00000000
,  // measure 311
M0100M0M
01001010
00000000
00000000
00000000
00000000
00000000
00000000
00000000
00000000
00000000
00000000
00000000
00000000
00000000
00000000
M111111M
00000000
00000000
00000000
00000000
00000000
00000000
00000000
00000000
00000000
00000000
00000000
00000000
00000000
00000000
00000000
M101111M
00000000
00000000
00000000
00000000
00000000
00000000
00000000
00000000
00000000
00000000
00000000
00000000
00000000
00000000
00000000
M001111M
00000000
00000000
00000000
00000000
00000000
00000000
00000000
00000000
00000000
00000000
00000000
00000000
00000000
00000000
00000000
,  // measure 312
M000100M
M000000M
M000000M
00000000
,  // measure 313
00000000
00000000
00000000
00000000
00000000
00000000
00000000
00000000
00000000
00000000
00000000
00000000
00000000
00000000
00000000
00000000
00000000
00000000
00000000
00000000
00000000
00000000
00000000
00000000
00000000
00000000
00000000
00000000
00000000
00000000
00000000
00000000
M000M10M
01000010
00000000
00000000
00000000
00000000
00000000
00000000
00000000
00000000
00000000
00000000
00000000
00000000
00000000
00000000
M111111M
00000000
00000000
00000000
00000000
00000000
00000000
00000000
00000000
00000000
00000000
00000000
00000000
00000000
00000000
00000000
,  // measure 314
M101111M
M001111M
M000100M
M000000M
,  // measure 315
M000000M
00000000
00000000
00000000
,  // measure 316
M00010MM
01000000
00000000
00000000
00000000
00000000
00000000
00000000
00000000
00000000
00000000
00000000
00000000
00000000
00000000
00000000
M111111M
00000000
00000000
00000000
00000000
00000000
00000000
00000000
00000000
00000000
00000000
00000000
00000000
00000000
00000000
00000000
M101111M
00000000
00000000
00000000
00000000
00000000
00000000
00000000
00000000
00000000
00000000
00000000
00000000
00000000
00000000
00000000
M001111M
00000000
00000000
00000000
00000000
00000000
00000000
00000000
00000000
00000000
00000000
00000000
00000000
00000000
00000000
00000000
,  // measure 317
M000100M
M000000M
M000000M
00000000
,  // measure 318
00000000
00000000
MM00001M
M111111M
,  // measure 319
M101111M
M001111M
M000100M
M000000M
,  // measure 320
M000000M
00000000
00000000
00000000
,  // measure 321
M100000M
M111111M
M101111M
M001111M
,  // measure 322
M000100M
M000000M
M000000M
00000000
,  // measure 323
00000000
00000000
M111111M
M101111M
,  // measure 324
M001111M
M000100M
M000000M
M000000M
,  // measure 325
M000000M
00000000
00000000
00000000
,  // measure 326
M11111MM
M101111M
M001111M
M000100M
,  // measure 327
M000000M
M000000M
M000000M
00000000
,  // measure 328
00000000
00000000
00000000
00000000
00000000
00000000
00000000
00000000
00000000
00000000
00000000
00000000
00000000
00000000
00000000
00000000
00000000
00000000
00000000
00000000
00000000
00000000
00000000
00000000
00000000
00000000
00000000
00000000
00000000
00000000
00000000
00000000
M0000M1M
01111000
00000000
00000000
00000000
00000000
00000000
00000000
00000000
00000000
00000000
00000000
00000000
00000000
00000000
00000000
M101111M
00000000
00000000
00000000
00000000
00000000
00000000
00000000
00000000
00000000
00000000
00000000
00000000
00000000
00000000
00000000
,  // measure 329
M001111M
M000100M
M000000M
M000000M
,  // measure 330
M000000M
00000000
00000000
00000000
,  // measure 331
M000M10M
01110000
00000000
00000000
00000000
00000000
00000000
00000000
00000000
00000000
00000000
00000000
00000000
00000000
00000000
00000000
M101111M
00000000
00000000
00000000
00000000
00000000
00000000
00000000
00000000
00000000
00000000
00000000
00000000
00000000
00000000
00000000
M001111M
00000000
00000000
00000000
00000000
00000000
00000000
00000000
00000000
00000000
00000000
00000000
00000000
00000000
00000000
00000000
M000100M
00000000
00000000
00000000
00000000
00000000
00000000
00000000
00000000
00000000
00000000
00000000
00000000
00000000
00000000
00000000
,  // measure 332
M000000M
M000000M
M000000M
00000000
,  // measure 333
00000000
00000000
00000000
00000000
00000000
00000000
00000000
00000000
00000000
00000000
00000000
00000000
00000000
00000000
00000000
00000000
00000000
00000000
00000000
00000000
00000000
00000000
00000000
00000000
00000000
00000000
00000000
00000000
00000000
00000000
00000000
00000000
M00M100M
01100000
00000000
00000000
00000000
00000000
00000000
00000000
00000000
00000000
00000000
00000000
00000000
00000000
00000000
00000000
M101111M
00000000
00000000
00000000
00000000
00000000
00000000
00000000
00000000
00000000
00000000
00000000
00000000
00000000
00000000
00000000
,  // measure 334
M001111M
M000100M
M000000M
M000000M
,  // measure 335
M000000M
00000000
00000000
00000000
,  // measure 336
M0M1000M
01000000
00000000
00000000
00000000
00000000
00000000
00000000
00000000
00000000
00000000
00000000
00000000
00000000
00000000
00000000
M101111M
00000000
00000000
00000000
00000000
00000000
00000000
00000000
00000000
00000000
00000000
00000000
00000000
00000000
00000000
00000000
M001111M
00000000
00000000
00000000
00000000
00000000
00000000
00000000
00000000
00000000
00000000
00000000
00000000
00000000
00000000
00000000
M000100M
00000000
00000000
00000000
00000000
00000000
00000000
00000000
00000000
00000000
00000000
00000000
00000000
00000000
00000000
00000000
,  // measure 337
M000000M
M000000M
M000000M
00000000
,  // measure 338
00000000
00000000
MM10000M
M101111M
,  // measure 339
M001111M
M000100M
M000000M
M000000M
,  // measure 340
M000000M
00000000
00000000
00000000
,  // measure 341
M100000M
M101111M
M001111M
M000100M
,  // measure 342
M000000M
M000000M
M000000M
00000000
,  // measure 343
00000000
00000000
M101111M
M001111M
,  // measure 344
M000100M
M000000M
M000000M
M000000M
,  // measure 345
M000000M
00000000
00000000
00000000
,  // measure 346
M101111M
M001111M
M000100M
M000000M
,  // measure 347
M000000M
M000000M
M001100M
00000000
,  // measure 348
00000000
00000000
M101111M
M001111M
,  // measure 349
M000100M
M000000M
M000000M
M001100M
,  // measure 350
M011000M
00000000
00000000
00000000
,  // measure 351
M101111M
M001111M
M000100M
M000000M
,  // measure 352
M000110M
M001100M
M000000M
00000000
,  // measure 353
00000000
00000000
M101111M
M001111M
,  // measure 354
M000100M
M000011M
M000110M
M000000M
,  // measure 355
M000000M
00000000
00000000
00000000
,  // measure 356
M101111M
M001111M
M000111M
M000110M
,  // measure 357
M000000M
M000000M
M000000M
00000000
,  // measure 358
00000000
00000000
M101111M
M001111M
,  // measure 359
M000111M
M000110M
M000000M
M000000M
,  // measure 360
M011000M
00000000
00000000
00000000
,  // measure 361
M101111M
M001111M
M000111M
M000110M
,  // measure 362
M001000M
M011000M
M010000M
00000000
,  // measure 363
00000000
00000000
M101111M
M001111M
,  // measure 364
M000111M
M001110M
M011000M
M010000M
,  // measure 365
M000000M
00000000
00000000
00000000
,  // measure 366
M101111M
M001111M
M010111M
M110110M
,  // measure 367
M100000M
M000000M
M000000M
00000000
,  // measure 368
00000000
00000000
M101111M
M011111M
,  // measure 369
M110111M
M100110M
M000000M
M000000M
,  // measure 370
M000000M
00000000
00000000
00000000
,  // measure 371
M111111M
M111111M
M100111M
M000110M
,  // measure 372
M000000M
M000000M
M000000M
00000000
,  // measure 373
00000000
00000000
M11MM11M
M111111M
,  // measure 374
M100111M
M000110M
M000000M
M000000M
,  // measure 375
M000000M
00000000
00000000
00000000
,  // measure 376
M0M11M0M
01000010
00000000
00000000
00000000
00000000
00000000
00000000
00000000
00000000
00000000
00000000
00000000
00000000
00000000
00000000
M111111M
00000000
00000000
00000000
00000000
00000000
00000000
00000000
00000000
00000000
00000000
00000000
00000000
00000000
00000000
00000000
M100111M
00000000
00000000
00000000
00000000
00000000
00000000
00000000
00000000
00000000
00000000
00000000
00000000
00000000
00000000
00000000
M000110M
00000000
00000000
00000000
00000000
00000000
00000000
00000000
00000000
00000000
00000000
00000000
00000000
00000000
00000000
00000000
,  // measure 377
M000000M
M000000M
M000000M
00000000
,  // measure 378
00000000
00000000
MM1001MM
M111111M
,  // measure 379
M100111M
M000110M
M000000M
M000000M
,  // measure 380
M000000M
00000000
00000000
00000000
,  // measure 381
M100001M
M111111M
M100111M
M000110M
,  // measure 382
M000000M
M000000M
M000000M
00000000
,  // measure 383
00000000
00000000
M111111M
M100111M
,  // measure 384
M000110M
M000000M
M000000M
M000000M
,  // measure 385
M000000M
00000000
00000000
00000000
,  // measure 386
MM11111M
M100111M
M000110M
M000000M
,  // measure 387
M000000M
M000000M
M000000M
00000000
,  // measure 388
00000000
00000000
00000000
00000000
00000000
00000000
00000000
00000000
00000000
00000000
00000000
00000000
00000000
00000000
00000000
00000000
00000000
00000000
00000000
00000000
00000000
00000000
00000000
00000000
00000000
00000000
00000000
00000000
00000000
00000000
00000000
00000000
M10M000M
00101110
00000000
00000000
00000000
00000000
00000000
00000000
00000000
00000000
00000000
00000000
00000000
00000000
00000000
00000000
M100111M
00000000
00000000
00000000
00000000
00000000
00000000
00000000
00000000
00000000
00000000
00000000
00000000
00000000
00000000
00000000
,  // measure 389
M000110M
M000000M
M000000M
M000000M
,  // measure 390
M000000M
00000000
00000000
00000000
,  // measure 391
M0M1000M
00001110
00000000
00000000
00000000
00000000
00000000
00000000
00000000
00000000
00000000
00000000
00000000
00000000
00000000
00000000
M100111M
00000000
00000000
00000000
00000000
00000000
00000000
00000000
00000000
00000000
00000000
00000000
00000000
00000000
00000000
00000000
M000110M
00000000
00000000
00000000
00000000
00000000
00000000
00000000
00000000
00000000
00000000
00000000
00000000
00000000
00000000
00000000
M000000M
00000000
00000000
00000000
00000000
00000000
00000000
00000000
00000000
00000000
00000000
00000000
00000000
00000000
00000000
00000000
,  // measure 392
M000000M
M000000M
M000000M
00000000
,  // measure 393
00000000
00000000
00000000
00000000
00000000
00000000
00000000
00000000
00000000
00000000
00000000
00000000
00000000
00000000
00000000
00000000
00000000
00000000
00000000
00000000
00000000
00000000
00000000
00000000
00000000
00000000
00000000
00000000
00000000
00000000
00000000
00000000
M0100M0M
00001010
00000000
00000000
00000000
00000000
00000000
00000000
00000000
00000000
00000000
00000000
00000000
00000000
00000000
00000000
M100111M
00000000
00000000
00000000
00000000
00000000
00000000
00000000
00000000
00000000
00000000
00000000
00000000
00000000
00000000
00000000
,  // measure 394
M000110M
M000000M
M000000M
M000000M
,  // measure 395
M000000M
00000000
00000000
00000000
,  // measure 396
M000M10M
00000010
00000000
00000000
00000000
00000000
00000000
00000000
00000000
00000000
00000000
00000000
00000000
00000000
00000000
00000000
M100111M
00000000
00000000
00000000
00000000
00000000
00000000
00000000
00000000
00000000
00000000
00000000
00000000
00000000
00000000
00000000
M000110M
00000000
00000000
00000000
00000000
00000000
00000000
00000000
00000000
00000000
00000000
00000000
00000000
00000000
00000000
00000000
M000000M
00000000
00000000
00000000
00000000
00000000
00000000
00000000
00000000
00000000
00000000
00000000
00000000
00000000
00000000
00000000
,  // measure 397
M000000M
M000000M
M000000M
00000000
,  // measure 398
00000000
00000000
M00010MM
M100111M
,  // measure 399
M000110M
M000000M
M000000M
M000000M
,  // measure 400
M000000M
00000000
00000000
00000000
,  // measure 401
M000001M
M100111M
M000110M
M000000M
,  // measure 402
M000000M
M000000M
M000000M
00000000
,  // measure 403
00000000
00000000
M100111M
M000110M
,  // measure 404
M000000M
M000000M
M000000M
M000000M
,  // measure 405
M000000M
00000000
00000000
00000000
,  // measure 406
M100111M
M000110M
M000000M
M000000M
,  // measure 407
M000000M
M000000M
M011100M
00000000
,  // measure 408
00000000
00000000
M100111M
M000110M
,  // measure 409
M000000M
M000000M
M000000M
M011000M
,  // measure 410
M001000M
00000000
00000000
00000000
,  // measure 411
M100111M
M000110M
M000000M
M000000M
,  // measure 412
M001100M
M000100M
M000100M
00000000
,  // measure 413
00000000
00000000
M100111M
M000110M
,  // measure 414
M000000M
M000010M
M001110M
M000000M
,  // measure 415
M000000M
00000000
00000000
00000000
,  // measure 416
M100111M
M000110M
M000001M
M000111M
,  // measure 417
M000000M
M000000M
M000000M
00000000
,  // measure 418
00000000
00000000
M100111M
M000111M
,  // measure 419
M000111M
M000000M
M000000M
M000000M
,  // measure 420
M000000M
00000000
00000000
00000000
,  // measure 421
M100111M
M000111M
M000111M
M000000M
,  // measure 422
M000000M
M000000M
M001100M
00000000
,  // measure 423
00000000
00000000
M100111M
M000111M
,  // measure 424
M000111M
M000000M
M000000M
M001100M
,  // measure 425
M001100M
00000000
00000000
00000000
,  // measure 426
M100111M
M000111M
M000111M
M000000M
,  // measure 427
M001100M
M001100M
M000000M
00000000
,  // measure 428
00000000
00000000
M100111M
M000111M
,  // measure 429
M000111M
M011000M
M011000M
M000000M
,  // measure 430
M000000M
00000000
00000000
00000000
,  // measure 431
M100111M
M000111M
M011111M
M011000M
,  // measure 432
M000000M
M000000M
M000000M
00000000
,  // measure 433
00000000
00000000
M100111M
M011111M
,  // measure 434
M011111M
M000000M
M000000M
M000000M
,  // measure 435
M000000M
00000000
00000000
00000000
,  // measure 436
M111111M
M011111M
M000111M
M000000M
,  // measure 437
M000000M
M000000M
M000000M
00000000
,  // measure 438
00000000
00000000
MM11111M
M011111M
,  // measure 439
M000111M
M000000M
M000000M
M000000M
,  // measure 440
M000000M
00000000
00000000
00000000
,  // measure 441
M1M0000M
00011110
00000000
00000000
00000000
00000000
00000000
00000000
00000000
00000000
00000000
00000000
00000000
00000000
00000000
00000000
M011111M
00000000
00000000
00000000
00000000
00000000
00000000
00000000
00000000
00000000
00000000
00000000
00000000
00000000
00000000
00000000
M000111M
00000000
00000000
00000000
00000000
00000000
00000000
00000000
00000000
00000000
00000000
00000000
00000000
00000000
00000000
00000000
M000000M
00000000
00000000
00000000
00000000
00000000
00000000
00000000
00000000
00000000
00000000
00000000
00000000
00000000
00000000
00000000
,  // measure 442
M000000M
M000000M
M000000M
00000000
,  // measure 443
00000000
00000000
00000000
00000000
00000000
00000000
00000000
00000000
00000000
00000000
00000000
00000000
00000000
00000000
00000000
00000000
00000000
00000000
00000000
00000000
00000000
00000000
00000000
00000000
00000000
00000000
00000000
00000000
00000000
00000000
00000000
00000000
M01M000M
00001110
00000000
00000000
00000000
00000000
00000000
00000000
00000000
00000000
00000000
00000000
00000000
00000000
00000000
00000000
M011111M
00000000
00000000
00000000
00000000
00000000
00000000
00000000
00000000
00000000
00000000
00000000
00000000
00000000
00000000
00000000
,  // measure 444
M000111M
M000000M
M000000M
M000000M
,  // measure 445
M000000M
00000000
00000000
00000000
,  // measure 446
M001M00M
00000110
00000000
00000000
00000000
00000000
00000000
00000000
00000000
00000000
00000000
00000000
00000000
00000000
00000000
00000000
M011111M
00000000
00000000
00000000
00000000
00000000
00000000
00000000
00000000
00000000
00000000
00000000
00000000
00000000
00000000
00000000
M000111M
00000000
00000000
00000000
00000000
00000000
00000000
00000000
00000000
00000000
00000000
00000000
00000000
00000000
00000000
00000000
M000000M
00000000
00000000
00000000
00000000
00000000
00000000
00000000
00000000
00000000
00000000
00000000
00000000
00000000
00000000
00000000
,  // measure 447
M000000M
M000000M
M000000M
00000000
,  // measure 448
00000000
00000000
00000000
00000000
00000000
00000000
00000000
00000000
00000000
00000000
00000000
00000000
00000000
00000000
00000000
00000000
00000000
00000000
00000000
00000000
00000000
00000000
00000000
00000000
00000000
00000000
00000000
00000000
00000000
00000000
00000000
00000000
M0001M0M
00000010
00000000
00000000
00000000
00000000
00000000
00000000
00000000
00000000
00000000
00000000
00000000
00000000
00000000
00000000
M011111M
00000000
00000000
00000000
00000000
00000000
00000000
00000000
00000000
00000000
00000000
00000000
00000000
00000000
00000000
00000000
,  // measure 449
M000111M
M000000M
M000000M
M000000M
,  // measure 450
M000000M
00000000
00000000
00000000
,  // measure 451
M00001MM
M011111M
M000111M
M000000M
,  // measure 452
M000000M
M000000M
M000000M
00000000
,  // measure 453
00000000
00000000
M000001M
M011111M
,  // measure 454
M000111M
M000000M
M000000M
M000000M
,  // measure 455
M000000M
00000000
00000000
00000000
,  // measure 456
M011111M
M000111M
M000000M
M000000M
,  // measure 457
M000000M
M000000M
M000000M
00000000
,  // measure 458
00000000
00000000
M011111M
M000111M
,  // measure 459
M000000M
M000000M
M000000M
M000000M
,  // measure 460
M011100M
00000000
00000000
00000000
,  // measure 461
M011111M
M000111M
M000000M
M000000M
,  // measure 462
M000000M
M001000M
M001000M
00000000
,  // measure 463
00000000
00000000
M011111M
M000111M
,  // measure 464
M000000M
M000000M
M010000M
M011100M
,  // measure 465
M000000M
00000000
00000000
00000000
,  // measure 466
M011111M
M000111M
M000000M
M100000M
,  // measure 467
M111000M
M000000M
M000000M
00000000
,  // measure 468
00000000
00000000
M011111M
M000111M
,  // measure 469
M100000M
M111000M
M000000M
M000000M
,  // measure 470
M000000M
00000000
00000000
00000000
,  // measure 471
M011111M
M100111M
M111000M
M000000M
,  // measure 472
M000000M
M000000M
M000000M
00000000
,  // measure 473
00000000
00000000
M111111M
M111111M
,  // measure 474
M000000M
M000000M
M000000M
M000000M
,  // measure 475
M000000M
00000000
00000000
00000000
,  // measure 476
M11M111M
M111111M
M000000M
M000000M
,  // measure 477
M000000M
M000000M
M000000M
00000000
,  // measure 478
00000000
00000000
00000000
00000000
00000000
00000000
00000000
00000000
00000000
00000000
00000000
00000000
00000000
00000000
00000000
00000000
00000000
00000000
00000000
00000000
00000000
00000000
00000000
00000000
00000000
00000000
00000000
00000000
00000000
00000000
00000000
00000000
MM01000M
00101110
00000000
00000000
00000000
00000000
00000000
00000000
00000000
00000000
00000000
00000000
00000000
00000000
00000000
00000000
M111111M
00000000
00000000
00000000
00000000
00000000
00000000
00000000
00000000
00000000
00000000
00000000
00000000
00000000
00000000
00000000
,  // measure 479
M000000M
M000000M
M000000M
M000000M
,  // measure 480
M000000M
00000000
00000000
00000000
,  // measure 481
M1M0000M
00001110
00000000
00000000
00000000
00000000
00000000
00000000
00000000
00000000
00000000
00000000
00000000
00000000
00000000
00000000
M111111M
00000000
00000000
00000000
00000000
00000000
00000000
00000000
00000000
00000000
00000000
00000000
00000000
00000000
00000000
00000000
M000000M
00000000
00000000
00000000
00000000
00000000
00000000
00000000
00000000
00000000
00000000
00000000
00000000
00000000
00000000
00000000
M000000M
00000000
00000000
00000000
00000000
00000000
00000000
00000000
00000000
00000000
00000000
00000000
00000000
00000000
00000000
00000000
,  // measure 482
M000000M
M000000M
M000000M
00000000
,  // measure 483
00000000
00000000
00000000
00000000
00000000
00000000
00000000
00000000
00000000
00000000
00000000
00000000
00000000
00000000
00000000
00000000
00000000
00000000
00000000
00000000
00000000
00000000
00000000
00000000
00000000
00000000
00000000
00000000
00000000
00000000
00000000
00000000
M010M00M
00000110
00000000
00000000
00000000
00000000
00000000
00000000
00000000
00000000
00000000
00000000
00000000
00000000
00000000
00000000
M111111M
00000000
00000000
00000000
00000000
00000000
00000000
00000000
00000000
00000000
00000000
00000000
00000000
00000000
00000000
00000000
,  // measure 484
M000000M
M000000M
M000000M
M000000M
,  // measure 485
M000000M
00000000
00000000
00000000
,  // measure 486
M00010MM
00000100
00000000
00000000
00000000
00000000
00000000
00000000
00000000
00000000
00000000
00000000
00000000
00000000
00000000
00000000
M111111M
00000000
00000000
00000000
00000000
00000000
00000000
00000000
00000000
00000000
00000000
00000000
00000000
00000000
00000000
00000000
M000000M
00000000
00000000
00000000
00000000
00000000
00000000
00000000
00000000
00000000
00000000
00000000
00000000
00000000
00000000
00000000
M000000M
00000000
00000000
00000000
00000000
00000000
00000000
00000000
00000000
00000000
00000000
00000000
00000000
00000000
00000000
00000000
,  // measure 487
M000000M
M000000M
M000000M
00000000
,  // measure 488
00000000
00000000
M0000M1M
M111111M
,  // measure 489
M000000M
M000000M
M000000M
M000000M
,  // measure 490
M000000M
00000000
00000000
00000000
,  // measure 491
M000010M
M111111M
M000000M
M000000M
,  // measure 492
M000000M
M000000M
M000000M
00000000
,  // measure 493
00000000
00000000
M111M11M
M000000M
,  // measure 494
M000000M
M000000M
M000000M
M000000M
,  // measure 495
M000000M
00000000
00000000
00000000
,  // measure 496
M00M100M
01100110
00000000
00000000
00000000
00000000
00000000
00000000
00000000
00000000
00000000
00000000
00000000
00000000
00000000
00000000
M000000M
00000000
00000000
00000000
00000000
00000000
00000000
00000000
00000000
00000000
00000000
00000000
00000000
00000000
00000000
00000000
M000000M
00000000
00000000
00000000
00000000
00000000
00000000
00000000
00000000
00000000
00000000
00000000
00000000
00000000
00000000
00000000
M000000M
00000000
00000000
00000000
00000000
00000000
00000000
00000000
00000000
00000000
00000000
00000000
00000000
00000000
00000000
00000000
,  // measure 497
M000000M
M000000M
M000000M
00000000
,  // measure 498
00000000
00000000
00000000
00000000
00000000
00000000
00000000
00000000
00000000
00000000
00000000
00000000
00000000
00000000
00000000
00000000
00000000
00000000
00000000
00000000
00000000
00000000
00000000
00000000
00000000
00000000
00000000
00000000
00000000
00000000
00000000
00000000
M0010M0M
01100010
00000000
00000000
00000000
00000000
00000000
00000000
00000000
00000000
00000000
00000000
00000000
00000000
00000000
00000000
M000000M
00000000
00000000
00000000
00000000
00000000
00000000
00000000
00000000
00000000
00000000
00000000
00000000
00000000
00000000
00000000
,  // measure 499
M000000M
M000000M
M000000M
M000000M
,  // measure 500
M000000M
00000000
00000000
00000000
,  // measure 501
M0M0010M
01000010
00000000
00000000
00000000
00000000
00000000
00000000
00000000
00000000
00000000
00000000
00000000
00000000
00000000
00000000
M000000M
00000000
00000000
00000000
00000000
00000000
00000000
00000000
00000000
00000000
00000000
00000000
00000000
00000000
00000000
00000000
M000000M
00000000
00000000
00000000
00000000
00000000
00000000
00000000
00000000
00000000
00000000
00000000
00000000
00000000
00000000
00000000
M000000M
00000000
00000000
00000000
00000000
00000000
00000000
00000000
00000000
00000000
00000000
00000000
00000000
00000000
00000000
00000000
,  // measure 502
M000000M
M000000M
M000000M
00000000
,  // measure 503
00000000
00000000
00000000
00000000
00000000
00000000
00000000
00000000
00000000
00000000
00000000
00000000
00000000
00000000
00000000
00000000
00000000
00000000
00000000
00000000
00000000
00000000
00000000
00000000
00000000
00000000
00000000
00000000
00000000
00000000
00000000
00000000
M01000MM
01000000
00000000
00000000
00000000
00000000
00000000
00000000
00000000
00000000
00000000
00000000
00000000
00000000
00000000
00000000
M000000M
00000000
00000000
00000000
00000000
00000000
00000000
00000000
00000000
00000000
00000000
00000000
00000000
00000000
00000000
00000000
,  // measure 504
M000000M
M000000M
M000000M
M000000M
,  // measure 505
M000000M
00000000
00000000
00000000
,  // measure 506
MM00001M
M000000M
M000000M
M000000M
,  // measure 507
M000000M
M000000M
M000000M
00000000
,  // measure 508
00000000
00000000
M100000M
M000000M
,  // measure 509
M000000M
M000000M
M000000M
M000000M
,  // measure 510
M000000M
00000000
00000000
00000000
,  // measure 511
M000000M
M000000M
M000000M
M000000M
,  // measure 512
M000000M
M000000M
M000000M
00000000
,  // measure 513
00000000
00000000
M00000MM
M00000MM
,  // measure 514
M00000MM
M00000MM
MM00000M
MM00000M
,  // measure 515
MM00000M
00000000
00000000
00000000
,  // measure 516
M0000MMM
M0000MMM
M0000MMM
M0000MMM
,  // measure 517
MMM0000M
MMM0000M
MMM0000M
00000000
,  // measure 518
00000000
00000000
M000MMMM
M000MMMM
,  // measure 519
M000MMMM
M000MMMM
MMMM000M
MMMM000M
,  // measure 520
MMMM000M
00000000
00000000
00000000
,  // measure 521
M00MMMMM
M00MMMMM
M00MMMMM
M00MMMMM
,  // measure 522
MMMMM00M
MMMMM00M
MMMMM00M
00000000
,  // measure 523
00000000
00000000
M0MMMMMM
M0MMMMMM
,  // measure 524
M0MMMMMM
M0MMMMMM
MMMMMM0M
MMMMMM0M
,  // measure 525
MMMMMM0M
00000000
00000000
00000000
,  // measure 526
M000000M
MMMMMMMM
MMMMMMMM
MMMMMMMM
,  // measure 527
MMMMMMMM
MMMMMMMM
MMMMMMMM
00000000
,  // measure 528
00000000
00000000
M000000M
M000000M
,  // measure 529
MMMMMMMM
MMMMMMMM
MMMMMMMM
MMMMMMMM
,  // measure 530
MMMMMMMM
00000000
00000000
00000000
,  // measure 531
M000000M
M000000M
M000000M
MMMMMMMM
,  // measure 532
MMMMMMMM
MMMMMMMM
MMMMMMMM
00000000
,  // measure 533
00000000
00000000
M000000M
M000000M
,  // measure 534
M000000M
M000000M
MMMMMMMM
MMMMMMMM
,  // measure 535
MMMMMMMM
00000000
00000000
00000000
,  // measure 536
M000000M
M000000M
M000000M
M000000M
,  // measure 537
M000000M
MMMMMMMM
MMMMMMMM
00000000
,  // measure 538
00000000
00000000
M000000M
M000000M
,  // measure 539
M000000M
M000000M
M000000M
M000000M
,  // measure 540
MMMMMMMM
00000000
00000000
00000000
,  // measure 541
M000000M
M000000M
M000000M
M000000M
,  // measure 542
M000000M
M000000M
M000000M
00000000
,  // measure 543
00000000
00000000
M000000M
M0MMMM0M
,  // measure 544
M0M0000M
M0M0000M
M0M0000M
M0M0000M
,  // measure 545
M0M0000M
00000000
00000000
00000000
,  // measure 546
M000000M
M000M00M
M00M0M0M
M0M00M0M
,  // measure 547
M0M00M0M
M0M00M0M
M0M00M0M
00000000
,  // measure 548
00000000
00000000
M000000M
M0MMMM0M
,  // measure 549
M0M0000M
00000000
M0M0000M
000MM000
M0000M0M
00000000
M0000M0M
00000000
,  // measure 550
M0MMMM0M
00000000
00000000
00000000
,  // measure 551
M000000M
M000000M
M000000M
M000000M
,  // measure 552
M000000M
M000000M
M000000M
00000000
,  // measure 553
00000000
00000000
M000000M
M000000M
,  // measure 554
M000000M
M000000M
M000000M
M000000M
,  // measure 555
M000100M
00000000
00000000
00000000
,  // measure 556
M000000M
M000000M
M000000M
M000000M
,  // measure 557
M000000M
M000100M
M001000M
00000000
,  // measure 558
00000000
00000000
M000000M
M000000M
,  // measure 559
M000000M
M000000M
M000000M
M000010M
,  // measure 560
M000100M
00000000
00000000
00000000
,  // measure 561
M000000M
M000000M
M000000M
M000000M
,  // measure 562
M000100M
M000010M
M000000M
00000000
,  // measure 563
00000000
00000000
M000000M
M000000M
,  // measure 564
M000000M
M000010M
M000100M
M000000M
,  // measure 565
M000000M
00000000
00000000
00000000
,  // measure 566
M000000M
M000000M
M000100M
M000010M
,  // measure 567
M000000M
M000000M
M000000M
00000000
,  // measure 568
00000000
00000000
M000000M
M000010M
,  // measure 569
M000001M
M000000M
M000000M
M000000M
,  // measure 570
M000000M
00000000
00000000
00000000
,  // measure 571
M000001M
M000010M
M000000M
M000000M
,  // measure 572
M000000M
M000000M
M000000M
00000000
,  // measure 573
00000000
00000000
M000001M
M000010M
,  // measure 574
M000000M
M000000M
M000000M
M000000M
,  // measure 575
M010000M
00000000
00000000
00000000
,  // measure 576
M000001M
M000010M
M000000M
M000000M
,  // measure 577
M000000M
M010000M
M011100M
00000000
,  // measure 578
00000000
00000000
M000001M
M000010M
,  // measure 579
M000000M
M000000M
M010000M
M011100M
,  // measure 580
M001000M
00000000
00000000
00000000
,  // measure 581
M000001M
M000010M
M000000M
M001100M
,  // measure 582
M011000M
M001000M
M000000M
00000000
,  // measure 583
00000000
00000000
M000001M
M000010M
,  // measure 584
M001100M
M011000M
M001000M
M000000M
,  // measure 585
M000000M
00000000
00000000
00000000
,  // measure 586
M000001M
M001110M
M011000M
M001000M
,  // measure 587
M000000M
M000000M
M000000M
00000000
,  // measure 588
00000000
00000000
M001101M
M011010M
,  // measure 589
M001000M
M000000M
M000000M
M000000M
,  // measure 590
M000000M
00000000
00000000
00000000
,  // measure 591
M000111M
M001110M
M000100M
M000000M
,  // measure 592
M000000M
M000000M
M000000M
00000000
,  // measure 593
00000000
00000000
M000111M
M001110M
,  // measure 594
M000100M
M000000M
M000000M
M000000M
,  // measure 595
M001100M
00000000
00000000
00000000
,  // measure 596
M000111M
M001110M
M000100M
M000000M
,  // measure 597
M000000M
M011000M
M010000M
00000000
,  // measure 598
00000000
00000000
M000111M
M001110M
,  // measure 599
M000100M
M000000M
M110000M
M100000M
,  // measure 600
M000000M
00000000
00000000
00000000
,  // measure 601
M000111M
M001110M
M000100M
M110000M
,  // measure 602
M100000M
M000000M
M000000M
00000000
,  // measure 603
00000000
00000000
M000111M
M111110M
,  // measure 604
M100100M
M000000M
M000000M
M000000M
,  // measure 605
M000000M
00000000
00000000
00000000
,  // measure 606
M110111M
M101110M
M000100M
M000000M
,  // measure 607
M000000M
M000000M
M000000M
00000000
,  // measure 608
00000000
00000000
M011111M
M011110M
,  // measure 609
M000100M
M000000M
M000000M
M000000M
,  // measure 610
M000000M
00000000
00000000
00000000
,  // measure 611
M011111M
M011110M
M000100M
M000000M
,  // measure 612
M000000M
M000000M
M001000M
00000000
,  // measure 613
00000000
00000000
M011111M
M011110M
,  // measure 614
M000100M
M000000M
M000000M
M001000M
,  // measure 615
M001000M
00000000
00000000
00000000
,  // measure 616
M011111M
M011110M
M000100M
M000000M
,  // measure 617
M010000M
M010000M
M010000M
00000000
,  // measure 618
00000000
00000000
M011111M
M011110M
,  // measure 619
M000100M
M010000M
M010000M
M010000M
,  // measure 620
M010000M
00000000
00000000
00000000
,  // measure 621
M011111M
M011110M
M100100M
M100000M
,  // measure 622
M100000M
M100000M
M000000M
00000000
,  // measure 623
00000000
00000000
M011111M
M111110M
,  // measure 624
M100100M
M100000M
M100000M
M000000M
,  // measure 625
M000000M
00000000
00000000
00000000
,  // measure 626
M111111M
M111110M
M100100M
M100000M
,  // measure 627
M000000M
M000000M
M000000M
00000000
,  // measure 628
00000000
00000000
MM1111MM
M111110M
,  // measure 629
M100100M
M100000M
M000000M
M000000M
,  // measure 630
M000000M
00000000
00000000
00000000
,  // measure 631
M1M11M1M
M111110M
M100100M
M100000M
,  // measure 632
M000000M
M000000M
M000000M
00000000
,  // measure 633
00000000
00000000
M11MM11M
M111110M
,  // measure 634
M100100M
M100000M
M000000M
M000000M
,  // measure 635
M000000M
00000000
00000000
00000000
,  // measure 636
MMMMMMMM
M111110M
M100100M
M100000M
,  // measure 637
M000000M
M000000M
M000000M
00000000
,  // measure 638
00000000
00000000
M111110M
M100100M
,  // measure 639
M100000M
M000000M
M000000M
M000000M
,  // measure 640
M000010M
00000000
00000000
00000000
,  // measure 641
M111110M
M100100M
M100000M
M000000M
,  // measure 642
M000000M
M000010M
M000100M
00000000
,  // measure 643
00000000
00000000
M111110M
M100100M
,  // measure 644
M100000M
M000000M
M000010M
M000100M
,  // measure 645
M001000M
00000000
00000000
00000000
,  // measure 646
M111110M
M100100M
M100000M
M000001M
,  // measure 647
M000010M
M000100M
M000000M
00000000
,  // measure 648
00000000
00000000
M111110M
M100100M
,  // measure 649
M100001M
M000010M
M000100M
M000000M
,  // measure 650
M000000M
00000000
00000000
00000000
,  // measure 651
M111110M
M100101M
M100010M
M000100M
,  // measure 652
M000000M
M000000M
M000000M
00000000
,  // measure 653
00000000
00000000
M111111M
M100110M
,  // measure 654
M100100M
M000000M
M000000M
M000000M
,  // measure 655
M000000M
00000000
00000000
00000000
,  // measure 656
MM11111M
M100110M
M100100M
M000000M
,  // measure 657
M000000M
M000000M
M000000M
00000000
,  // measure 658
00000000
00000000
00000000
00000000
00000000
00000000
00000000
00000000
00000000
00000000
00000000
00000000
00000000
00000000
00000000
00000000
00000000
00000000
00000000
00000000
00000000
00000000
00000000
00000000
00000000
00000000
00000000
00000000
00000000
00000000
00000000
00000000
M1M0000M
00011110
00000000
00000000
00000000
00000000
00000000
00000000
00000000
00000000
00000000
00000000
00000000
00000000
00000000
00000000
M100110M
00000000
00000000
00000000
00000000
00000000
00000000
00000000
00000000
00000000
00000000
00000000
00000000
00000000
00000000
00000000
,  // measure 659
M100100M
M000000M
M000000M
M000000M
,  // measure 660
M000000M
00000000
00000000
00000000
,  // measure 661
M01M000M
00001110
00000000
00000000
00000000
00000000
00000000
00000000
00000000
00000000
00000000
00000000
00000000
00000000
00000000
00000000
M100110M
00000000
00000000
00000000
00000000
00000000
00000000
00000000
00000000
00000000
00000000
00000000
00000000
00000000
00000000
00000000
M100100M
00000000
00000000
00000000
00000000
00000000
00000000
00000000
00000000
00000000
00000000
00000000
00000000
00000000
00000000
00000000
M000000M
00000000
00000000
00000000
00000000
00000000
00000000
00000000
00000000
00000000
00000000
00000000
00000000
00000000
00000000
00000000
,  // measure 662
M000000M
M000000M
M000000M
00000000
,  // measure 663
00000000
00000000
00000000
00000000
00000000
00000000
00000000
00000000
00000000
00000000
00000000
00000000
00000000
00000000
00000000
00000000
00000000
00000000
00000000
00000000
00000000
00000000
00000000
00000000
00000000
00000000
00000000
00000000
00000000
00000000
00000000
00000000
M001M00M
00000110
00000000
00000000
00000000
00000000
00000000
00000000
00000000
00000000
00000000
00000000
00000000
00000000
00000000
00000000
M100110M
00000000
00000000
00000000
00000000
00000000
00000000
00000000
00000000
00000000
00000000
00000000
00000000
00000000
00000000
00000000
,  // measure 664
M100100M
M000000M
M000000M
M000000M
,  // measure 665
M000000M
00000000
00000000
00000000
,  // measure 666
M0001M0M
00000010
00000000
00000000
00000000
00000000
00000000
00000000
00000000
00000000
00000000
00000000
00000000
00000000
00000000
00000000
M100110M
00000000
00000000
00000000
00000000
00000000
00000000
00000000
00000000
00000000
00000000
00000000
00000000
00000000
00000000
00000000
M100100M
00000000
00000000
00000000
00000000
00000000
00000000
00000000
00000000
00000000
00000000
00000000
00000000
00000000
00000000
00000000
M000000M
00000000
00000000
00000000
00000000
00000000
00000000
00000000
00000000
00000000
00000000
00000000
00000000
00000000
00000000
00000000
,  // measure 667
M000000M
M000000M
M000000M
00000000
,  // measure 668
00000000
00000000
M00001MM
M100110M
,  // measure 669
M100100M
M000000M
M000000M
M000000M
,  // measure 670
M000000M
00000000
00000000
00000000
,  // measure 671
M000001M
M100110M
M100100M
M000000M
,  // measure 672
M000000M
M000000M
M000000M
00000000
,  // measure 673
00000000
00000000
M100110M
M100100M
,  // measure 674
M000000M
M000000M
M000000M
M000000M
,  // measure 675
M000000M
00000000
00000000
00000000
,  // measure 676
M100110M
M100100M
M000000M
M000000M
,  // measure 677
M000000M
M000000M
M000100M
00000000
,  // measure 678
00000000
00000000
M100110M
M100100M
,  // measure 679
M000000M
M000000M
M000000M
M000100M
,  // measure 680
M001100M
00000000
00000000
00000000
,  // measure 681
M100110M
M100100M
M000000M
M000000M
,  // measure 682
M000010M
M000110M
M000010M
00000000
,  // measure 683
00000000
00000000
M100110M
M100100M
,  // measure 684
M000000M
M000001M
M000011M
M000001M
,  // measure 685
M000000M
00000000
00000000
00000000
,  // measure 686
M100110M
M100100M
M000001M
M000011M
,  // measure 687
M000001M
M000000M
M000000M
00000000
,  // measure 688
00000000
00000000
M100110M
M100101M
,  // measure 689
M000011M
M000001M
M000000M
M000000M
,  // measure 690
M000000M
00000000
00000000
00000000
,  // measure 691
M100111M
M100111M
M000001M
M000000M
,  // measure 692
M000000M
M000000M
M000000M
00000000
,  // measure 693
00000000
00000000
M100111M
M100111M
,  // measure 694
M000001M
M000000M
M000000M
M000000M
,  // measure 695
M001100M
00000000
00000000
00000000
,  // measure 696
M100111M
M100111M
M000001M
M000000M
,  // measure 697
M000000M
M001100M
M001100M
00000000
,  // measure 698
00000000
00000000
M100111M
M100111M
,  // measure 699
M000001M
M000000M
M011000M
M011000M
,  // measure 700
M000000M
00000000
00000000
00000000
,  // measure 701
M100111M
M100111M
M000001M
M011000M
,  // measure 702
M011000M
M000000M
M000000M
00000000
,  // measure 703
00000000
00000000
M100111M
M100111M
,  // measure 704
M011001M
M011000M
M000000M
M000000M
,  // measure 705
M000000M
00000000
00000000
00000000
,  // measure 706
M100111M
M111111M
M011001M
M000000M
,  // measure 707
M000000M
M000000M
M000000M
00000000
,  // measure 708
00000000
00000000
M111111M
M111111M
,  // measure 709
M000001M
M000000M
M000000M
M000000M
,  // measure 710
M000000M
00000000
00000000
00000000
,  // measure 711
MMMMMMMM
M111111M
M000001M
M000000M
,  // measure 712
M000000M
M000000M
M000000M
00000000
,  // measure 713
00000000
00000000
M111111M
M000001M
,  // measure 714
M000000M
M000000M
M000000M
M000000M
,  // measure 715
M000000M
00000000
00000000
00000000
,  // measure 716
M1M1M11M
M000001M
M000000M
M000000M
,  // measure 717
M000000M
M000000M
M000000M
00000000
,  // measure 718
00000000
00000000
00000000
00000000
00000000
00000000
00000000
00000000
00000000
00000000
00000000
00000000
00000000
00000000
00000000
00000000
00000000
00000000
00000000
00000000
00000000
00000000
00000000
00000000
00000000
00000000
00000000
00000000
00000000
00000000
00000000
00000000
M01M1M0M
01000010
00000000
00000000
00000000
00000000
00000000
00000000
00000000
00000000
00000000
00000000
00000000
00000000
00000000
00000000
M000001M
00000000
00000000
00000000
00000000
00000000
00000000
00000000
00000000
00000000
00000000
00000000
00000000
00000000
00000000
00000000
,  // measure 719
M000000M
M000000M
M000000M
M000000M
,  // measure 720
M000000M
00000000
00000000
00000000
,  // measure 721
MM0101MM
M000001M
M000000M
M000000M
,  // measure 722
M000000M
M000000M
M000000M
00000000
,  // measure 723
00000000
00000000
M100001M
M000001M
,  // measure 724
M000000M
M000000M
M000000M
M000000M
,  // measure 725
M000000M
00000000
00000000
00000000
,  // measure 726
M000001M
M000000M
M000000M
M000000M
,  // measure 727
M000000M
M000000M
M000000M
00000000
,  // measure 728
00000000
00000000
M000001M
M000000M
,  // measure 729
M000000M
M000000M
M000000M
M000000M
,  // measure 730
M011100M
00000000
00000000
00000000
,  // measure 731
M000001M
M000000M
M000000M
M000000M
,  // measure 732
M000000M
M001110M
M000111M
00000000
,  // measure 733
00000000
00000000
M000001M
M000000M
,  // measure 734
M000000M
M000000M
M001110M
M000111M
,  // measure 735
M000000M
00000000
00000000
00000000
,  // measure 736
M000001M
M000000M
M000000M
M001110M
,  // measure 737
M000111M
M000000M
M000000M
00000000
,  // measure 738
00000000
00000000
M000001M
M000000M
,  // measure 739
M001110M
M000111M
M000000M
M000000M
,  // measure 740
M000000M
00000000
00000000
00000000
,  // measure 741
M000001M
M001110M
M000111M
M000000M
,  // measure 742
M000000M
M000000M
M000000M
00000000
,  // measure 743
00000000
00000000
M001111M
M000111M
,  // measure 744
M000000M
M000000M
M000000M
M000000M
,  // measure 745
M000000M
00000000
00000000
00000000
,  // measure 746
M001111M
M000111M
M000000M
M000000M
,  // measure 747
M000000M
M000000M
M001100M
00000000
,  // measure 748
00000000
00000000
M001111M
M000111M
,  // measure 749
M000000M
M000000M
M000000M
M001100M
,  // measure 750
M001110M
00000000
00000000
00000000
,  // measure 751
M001111M
M000111M
M000000M
M000000M
,  // measure 752
M011000M
M011100M
M000000M
00000000
,  // measure 753
00000000
00000000
M001111M
M000111M
,  // measure 754
M000000M
M110000M
M111000M
M000000M
,  // measure 755
M000000M
00000000
00000000
00000000
,  // measure 756
M001111M
M000111M
M110000M
M111000M
,  // measure 757
M000000M
M000000M
M000000M
00000000
,  // measure 758
00000000
00000000
M001111M
M110111M
,  // measure 759
M111000M
M000000M
M000000M
M000000M
,  // measure 760
M000000M
00000000
00000000
00000000
,  // measure 761
MM1M111M
M111111M
M000000M
M000000M
,  // measure 762
M000000M
M000000M
M000000M
00000000
,  // measure 763
00000000
00000000
00000000
00000000
00000000
00000000
00000000
00000000
00000000
00000000
00000000
00000000
00000000
00000000
00000000
00000000
00000000
00000000
00000000
00000000
00000000
00000000
00000000
00000000
00000000
00000000
00000000
00000000
00000000
00000000
00000000
00000000
M1M10M0M
00001010
00000000
00000000
00000000
00000000
00000000
00000000
00000000
00000000
00000000
00000000
00000000
00000000
00000000
00000000
M111111M
00000000
00000000
00000000
00000000
00000000
00000000
00000000
00000000
00000000
00000000
00000000
00000000
00000000
00000000
00000000
,  // measure 764
M000000M
M000000M
M000000M
M000000M
,  // measure 765
M000000M
00000000
00000000
00000000
,  // measure 766
M010M1MM
M111111M
M000000M
M000000M
,  // measure 767
M000000M
M000000M
M000000M
00000000
,  // measure 768
00000000
00000000
M000101M
M111111M
,  // measure 769
M000000M
M000000M
M000000M
M000000M
,  // measure 770
M000000M
00000000
00000000
00000000
,  // measure 771
M111111M
M000000M
M000000M
M000000M
,  // measure 772
M000000M
M000000M
M000000M
00000000
,  // measure 773
00000000
00000000
M1111M1M
M000000M
,  // measure 774
M000000M
M000000M
M000000M
M000000M
,  // measure 775
M000000M
00000000
00000000
00000000
,  // measure 776
M00001MM
01111000
00000000
00000000
00000000
00000000
00000000
00000000
00000000
00000000
00000000
00000000
00000000
00000000
00000000
00000000
M000000M
00000000
00000000
00000000
00000000
00000000
00000000
00000000
00000000
00000000
00000000
00000000
00000000
00000000
00000000
00000000
M000000M
00000000
00000000
00000000
00000000
00000000
00000000
00000000
00000000
00000000
00000000
00000000
00000000
00000000
00000000
00000000
M000000M
00000000
00000000
00000000
00000000
00000000
00000000
00000000
00000000
00000000
00000000
00000000
00000000
00000000
00000000
00000000
,  // measure 777
M000000M
M000000M
M000000M
00000000
,  // measure 778
00000000
00000000
00000000
00000000
00000000
00000000
00000000
00000000
00000000
00000000
00000000
00000000
00000000
00000000
00000000
00000000
00000000
00000000
00000000
00000000
00000000
00000000
00000000
00000000
00000000
00000000
00000000
00000000
00000000
00000000
00000000
00000000
M000M01M
01110000
00000000
00000000
00000000
00000000
00000000
00000000
00000000
00000000
00000000
00000000
00000000
00000000
00000000
00000000
M000000M
00000000
00000000
00000000
00000000
00000000
00000000
00000000
00000000
00000000
00000000
00000000
00000000
00000000
00000000
00000000
,  // measure 779
M000000M
M000000M
M000000M
M000000M
,  // measure 780
M000000M
00000000
00000000
00000000
,  // measure 781
M0M0100M
01010000
00000000
00000000
00000000
00000000
00000000
00000000
00000000
00000000
00000000
00000000
00000000
00000000
00000000
00000000
M000000M
00000000
00000000
00000000
00000000
00000000
00000000
00000000
00000000
00000000
00000000
00000000
00000000
00000000
00000000
00000000
M000000M
00000000
00000000
00000000
00000000
00000000
00000000
00000000
00000000
00000000
00000000
00000000
00000000
00000000
00000000
00000000
M000000M
00000000
00000000
00000000
00000000
00000000
00000000
00000000
00000000
00000000
00000000
00000000
00000000
00000000
00000000
00000000
,  // measure 782
M000000M
M000000M
M000000M
00000000
,  // measure 783
00000000
00000000
00000000
00000000
00000000
00000000
00000000
00000000
00000000
00000000
00000000
00000000
00000000
00000000
00000000
00000000
00000000
00000000
00000000
00000000
00000000
00000000
00000000
00000000
00000000
00000000
00000000
00000000
00000000
00000000
00000000
00000000
MM10000M
00010000
00000000
00000000
00000000
00000000
00000000
00000000
00000000
00000000
00000000
00000000
00000000
00000000
00000000
00000000
M000000M
00000000
00000000
00000000
00000000
00000000
00000000
00000000
00000000
00000000
00000000
00000000
00000000
00000000
00000000
00000000
,  // measure 784
M000000M
M000000M
M000000M
M000000M
,  // measure 785
M000000M
00000000
00000000
00000000
,  // measure 786
M10M000M
M000000M
M000000M
M000000M
,  // measure 787
M000000M
M000000M
M000000M
00000000
,  // measure 788
00000000
00000000
M001000M
M000000M
,  // measure 789
M000000M
M000000M
M000000M
M000000M
,  // measure 790
M000000M
00000000
00000000
00000000
,  // measure 791
M000000M
M000000M
M000000M
M000000M
,  // measure 792
M000000M
M000000M
M000000M
00000000
,  // measure 793
00000000
00000000
M000000M
M000000M
,  // measure 794
M000000M
M000000M
M000000M
M000000M
,  // measure 795
M001100M
00000000
00000000
00000000
,  // measure 796
M000000M
M000000M
M000000M
M000000M
,  // measure 797
M000000M
M001100M
M001000M
00000000
,  // measure 798
00000000
00000000
M000000M
M000000M
,  // measure 799
M000000M
M000000M
M001100M
M001000M
,  // measure 800
M001000M
00000000
00000000
00000000
,  // measure 801
M000000M
M000000M
M000000M
M000110M
,  // measure 802
M000100M
M000100M
M000000M
00000000
,  // measure 803
00000000
00000000
M000000M
M000000M
,  // measure 804
M000110M
M000100M
M000100M
M000000M
,  // measure 805
M000000M
00000000
00000000
00000000
,  // measure 806
M000000M
M001110M
M000010M
M000000M
,  // measure 807
M000000M
M000000M
M000000M
00000000
,  // measure 808
00000000
00000000
M000111M
M000001M
,  // measure 809
M000000M
M000000M
M000000M
M000000M
,  // measure 810
M000000M
00000000
00000000
00000000
,  // measure 811
M000111M
M000001M
M000000M
M000000M
,  // measure 812
M000000M
M000000M
M011100M
00000000
,  // measure 813
00000000
00000000
M000111M
M000001M
,  // measure 814
M000000M
M000000M
M000000M
M011100M
,  // measure 815
M010000M
00000000
00000000
00000000
,  // measure 816
M000111M
M000001M
M000000M
M000000M
,  // measure 817
M111000M
M100000M
M000000M
00000000
,  // measure 818
00000000
00000000
M000111M
M000001M
,  // measure 819
M111000M
M100000M
M000000M
M000000M
,  // measure 820
M000000M
00000000
00000000
00000000
,  // measure 821
M000111M
M111001M
M100000M
M000000M
,  // measure 822
M000000M
M000000M
M000000M
00000000
,  // measure 823
00000000
00000000
M111111M
M100001M
,  // measure 824
M000000M
M000000M
M000000M
M000000M
,  // measure 825
M000000M
00000000
00000000
00000000
,  // measure 826
MMM1111M
M100001M
M000000M
M000000M
,  // measure 827
M000000M
M000000M
M000000M
00000000
,  // measure 828
00000000
00000000
00000000
00000000
00000000
00000000
00000000
00000000
00000000
00000000
00000000
00000000
00000000
00000000
00000000
00000000
00000000
00000000
00000000
00000000
00000000
00000000
00000000
00000000
00000000
00000000
00000000
00000000
00000000
00000000
00000000
00000000
M11MM00M
00000110
00000000
00000000
00000000
00000000
00000000
00000000
00000000
00000000
00000000
00000000
00000000
00000000
00000000
00000000
M100001M
00000000
00000000
00000000
00000000
00000000
00000000
00000000
00000000
00000000
00000000
00000000
00000000
00000000
00000000
00000000
,  // measure 829
M000000M
M000000M
M000000M
M000000M
,  // measure 830
M000000M
00000000
00000000
00000000
,  // measure 831
M0011MMM
M100001M
M000000M
M000000M
,  // measure 832
M000000M
M000000M
M000000M
00000000
,  // measure 833
00000000
00000000
M000011M
M100001M
,  // measure 834
M000000M
M000000M
M000000M
M000000M
,  // measure 835
M000000M
00000000
00000000
00000000
,  // measure 836
M100001M
M000000M
M000000M
M000000M
,  // measure 837
M000000M
M000000M
M000000M
00000000
,  // measure 838
00000000
00000000
M100001M
M000000M
,  // measure 839
M000000M
M000000M
M000000M
M000000M
,  // measure 840
M001000M
00000000
00000000
00000000
,  // measure 841
M100001M
M000000M
M000000M
M000000M
,  // measure 842
M000000M
M001000M
M001000M
00000000
,  // measure 843
00000000
00000000
M100001M
M000000M
,  // measure 844
M000000M
M000000M
M001000M
M001000M
,  // measure 845
M001000M
00000000
00000000
00000000
,  // measure 846
M100001M
M000000M
M000000M
M011110M
,  // measure 847
M000000M
M000000M
M000000M
00000000
,  // measure 848
00000000
00000000
M100001M
M000000M
,  // measure 849
M011110M
M000000M
M000000M
M000000M
,  // measure 850
M000000M
00000000
00000000
00000000
,  // measure 851
M100001M
M011110M
M000000M
M000000M
,  // measure 852
M000000M
M000000M
M000000M
00000000
,  // measure 853
00000000
00000000
M111111M
M000000M
,  // measure 854
M000000M
M000000M
M000000M
M000000M
,  // measure 855
M000000M
00000000
00000000
00000000
,  // measure 856
MMMMMMMM
M000000M
M000000M
M000000M
,  // measure 857
M000000M
M000000M
M000000M
00000000
,  // measure 858
00000000
00000000
M111111M
M000000M
,  // measure 859
M000000M
M000000M
M000000M
M000000M
,  // measure 860
M000000M
00000000
00000000
00000000
,  // measure 861
M111M11M
M000000M
M000000M
M000000M
,  // measure 862
M000000M
M000000M
M000000M
00000000
,  // measure 863
00000000
00000000
00000000
00000000
00000000
00000000
00000000
00000000
00000000
00000000
00000000
00000000
00000000
00000000
00000000
00000000
00000000
00000000
00000000
00000000
00000000
00000000
00000000
00000000
00000000
00000000
00000000
00000000
00000000
00000000
00000000
00000000
M00M100M
01100110
00000000
00000000
00000000
00000000
00000000
00000000
00000000
00000000
00000000
00000000
00000000
00000000
00000000
00000000
M000000M
00000000
00000000
00000000
00000000
00000000
00000000
00000000
00000000
00000000
00000000
00000000
00000000
00000000
00000000
00000000
,  // measure 864
M000000M
M000000M
M000000M
M000000M
,  // measure 865
M000000M
00000000
00000000
00000000
,  // measure 866
M0010M0M
01100010
00000000
00000000
00000000
00000000
00000000
00000000
00000000
00000000
00000000
00000000
00000000
00000000
00000000
00000000
M000000M
00000000
00000000
00000000
00000000
00000000
00000000
00000000
00000000
00000000
00000000
00000000
00000000
00000000
00000000
00000000
M000000M
00000000
00000000
00000000
00000000
00000000
00000000
00000000
00000000
00000000
00000000
00000000
00000000
00000000
00000000
00000000
M000000M
00000000
00000000
00000000
00000000
00000000
00000000
00000000
00000000
00000000
00000000
00000000
00000000
00000000
00000000
00000000
,  // measure 867
M000000M
M000000M
M000000M
00000000
,  // measure 868
00000000
00000000
00000000
00000000
00000000
00000000
00000000
00000000
00000000
00000000
00000000
00000000
00000000
00000000
00000000
00000000
00000000
00000000
00000000
00000000
00000000
00000000
00000000
00000000
00000000
00000000
00000000
00000000
00000000
00000000
00000000
00000000
M0M0010M
01000010
00000000
00000000
00000000
00000000
00000000
00000000
00000000
00000000
00000000
00000000
00000000
00000000
00000000
00000000
M000000M
00000000
00000000
00000000
00000000
00000000
00000000
00000000
00000000
00000000
00000000
00000000
00000000
00000000
00000000
00000000
,  // measure 869
M000000M
M000000M
M000000M
M000000M
,  // measure 870
M000000M
00000000
00000000
00000000
,  // measure 871
MM10000M
00000010
00000000
00000000
00000000
00000000
00000000
00000000
00000000
00000000
00000000
00000000
00000000
00000000
00000000
00000000
M000000M
00000000
00000000
00000000
00000000
00000000
00000000
00000000
00000000
00000000
00000000
00000000
00000000
00000000
00000000
00000000
M000000M
00000000
00000000
00000000
00000000
00000000
00000000
00000000
00000000
00000000
00000000
00000000
00000000
00000000
00000000
00000000
M000000M
00000000
00000000
00000000
00000000
00000000
00000000
00000000
00000000
00000000
00000000
00000000
00000000
00000000
00000000
00000000
,  // measure 872
M000000M
M000000M
M000000M
00000000
,  // measure 873
00000000
00000000
M10000MM
M000000M
,  // measure 874
M000000M
M000000M
M000000M
M000000M
,  // measure 875
M000000M
00000000
00000000
00000000
,  // measure 876
M000001M
M000000M
M000000M
M000000M
,  // measure 877
M000000M
M000000M
M000000M
00000000
,  // measure 878
00000000
00000000
M000000M
M000000M
,  // measure 879
M000000M
M000000M
M000000M
M000000M
,  // measure 880
M000000M
00000000
00000000
00000000
,  // measure 881
M000000M
M000000M
M000000M
M000000M
,  // measure 882
M000000M
M000000M
M110101M
00000000
,  // measure 883
00000000
00000000
M000000M
M000000M
,  // measure 884
M000000M
M000000M
M000000M
M110101M
,  // measure 885
M101111M
00000000
00000000
00000000
,  // measure 886
M000000M
M000000M
M000000M
M000000M
,  // measure 887
M110101M
M101111M
M110101M
00000000
,  // measure 888
00000000
00000000
M000000M
M000000M
,  // measure 889
M000000M
M110101M
M101111M
M110101M
,  // measure 890
M011111M
00000000
00000000
00000000
,  // measure 891
M000000M
M000000M
M110101M
M101111M
,  // measure 892
M110101M
M011111M
M101101M
00000000
,  // measure 893
00000000
00000000
M000000M
M110101M
,  // measure 894
M101111M
M110101M
M011111M
M101101M
,  // measure 895
M011111M
00000000
00000000
00000000
,  // measure 896
M110101M
M101111M
M110101M
M011111M
,  // measure 897
M101101M
M011111M
M111010M
00000000
,  // measure 898
00000000
00000000
M110101M
M101111M
,  // measure 899
M110101M
M011111M
M101101M
M011111M
,  // measure 900
MMMM0M0M
00000000
00000000
00000000
,  // measure 901
M110101M
M101111M
M110101M
M011111M
,  // measure 902
M101101M
M0MMMMMM
MMMM0M0M
00000000
,  // measure 903
00000000
00000000
M110101M
M101111M
,  // measure 904
M110101M
M011111M
MM0MM0MM
M0MMMMMM
,  // measure 905
MMMM0M0M
00000000
00000000
00000000
,  // measure 906
M110101M
M101111M
M110101M
M0MMMMMM
,  // measure 907
MM0MM0MM
M0MMMMMM
MMMM0M0M
00000000
,  // measure 908
00000000
00000000
M110101M
M101111M
,  // measure 909
MMM0M0MM
M0MMMMMM
MM0MM0MM
M0MMMMMM
,  // measure 910
MMMM0M0M
00000000
00000000
00000000
,  // measure 911
M110101M
MM0MMMMM
MMM0M0MM
M0MMMMMM
,  // measure 912
MM0MM0MM
M0MMMMMM
MMMM0M0M
00000000
,  // measure 913
00000000
00000000
MMM0M0MM
MM0MMMMM
,  // measure 914
MMM0M0MM
M0MMMMMM
MM0MM0MM
M0MMMMMM
,  // measure 915
MMMM0M0M
00000000
00000000
00000000
,  // measure 916
MMMMMMMM
MMMMMMMM
MMMMMMMM
MMMMMMMM
,  // measure 917
MMMMMMMM
MMMMMMMM
MMMMMMMM
00000000
,  // measure 918
00000000
00000000
MMMMMMMM
MMMMMMMM
,  // measure 919
MMMMMMMM
MMM00MMM
MMM00MMM
MMMMMMMM
,  // measure 920
MMMMMMMM
00000000
00000000
00000000
,  // measure 921
MMMMMMMM
MMMMMMMM
MMMMMMMM
MMM00MMM
,  // measure 922
MM000MMM
MMMMMMMM
MMMMMMMM
00000000
,  // measure 923
00000000
00000000
MMMMMMMM
MMMMMMMM
,  // measure 924
MMM0MMMM
MMM00MMM
M0000MMM
MMMMMMMM
,  // measure 925
MMMMMMMM
00000000
00000000
00000000
,  // measure 926
MMMMMMMM
MMMMMMMM
MMM0MMMM
M0M000MM
,  // measure 927
M0000MMM
MMMMMMMM
MMMMMMMM
00000000
,  // measure 928
00000000
00000000
M00000MM
M0M0MMMM
,  // measure 929
M0M0MMMM
M0M0000M
M0000M0M
MMMM0M0M
,  // measure 930
MMMM0M0M
00000000
00000000
00000000
,  // measure 931
M000000M
M0M0MMMM
M0M0MMMM
M0M0000M
,  // measure 932
M0000M0M
MMMM0M0M
MMMM0M0M
00000000
,  // measure 933
00000000
00000000
M000000M
M0M0MM0M
,  // measure 934
M0M0MM0M
M0M0000M
M0000M0M
MMMM0M0M
,  // measure 935
M0MM0M0M
00000000
00000000
00000000
,  // measure 936
M000000M
M0M0MM0M
M0M0MM0M
M000000M
,  // measure 937
M000000M
M0MM0M0M
M0MM0M0M
00000000
,  // measure 938
00000000
00000000
M000000M
M0M0MM0M
,  // measure 939
M0000M0M
M000000M
M000000M
M0M0000M
,  // measure 940
M0MM0M0M
00000000
00000000
00000000
,  // measure 941
M000000M
M0000M0M
M0000M0M
M000000M
,  // measure 942
M000000M
M0M0000M
M0M0000M
00000000
,  // measure 943
00000000
00000000
M000000M
M000000M
,  // measure 944
M0000M0M
M000000M
M000000M
M0M0000M
,  // measure 945
M000000M
00000000
00000000
00000000
,  // measure 946
M000000M
M000000M
M000000M
M000000M
,  // measure 947
M000000M
M000000M
M000000M
00000000
,  // measure 948
00000000
00000000
M000000M
M0M00M0M
,  // measure 949
M0MMMM0M
M0MMMM0M
M0M00M0M
M0M00M0M
,  // measure 950
M000000M
00000000
00000000
00000000
,  // measure 951
M000000M
M0MMMM0M
M00MM00M
M00MM00M
,  // measure 952
M00MM00M
M0MMMM0M
M000000M
00000000
,  // measure 953
00000000
00000000
M000000M
M0M00M0M
,  // measure 954
M0M0MM0M
M0MMMM0M
M0MM0M0M
M0M00M0M
,  // measure 955
M000000M
00000000
00000000
00000000
,  // measure 956
M000000M
M0MMM00M
M0M00M0M
M0M00M0M
,  // measure 957
M0M00M0M
M0MMM00M
M000000M
00000000
,  // measure 958
00000000
00000000
M000000M
M0MMMM0M
,  // measure 959
M0M0000M
M0MMM00M
M0M0000M
M0MMMM0M
,  // measure 960
M000000M
00000000
00000000
00000000
,  // measure 961
M000000M
M00MM00M
M0M00M0M
M0M00M0M
,  // measure 962
M0M00M0M
M0M00M0M
M000000M
00000000
,  // measure 963
00000000
00000000
MMMMMMMM
MMMMMMMM
,  // measure 964
MMMMMMMM
MMMMMMMM
MMMMMMMM
MMMMMMMM
,  // measure 965
MMMMMMMM
00000000
00000000
00000000
;
