#TITLE:Prismatic Lollipops;
#SUBTITLE:;
#ARTIST:Dj Mashiro;
#TITLETRANSLIT:;
#SUBTITLETRANSLIT:;
#ARTISTTRANSLIT:;
#CREDIT:;
#BANNER:;
#BACKGROUND:;
#LYRICSPATH:;
#CDTITLE:;
#MUSIC:Prismatic Lollipops.mp3;
#OFFSET:0.000;
#SAMPLESTART:0.000;
#SAMPLELENGTH:12.000;
#SELECTABLE:YES;
#BPMS:0.000=202.001;
#STOPS:;
#BGCHANGES:;

//---------------dance-single - ----------------
#NOTES:
     dance-single:
     :
     Challenge:
     12:
     1.000,1.000,1.000,1.000,0.144: // measure 1
0000
0000
0000
0000
0000
0000
0000
0000
0000
0000
0000
0000
0000
0000
1000
0001
,  // measure 2
1000
0001
2002
0000
3003
0000
2002
0000
3003
0000
2002
0000
3003
0000
2002
0000
,  // measure 3
3003
0000
0002
2003
3002
0003
2000
3002
2003
3000
2002
3003
0000
0000
1000
0001
,  // measure 4
1000
0001
2000
0000
3000
0000
2000
0000
3000
0000
0001
0000
1000
0000
0001
0000
,  // measure 5
1000
0000
0002
0003
1001
0010
0100
1001
,  // measure 6
0100
1000
0000
1100
0000
1100
0000
0110
,  // measure 7
0011
0000
2000
3000
1001
0100
0010
1001
,  // measure 8
0010
0002
0003
2200
3300
0020
0030
0100
,  // measure 9
0011
0000
1000
0000
1010
0100
0010
0101
,  // measure 10
0010
0000
1001
0000
0000
0000
1100
0000
0000
0000
0110
0000
0022
0033
0000
0000
,  // measure 11
1000
0000
0000
0000
0001
0000
0000
0000
0001
0000
0010
0100
1000
0100
0010
0000
,  // measure 12
0001
1001
0000
1001
0000
1010
0100
0010
,  // measure 13
0101
0000
0002
0003
0001
0010
1100
1000
,  // measure 14
0100
0011
0000
0010
0001
0010
0001
0000
,  // measure 15
1000
0000
1000
0000
0001
1000
0010
0110
,  // measure 16
1001
1001
0000
1100
0000
0011
0000
0110
,  // measure 17
1001
0000
2000
3000
1010
0100
0010
0101
,  // measure 18
0010
0100
0001
1000
0001
1000
0001
1000
,  // measure 19
0001
0000
1001
0000
0000
1001
0000
0000
1001
0000
0001
1000
0001
0000
1000
0001
,  // measure 20
0100
0001
0010
0000
0000
1000
0010
0000
0000
0001
0010
0000
0000
1000
0010
0000
,  // measure 21
0000
1100
0010
0100
0011
0110
0000
0000
,  // measure 22
0000
0000
1010
0000
0000
0000
1010
0000
0101
0000
0000
0000
1000
0000
0001
0010
,  // measure 23
0100
0010
0001
0000
0000
0000
0011
0000
0000
0000
1001
0000
0100
0000
0001
0000
,  // measure 24
0110
0000
1000
1000
1000
1000
0000
1000
,  // measure 25
1000
0000
0000
0000
1000
0000
0000
0000
1000
0000
0100
0000
0010
0001
0010
0000
,  // measure 26
0100
1000
0000
0000
1100
1010
0000
0000
,  // measure 27
1010
1001
0000
1001
0000
1100
0000
1100
,  // measure 28
1010
1001
0000
1010
0000
1100
0010
0100
,  // measure 29
0011
0100
0000
1001
0000
0011
0101
1001
,  // measure 30
0101
0011
0000
1001
1001
0000
1100
1100
,  // measure 31
0011
1001
0000
0110
0000
0101
1010
1010
,  // measure 32
0101
0000
1100
0101
1010
0011
0000
0101
,  // measure 33
0110
0000
0110
0000
0101
1010
1010
0110
,  // measure 34
0101
0101
0000
0000
0110
1001
0000
0000
,  // measure 35
0101
1010
0000
1001
0000
1001
0000
0110
,  // measure 36
1001
0110
0000
1001
0000
1100
0110
0011
,  // measure 37
0110
1001
0000
0000
0000
1000
0100
0010
,  // measure 38
0001
2000
0000
3200
0000
0320
0000
0230
,  // measure 39
0000
0000
2300
0000
0100
0000
3020
0000
0100
0000
0032
0000
0000
0003
2000
0000
,  // measure 40
0000
3000
0220
0000
0000
0330
2002
0000
0003
0000
3202
0000
0300
0000
2203
0300
,  // measure 41
3020
0030
2002
0000
3003
0000
2002
0000
3003
0000
2020
0000
3030
0000
2200
0000
,  // measure 42
3300
2000
3000
2010
3000
1020
0030
0110
,  // measure 43
0011
1100
0110
0101
1010
1001
0000
0101
,  // measure 44
0000
0000
1020
0000
0000
0030
1200
0000
0000
0300
0012
0000
0000
0003
2100
0000
,  // measure 45
0000
3000
0210
0000
0000
0300
0021
0000
0000
0030
1001
0000
0000
0000
1100
0000
,  // measure 46
0110
0000
0012
0000
0000
0003
0120
0000
0000
0030
2001
0000
0000
3000
0102
0000
,  // measure 47
0000
0003
0110
0000
0011
0000
0101
0000
1010
0000
0101
0000
0000
0000
0011
0000
,  // measure 48
0000
0000
0202
0000
0003
0300
2002
0000
3000
0003
2020
0000
3000
0030
0201
0000
,  // measure 49
1300
0202
0303
2002
3003
0220
0330
0202
,  // measure 50
0303
0000
0210
0000
0000
0300
1020
0000
0000
0030
0012
0000
0000
0003
0101
0000
,  // measure 51
1001
0011
0101
1001
0011
0101
0000
1100
,  // measure 52
0000
0000
0210
0000
0000
0300
0021
0000
0000
0030
0102
0000
0000
0003
2100
0000
,  // measure 53
0000
3000
0120
0000
0000
0030
2001
0000
0000
3000
0210
0000
0000
0300
1002
0000
,  // measure 54
0000
0003
0110
0000
0000
0000
1001
0000
0110
0000
0000
0000
0000
0000
1000
0001
,  // measure 55
1000
0001
2000
0000
3000
0000
2000
0000
3000
0000
0001
0000
1000
0000
0001
0000
,  // measure 56
1000
0000
0002
0003
1001
0010
0100
1001
,  // measure 57
0100
1000
0000
1100
0000
1100
0000
0110
,  // measure 58
0011
0000
2000
3000
1001
0100
0010
1001
,  // measure 59
0010
0002
0003
2200
3300
0020
0030
0100
,  // measure 60
0011
0000
1000
0000
1010
0100
0010
0101
,  // measure 61
0010
0000
1001
0000
0000
0000
1100
0000
0000
0000
0110
0000
0022
0033
0000
0000
,  // measure 62
1000
0000
0000
0000
0001
0000
0000
0000
0001
0000
0010
0100
1000
0100
0010
0000
,  // measure 63
0001
1001
0000
1001
0000
1010
0100
0010
,  // measure 64
0101
0000
0002
0003
0001
0010
1100
1000
,  // measure 65
0100
0011
0000
0010
0001
0010
0001
0000
,  // measure 66
1000
0000
1000
0000
0001
1000
0010
0110
,  // measure 67
1001
1001
0000
1100
0000
0011
0000
0110
,  // measure 68
1001
0000
2000
3000
1010
0100
0010
0101
,  // measure 69
0010
0100
0001
1000
0001
1000
0001
1000
,  // measure 70
0001
0000
1001
0000
0000
1001
0000
0000
1001
0000
0001
1000
0001
0000
0100
0010
,  // measure 71
0100
0001
1000
0000
0000
0000
1001
0000
0000
0000
0010
0000
0000
0000
0110
0000
,  // measure 72
0000
1001
0011
0110
1100
2002
0000
0000
,  // measure 73
0000
3003
0000
0000
0000
0000
0000
0000
;
