#TITLE:Pluto Relinquish;
#SUBTITLE:;
#ARTIST:EVOLUTION;
#TITLETRANSLIT:;
#SUBTITLETRANSLIT:;
#ARTISTTRANSLIT:;
#CREDIT:;
#BANNER:Pluto Relinquish.png;
#BACKGROUND:Pluto Relinquish-bg.png;
#LYRICSPATH:;
#CDTITLE:xk.png;
#MUSIC:Pluto Relinquish.mp3;
#OFFSET:0.519;
#SAMPLESTART:0.060;
#SAMPLELENGTH:15.000;
#SELECTABLE:YES;
#DISPLAYBPM:100.000:800.000;
#BPMS:0.000=400.000,4.000=100.000,11.000=800.000,19.000=400.000,79.000=800.000,87.000=400.000,151.000=100.000,167.000=200.000,231.000=100.000,246.000=800.000,254.000=400.000,314.000=100.000,315.000=400.000,343.000=100.000,344.000=400.000,372.000=100.000,373.000=400.000,434.000=800.000;
#STOPS:;
#BGCHANGES:;

//---------------dance-single - EVOLUTION----------------
#NOTES:
     dance-single:
     EVOLUTION:
     Challenge:
     19:
     1.000,1.000,1.000,0.020,0.424: // measure 1
0000
0000
0000
0000
,  // measure 2
1001
0010
0100
1000
0010
0100
0010
1000
0001
1000
0100
0010
0001
0010
0100
1000
,  // measure 3
0010
0100
0010
0100
0001
0010
0100
1000
0001
1000
0001
1000
0001
0000
1000
0000
,  // measure 4
0001
1000
0001
1000
0001
1000
0001
1000
,  // measure 5
0011
1000
0001
1000
0001
1000
0001
0000
,  // measure 6
0100
0010
0100
0001
,  // measure 7
1000
0001
0010
0100
,  // measure 8
1000
0100
0010
0001
,  // measure 9
0100
0010
1000
0100
,  // measure 10
1000
0001
0100
1000
,  // measure 11
0001
0010
1000
0010
,  // measure 12
0001
0100
0010
1000
,  // measure 13
0001
0100
0010
1000
,  // measure 14
0001
0010
0100
0010
,  // measure 15
0100
0010
0001
0100
,  // measure 16
0010
1000
0001
1000
,  // measure 17
0100
0001
0100
1000
,  // measure 18
0010
0100
0001
0100
,  // measure 19
0010
1000
0100
0010
,  // measure 20
0001
0000
1000
0000
0001
0000
1000
0001
,  // measure 21
1000
0001
1000
0001
1100
0001
1000
0001
,  // measure 22
1000
0001
1010
0001
1000
0001
1000
0000
,  // measure 23
0001
0100
0010
1000
,  // measure 24
0100
0001
0100
1000
,  // measure 25
0010
0001
0010
1000
,  // measure 26
0100
1000
0001
0100
,  // measure 27
1000
0100
0001
0010
,  // measure 28
0100
0010
0001
0100
,  // measure 29
1000
0100
0001
0010
,  // measure 30
1000
0010
0001
0100
,  // measure 31
0010
1000
0100
0001
,  // measure 32
0100
1000
0010
0001
,  // measure 33
0010
1000
0100
1000
,  // measure 34
0010
0000
0100
0000
0001
0000
0100
0010
,  // measure 35
0100
0001
1000
0100
0010
0001
0010
0100
,  // measure 36
1000
0001
0100
0010
1000
0100
1000
0010
,  // measure 37
0100
0001
0010
0001
0100
0010
0100
0010
,  // measure 38
1000
0000
0100
0000
1000
0000
0010
0000
0100
0000
0010
0000
0101
0000
0010
1000
,  // measure 39
0100
0000
0010
0001
0010
0001
1000
0100
1000
0010
0100
0001
1000
0000
0010
1000
,  // measure 40
0100
0000
1000
0001
0100
0010
0100
0010
1000
0001
1000
0001
0011
0000
0100
0010
,  // measure 41
1000
0000
0001
0010
0011
0011
1100
1100
0011
1100
0011
1100
0011
0000
1000
0100
,  // measure 42
1000
0010
0100
0001
0011
0010
0100
1000
1100
0001
0100
0010
1001
0000
0000
0000
,  // measure 43
0010
0010
0110
0100
0110
0010
0110
0000
,  // measure 44
0001
1000
0011
1100
0011
1100
0011
0000
,  // measure 45
1100
0100
1100
1000
1100
0100
1100
0000
,  // measure 46
1010
0101
1010
0101
1010
0101
1010
0000
,  // measure 47
0011
0001
0011
0010
0011
0001
0011
0000
,  // measure 48
1010
0101
1010
0101
1010
0101
1010
0000
,  // measure 49
0101
0001
0101
0100
0101
0001
0101
0000
,  // measure 50
0011
1100
0011
1100
0011
1100
0011
0000
,  // measure 51
1010
0010
0110
0100
0101
0001
0101
0000
,  // measure 52
1010
0101
1100
0011
1010
0101
1100
0000
,  // measure 53
1010
0010
1010
0100
0101
0010
0011
0000
,  // measure 54
1010
0101
1010
0101
1100
0011
1100
0000
,  // measure 55
1010
0010
0101
1000
1010
0001
0101
0000
,  // measure 56
0011
0011
1100
1100
0011
0011
1100
1100
,  // measure 57
0011
0000
0011
0000
1000
0010
1000
0000
0100
0001
0100
0000
0010
1000
0100
1000
,  // measure 58
0010
0100
0001
1000
0010
0100
0001
1000
0010
0100
0001
0100
1000
1000
1010
0000
,  // measure 59
0100
0100
0101
0000
0010
0010
1010
0000
0100
0100
0101
0000
0010
0010
1010
0000
,  // measure 60
0100
0100
0101
0000
0010
0010
0011
0000
1000
1000
1010
0000
0011
1100
0011
0000
,  // measure 61
1100
0011
1100
0000
0011
1100
0011
0000
1100
0011
1100
0000
0011
1100
0011
0000
,  // measure 62
1100
0011
1100
0000
0010
0100
1001
0000
0001
0000
1000
0000
0001
0000
1000
0000
,  // measure 63
0001
1000
0001
1000
0001
1000
0011
1000
,  // measure 64
0011
1000
0001
1000
1001
0000
0010
1000
,  // measure 65
0100
0000
1000
0001
1000
0000
0001
0100
,  // measure 66
0010
0100
0001
1000
0100
1000
0010
0100
,  // measure 67
0001
0100
0010
1000
0001
0100
0010
0100
,  // measure 68
0001
1000
0010
0100
0001
0000
0010
1000
,  // measure 69
0100
0000
1000
0001
0100
0000
1000
0010
,  // measure 70
0100
0010
1000
0001
0010
0001
0100
0010
,  // measure 71
1000
0010
0100
0001
1000
0010
0100
0010
,  // measure 72
1000
0001
0100
0010
1000
0000
0001
0100
,  // measure 73
0010
0000
1000
0100
1000
0000
0010
0001
,  // measure 74
0010
0001
1000
0100
0010
0001
0100
0010
,  // measure 75
1000
0100
0010
0001
0100
0001
0010
0100
,  // measure 76
1000
0010
0100
0001
1000
0000
0001
0100
,  // measure 77
0010
0000
0001
1000
0100
0000
0001
0010
,  // measure 78
0001
0100
0010
1000
0100
1000
0100
0001
,  // measure 79
0100
0000
1000
0000
0010
0000
0100
0000
0001
0010
1000
0000
1001
0000
0000
0000
,  // measure 80
0010
0100
0010
0000
0001
1000
0100
0000
,  // measure 81
0100
0001
0010
0100
1000
0100
0001
0100
,  // measure 82
1000
0010
0100
0001
0100
1000
0100
0001
,  // measure 83
0100
0010
1000
0001
0100
0010
0100
0000
,  // measure 84
0010
0100
0001
0000
1000
0100
1000
0000
,  // measure 85
0010
0100
0001
0100
0010
1000
0100
0001
,  // measure 86
0100
0000
1000
0000
0001
0000
0010
0000
1000
0000
0010
0000
0001
0010
1000
0000
,  // measure 87
1001
0000
0100
0010
0100
0000
0001
0100
,  // measure 88
0010
0000
0001
0010
0100
1000
0010
0100
,  // measure 89
0001
0010
0100
0010
0001
1000
0100
0010
,  // measure 90
0001
0010
0001
0010
0100
1000
0010
0100
,  // measure 91
0001
0000
0010
0100
0001
0000
0010
0100
,  // measure 92
1000
0000
0001
0100
0010
1000
0001
0100
,  // measure 93
1000
0100
0001
0010
0100
0010
0001
0100
,  // measure 94
0010
1000
0100
0000
0001
1000
0001
0000
0100
0000
0010
0000
1000
0000
0001
0000
,  // measure 95
0100
0000
0010
0100
0010
0000
1000
0000
0001
0000
0100
0000
0010
0000
1000
0000
,  // measure 96
0001
0100
0001
0000
1100
0000
0011
0000
,  // measure 97
1100
0000
0011
0000
1100
0000
0010
0100
,  // measure 98
0001
0000
0010
0000
0100
0010
0100
0000
0010
0000
0001
0000
0100
0000
0010
0000
,  // measure 99
1000
0000
0100
0000
1000
0001
1000
0000
0010
0000
0100
0000
0001
0000
1000
0000
,  // measure 100
0010
0100
0101
0000
0101
0000
1010
0000
,  // measure 101
1010
0000
0101
0000
0101
0000
0010
1000
,  // measure 102
0100
0000
1000
0000
0100
0010
0100
0000
0010
0000
0001
0000
0100
0000
0010
0000
,  // measure 103
1000
0000
0100
0000
0010
0001
0010
0000
0001
0000
0100
0000
0010
0000
0100
0000
,  // measure 104
0010
0000
1000
0000
0001
1000
0001
0000
0100
0000
0010
0000
0100
0001
0100
0000
,  // measure 105
0010
0000
1000
0000
0001
0010
0001
0000
0100
0000
0010
0000
0100
0001
0100
0000
,  // measure 106
0010
0000
1000
0000
0100
0010
0100
0000
0010
0000
0001
0000
1000
0010
1000
0000
,  // measure 107
0010
0000
0100
0000
0001
1000
0001
0000
0100
0000
0010
0000
1000
0010
1000
0000
,  // measure 108
0001
0000
0100
0000
0010
0100
0010
0000
1000
0000
0001
0000
0100
0010
0100
0000
,  // measure 109
0001
1000
0010
0010
2002
0000
0000
0000
,  // measure 110
0000
0000
0000
0000
,  // measure 111
0000
0000
0000
0000
,  // measure 112
0000
0000
0000
0000
,  // measure 113
0000
0000
0000
0000
,  // measure 114
0000
0000
0000
0000
,  // measure 115
0000
0000
0000
0000
,  // measure 116
3003
0000
0000
0000
;
