#TITLE:Pluto III;
#SUBTITLE:;
#ARTIST:Unknown artist;
#TITLETRANSLIT:;
#SUBTITLETRANSLIT:;
#ARTISTTRANSLIT:;
#CREDIT:;
#BANNER:Pluto 3.png;
#BACKGROUND:Pluto 3-bg.png;
#LYRICSPATH:;
#CDTITLE:;
#MUSIC:Pluto III.ogg;
#OFFSET:0.000;
#SAMPLESTART:41.560;
#SAMPLELENGTH:15.460;
#SELECTABLE:YES;
#BPMS:0.000=100.000,67.000=200.000,163.000=100.000,179.000=400.000,307.000=100.001,308.000=200.001,312.500=84.801,313.000=83.081,313.500=77.061,314.000=68.601,314.500=67.801,315.000=64.181,315.500=53.361,316.000=36.141;
#STOPS:2.688=1.440
;
#BGCHANGES:;

//---------------dance-single - ----------------
#NOTES:
     dance-single:
     :
     Hard:
     10:
     0.391,0.780,0.085,0.075,0.009: // measure 1
1000
0100
1000
0100
1000
0000
1000
0000
,  // measure 2
1000
0001
0001
1000
,  // measure 3
1000
0000
0100
0000
0010
0000
0001
0001
,  // measure 4
0001
0000
1000
1000
1000
0000
0001
0001
,  // measure 5
0001
0000
1000
1000
1000
0000
0020
0000
,  // measure 6
0100
0100
0100
0100
0100
0100
0100
0100
,  // measure 7
0100
0100
0100
0100
0130
0000
0200
0010
,  // measure 8
0010
0010
0010
0010
0010
0010
0010
0010
,  // measure 9
0010
0010
0010
0010
0310
0000
0001
0000
,  // measure 10
1000
0100
1000
0100
0000
0000
0020
0030
,  // measure 11
0001
1000
0100
0010
0000
0000
1002
0000
,  // measure 12
0000
0000
1000
0010
0003
0000
2000
0000
,  // measure 13
0100
0000
0010
0001
3000
0000
1000
0010
,  // measure 14
0000
0000
1000
1000
0010
0010
1000
0010
,  // measure 15
0000
0000
1000
0000
0001
0001
0010
0010
,  // measure 16
0010
0010
0010
0010
0010
0010
0010
0000
,  // measure 17
1000
0100
0001
1000
,  // measure 18
1000
0100
1000
0000
0000
0010
0000
0000
,  // measure 19
0010
0001
0010
0000
0000
0000
0100
0000
,  // measure 20
0100
1000
0100
0000
0000
0000
0010
0000
,  // measure 21
0010
0001
0010
0000
0000
0000
0100
0000
,  // measure 22
0000
0100
1000
0100
0100
0000
0010
0000
,  // measure 23
0000
0001
0010
0000
0001
0000
0010
0001
,  // measure 24
0001
0001
0000
0001
0000
0000
1000
0000
,  // measure 25
1000
0010
1000
0000
0000
0000
0010
0000
,  // measure 26
0000
0000
0000
0100
0000
0000
0000
0000
,  // measure 27
0000
0000
0000
0100
0000
0000
0000
0000
,  // measure 28
0010
0000
0000
0000
0000
0001
0000
0000
,  // measure 29
0000
0000
0000
1000
0000
0000
0100
0000
,  // measure 30
0000
0000
0000
0100
0000
0000
0000
0000
,  // measure 31
0000
0000
0000
0000
0000
1000
0000
0000
0000
0000
0000
0000
0000
0000
0000
0001
,  // measure 32
0000
0000
0000
0000
0000
0001
0000
0000
,  // measure 33
0000
1000
0000
1000
,  // measure 34
1000
0001
0001
1000
,  // measure 35
0010
0100
1000
1100
,  // measure 36
0010
0100
0010
0100
,  // measure 37
0010
0000
0100
0000
0000
0010
0000
0010
,  // measure 38
0100
1000
0100
0010
,  // measure 39
0100
0000
0010
0000
0000
0000
0010
0100
,  // measure 40
0000
0010
0100
0000
0010
0100
0000
0010
,  // measure 41
0000
0100
0000
0000
0000
0000
2000
0001
,  // measure 42
3001
0010
0100
1000
1100
0010
0001
0110
,  // measure 43
1000
0001
0010
0100
0110
0110
0001
1000
,  // measure 44
1010
0100
0010
0100
0101
0010
0100
1000
,  // measure 45
1000
0100
0010
1000
0100
0000
1000
0000
,  // measure 46
0000
1000
0000
1000
,  // measure 47
0000
1000
0000
1000
,  // measure 48
0000
1000
0000
1000
,  // measure 49
0000
1000
0000
0001
,  // measure 50
0000
0001
0000
0001
,  // measure 51
0000
0001
0000
0001
,  // measure 52
0000
0001
0000
0001
,  // measure 53
0000
0001
0000
0010
,  // measure 54
0000
0010
0000
0010
,  // measure 55
0000
0010
0000
0010
,  // measure 56
0000
0010
0000
0010
,  // measure 57
0000
0010
0000
0100
,  // measure 58
0000
0100
0000
0100
,  // measure 59
0000
0100
0000
0100
,  // measure 60
0000
0100
0000
0100
,  // measure 61
0000
0100
0000
1000
,  // measure 62
0000
1000
0000
0001
,  // measure 63
0000
0001
0000
1000
,  // measure 64
0000
1000
0000
0001
,  // measure 65
0000
0001
0000
1000
,  // measure 66
0000
1000
0000
0001
,  // measure 67
0000
0001
0000
1000
,  // measure 68
0000
1000
0000
0001
,  // measure 69
0001
0000
0000
0010
,  // measure 70
0000
0010
0000
0100
,  // measure 71
0000
0100
0000
0010
,  // measure 72
0000
0010
0000
0100
,  // measure 73
0000
0100
0000
0010
,  // measure 74
0000
0010
0000
0100
,  // measure 75
0000
0100
0000
0010
,  // measure 76
0100
0000
0100
0000
,  // measure 77
1001
0000
0000
0000
0020
0000
0000
0030
,  // measure 78
1000
0100
1000
0100
1000
0100
0000
0000
,  // measure 79
0000
0020
0000
0000
0000
0000
0000
0000
,  // measure 80
0030
0000
0000
0000
;

//---------------dance-single - ----------------
#NOTES:
     dance-single:
     :
     Challenge:
     12:
     0.542,0.929,0.376,0.085,0.179:
1000
0000
1000
0100
1000
0000
1000
0100
0000
0010
0100
0000
1000
0100
0000
0000
,
0001
0000
1000
0000
1010
0000
0000
0001
0100
0010
0000
0010
0000
0100
0000
0100
,
0010
0000
0100
0010
0000
1000
0100
0000
0100
0000
1000
0000
1000
0000
0000
0100
,
0010
0001
0000
1000
0100
0000
0100
0000
0101
0000
1000
0100
0000
1000
0100
0000
,
0001
0010
0000
0000
0010
0100
0000
0010
0000
0000
0000
0000
1000
0100
0000
1000
,
0010
0100
0010
0010
1001
1001
0110
0110
,
1000
0100
0010
0001
1000
0100
0010
0001
2000
0000
0010
0000
0100
0000
0010
0000
,
3100
0002
0000
0000
2000
0000
0003
0000
,
3010
0100
0010
0100
0010
0010
1000
1000
,
0001
0001
0010
0010
0100
0100
1000
1000
,
0100
0000
0100
0000
0010
0000
0010
0000
0001
0000
0000
0000
1000
0100
1000
0000
,
0001
0010
0001
0000
1000
0100
1000
0000
0001
0010
0001
0000
1000
0100
1000
0000
,
0001
0100
0001
0000
1000
0010
1000
0000
0001
0000
0000
0000
2000
0000
0100
0000
,
3000
0000
0010
0001
0001
1000
0100
0010
,
0100
0000
1001
0010
0100
0000
1100
0110
,
0011
0110
1100
0110
0001
0010
0100
1000
,
0100
0010
0001
1000
0001
0000
1000
1000
,
1000
0000
0001
0001
0001
0000
1000
1000
,
1000
0000
0001
0001
0001
0000
1000
1000
,
1000
0000
0010
0010
0010
0000
0100
0100
,
0100
0000
1000
1000
1000
0000
0001
0000
,
0001
0000
1000
1000
1000
0000
0010
0000
,
0010
0000
0001
0001
0000
0000
1000
1000
,
1000
0000
0100
0100
0100
0000
0001
0001
,
1000
0001
0000
1000
,
0000
0000
0000
1000
0000
0000
0000
0000
,
0000
0000
0000
1001
0000
0000
0000
0000
,
1000
0000
0000
0000
0000
1000
0000
0000
,
0000
0001
0000
1000
,
0000
0000
0000
0110
0000
0000
0000
0000
,
0000
0000
0000
0110
0000
0000
0000
0000
,
0000
1001
0000
0000
0000
0000
0000
0000
0000
1001
0000
0000
0000
0000
0000
0000
,
1000
0100
1000
0000
0000
0000
1000
0000
,
1000
0001
0001
0010
,
0100
1000
0010
0010
,
0000
1100
1100
0000
0000
0010
0000
0001
,
0000
0001
0000
0010
0000
0100
0000
0000
,
1100
1100
0000
0000
0020
0000
0000
0031
,
1000
0100
0010
0100
,
1000
0100
0000
0001
,
0010
0000
0100
0000
0000
0000
1000
1000
,
1100
0001
0010
0001
0010
0110
1000
0100
,
0100
1100
0100
0010
0010
0011
0010
0100
,
1100
0011
0110
1100
0001
1000
0010
0110
,
0110
0010
0001
1000
0001
0010
1000
0000
,
0000
1000
0001
0000
,
1000
1000
0100
0100
,
0010
0010
0001
0000
,
1001
0000
1000
0000
0000
0100
0000
0000
,
0000
0100
0000
0000
0000
0100
0000
0000
,
0000
0100
0000
0000
1000
0000
0000
0000
,
1000
0000
1000
0000
,
1000
0000
1001
0000
,
0000
0000
0000
1001
0000
0000
0000
0000
,
1000
0100
1000
0100
,
1000
0100
0010
0001
,
0010
0001
0010
0001
,
0010
0001
0010
0100
,
1000
0100
0000
0100
,
1000
0100
0000
0100
,
1000
0100
0000
0100
,
1000
0010
0000
0010
,
0000
0010
0010
0000
,
0010
0010
0000
0000
,
0010
1000
0000
0001
,
0001
1000
0001
1001
,
0000
0000
0110
0000
,
1010
0000
0000
0101
,
2000
0010
0000
0010
,
0000
0010
0000
0010
,
0100
0000
0100
0000
,
0100
0000
0100
0000
,
3100
1000
1000
0000
,
0001
0001
0000
1000
,
1000
0000
0001
0001
,
1000
1000
0001
0001
,
2000
0000
0000
3000
,
1000
0001
1000
0001
1000
0001
1000
0001
1000
0000
0000
0000
0000
0000
0000
0000
,
2002
0000
0000
0000
,
3003
0000
0000
0000
;

//---------------dance-single - ----------------
#NOTES:
     dance-single:
     :
     Medium:
     8:
     0.238,0.409,0.019,0.113,0.000:
1000
0001
1000
1000
,
1000
0000
0001
0000
0001
0000
1000
1000
,
1000
0001
0001
1000
,
0010
0000
0100
0000
0100
0100
0000
0010
,
0000
0010
0000
0100
0000
0000
1000
0000
,
0100
1000
1000
1000
,
0100
1000
1000
0001
,
0010
0001
0001
0001
,
0010
0001
1001
2000
,
0000
0000
3000
0002
,
0000
0000
0003
2000
,
0000
0000
3000
0000
,
0010
0000
0000
0000
0000
0000
0100
0010
,
0000
0000
0100
0100
0010
0010
0000
0000
,
0100
0000
0000
0000
0001
1000
0020
0000
,
0000
0000
0000
0000
0000
0030
1000
0000
,
1000
1000
0000
1000
,
0100
1000
0100
1000
,
0100
0100
0100
0100
,
1000
0000
0100
0000
0100
1000
0100
0000
,
0100
0100
0000
0010
,
0010
0000
0010
0000
0010
0000
0001
0010
,
0001
0001
0001
1000
,
0010
0100
0100
0010
,
0010
1000
0000
1000
,
0000
0000
0000
0000
,
0000
1000
0000
0000
,
0000
0001
0000
0000
,
0000
0001
0000
0000
,
0000
1000
0000
0000
,
0000
1000
0000
0000
,
0000
0000
0001
0000
0000
0001
0000
0000
,
0000
1000
0000
0000
0000
0000
2000
0000
,
0000
0000
0000
0000
,
0000
0000
0000
3000
0010
0100
0000
0000
,
0100
0000
0001
0000
1000
0010
0000
0000
,
0100
0200
0000
0000
0000
0301
0000
0000
,
1000
0010
0000
0100
0000
0100
1000
0000
,
0011
0010
0000
0100
,
1000
0100
0000
0000
0100
0000
0100
0000
,
0001
0000
0000
1000
0000
0000
1000
1000
,
0100
0000
0100
0100
0010
0000
0001
0001
,
0010
0000
0100
0100
1000
0000
0000
1000
,
0100
0000
0000
0001
0010
0000
0000
1000
,
0100
0000
0000
0001
0010
0000
2000
0000
,
0000
0000
0000
0000
,
0000
0000
0000
0000
,
0000
0000
0000
0000
,
0000
0000
0000
0002
,
0000
0000
0000
0000
,
0000
0000
0000
0000
,
0000
0000
3000
0000
,
0000
0000
0000
0000
,
0000
0000
0000
0000
,
0000
0000
0000
0000
0000
2000
0000
0000
,
0000
0000
0000
0000
,
0000
0000
0000
0000
,
0000
0000
0000
0000
,
0000
0000
0000
0000
0000
0003
0000
0000
,
0000
0000
0000
0000
,
3000
0000
0000
0000
0000
0010
0000
0000
,
0000
0010
0000
0010
,
0000
0000
0000
0010
,
0000
0000
0000
0000
,
0000
0000
0000
0010
,
0000
0010
0000
0010
,
0000
0000
0000
0000
,
0000
0010
0000
0000
,
0000
0000
0000
0010
,
0000
0000
0000
0010
0000
0000
0000
0010
,
0000
0000
0000
0010
,
0000
0010
0000
0010
,
0000
0000
0000
0000
0000
0020
0000
0000
,
0000
0000
0000
0200
,
0000
0000
0000
0000
,
0000
0000
0000
0000
,
0330
0000
0001
0000
,
1000
0001
1000
0000
0001
0000
0000
0000
,
0000
0200
0000
0000
0000
0000
0000
0000
,
0300
0000
0000
0000
;

//---------------dance-single - ----------------
#NOTES:
     dance-single:
     :
     Easy:
     5:
     0.173,0.478,0.047,0.132,0.000:
1000
0000
1000
0001
,
0000
0001
0000
0001
,
0000
0001
0000
0010
,
0000
0100
0000
0010
,
0000
0100
0000
2002
,
3003
0220
0330
2002
,
3003
0220
0330
1002
,
1000
1000
1000
1001
,
0001
0001
0001
0010
,
0010
0100
0100
0010
,
1000
1000
0001
0010
,
0010
0100
0100
0001
,
1000
0010
0000
1000
,
0000
0001
0001
1000
,
0000
0001
0001
1000
,
0000
0001
0001
0020
,
0000
0030
0000
1000
,
0000
1000
0000
1000
,
0000
1000
0000
1000
,
0000
1000
0000
1000
,
0000
1000
0000
0001
,
0000
0001
0000
0001
,
0000
0001
0000
0001
,
0000
0001
0000
0001
,
0000
0001
0000
2000
,
0000
0000
0000
0000
,
0000
0000
0000
0000
,
0002
0000
0000
0000
,
0000
0000
3000
0000
,
0000
0000
0000
0000
,
2000
0000
0000
0000
,
0000
0000
0000
0000
,
3003
0000
0000
0010
,
0000
0010
0000
0010
,
0000
0010
0000
0100
,
0000
0100
0000
0100
,
0000
0100
0000
0100
,
0000
0010
0000
0010
,
0000
0000
0010
0000
,
0010
0000
0100
0000
,
0000
0100
0000
1000
,
0100
1000
0100
0010
,
0000
0010
0000
1000
,
0100
1000
0100
0010
,
0000
0010
0000
1000
,
0000
0000
0000
0000
,
0000
0000
0000
0000
,
0000
0000
0000
0000
,
0000
0000
1000
0000
,
0000
0000
0000
0000
,
0000
0000
0000
0000
,
0000
0000
0000
0000
,
0000
0000
0000
0001
,
0000
0000
0000
0000
,
0000
0000
0000
0001
,
0000
0000
0000
0000
,
0000
0000
0000
1000
,
0000
0000
0000
0000
,
0000
0000
0000
0000
,
0000
0000
0000
1000
,
0000
0000
0000
0010
,
0000
0000
0000
0000
,
0000
0000
0000
0000
,
0000
0000
0000
0000
,
0000
0000
0100
0000
,
0000
0000
0000
0000
,
0000
0000
0000
0001
,
0000
0000
0000
0000
,
0000
0000
0000
1000
,
0000
0000
0000
0000
,
0000
0000
0000
0000
,
1000
0000
0000
0000
,
0000
0000
0010
0000
,
0000
0000
0000
0000
,
0000
0000
0100
0000
,
0000
0000
0000
0000
,
0000
0000
0000
0020
,
0030
1000
0001
0000
,
0000
0010
0000
0000
0000
0000
0000
0000
;

//---------------dance-single - ----------------
#NOTES:
     dance-single:
     :
     Beginner:
     2:
     0.105,0.220,0.056,0.075,0.000:
1000
0000
0001
0000
,
1000
0000
0000
0000
,
1000
0000
0000
0000
,
0100
0000
0000
0000
,
0100
0000
0000
0000
,
0010
0000
0000
0000
,
0010
0000
0000
0000
,
0001
0000
0000
0000
,
0001
0000
0000
0000
,
1000
1000
0000
0000
,
0001
0001
0000
0000
,
1000
1000
0000
0000
,
0001
0001
0000
2000
,
0000
0000
3000
2000
,
0000
0000
3000
0010
,
0000
0000
0000
1000
,
0000
0000
0000
1000
,
0000
0000
0000
0000
,
0000
0000
0000
0000
,
0000
0000
0000
0000
,
0000
0000
0000
0100
,
0000
0000
0000
0000
,
0000
0000
0000
0000
,
0000
0000
0000
0000
,
0000
0000
0000
0010
,
0000
0000
0000
0000
,
0000
0000
0000
0000
,
0000
0000
0000
0001
,
0000
0000
0000
0000
,
0000
0000
0000
1000
,
0000
0010
0000
0000
,
0000
0000
0100
0000
,
0010
0000
0000
2000
,
0000
0000
0000
3000
,
0000
0000
0000
0000
,
0000
0002
0000
0000
,
0000
0000
0000
0003
,
0000
0000
0000
1000
,
0000
0010
0000
1001
,
0000
0000
0000
0010
,
0000
0000
0000
1001
,
0000
0010
0010
0100
,
0000
0010
0010
0100
,
0000
0010
0010
0100
,
0000
1001
0000
2002
,
0000
0000
0000
0000
,
0000
0000
0000
0000
,
0000
0000
0000
0000
,
0000
0000
0000
0000
,
0000
0000
0000
0000
,
0000
0000
0000
0000
,
0000
3003
0000
0000
,
0000
0000
0000
0220
,
0000
0000
0000
0000
,
0000
0000
0000
0000
,
0000
0000
0000
0000
,
0000
0000
0000
0000
,
0000
0000
0000
0000
,
0000
0000
0000
0000
,
0000
0000
0330
0000
,
0000
0000
0000
1000
,
0000
0000
0000
0000
,
0000
0000
0000
1000
,
0000
0000
0000
0000
,
0000
0000
0000
1000
,
0000
0000
0000
0000
,
0000
0000
0000
1000
,
0000
0000
0000
0000
,
0000
0000
0000
0001
,
0000
0000
0000
0001
,
0000
0000
0000
0001
,
0000
0000
0000
0001
,
0000
0000
0000
1000
,
0000
0000
0000
1000
,
0000
0000
0000
1000
,
0000
0000
0000
1000
,
0000
0000
0000
1001
,
0000
0000
1000
0000
,
0000
0100
0000
0000
0000
0000
0000
0000
;
