#TITLE:Patty Canyon;
#SUBTITLE:;
#ARTIST:Unknown artist;
#TITLETRANSLIT:;
#SUBTITLETRANSLIT:;
#ARTISTTRANSLIT:;
#CREDIT:;
#BANNER:bn.png;
#BACKGROUND:bg.png;
#LYRICSPATH:;
#CDTITLE:cdtitle.png;
#MUSIC:PATTY CANYON.ogg;
#OFFSET:0.000;
#SAMPLESTART:17.270;
#SAMPLELENGTH:12.000;
#SELECTABLE:YES;
#BPMS:0.000=112.040,68.000=112.100;
#STOPS:68.000=0.520
;
#BGCHANGES:;

//---------------dance-single - ----------------
#NOTES:
     dance-single:
     :
     Beginner:
     2:
     0.233,0.277,0.192,0.082,0.000:
0000
1000
1000
1000
,
0001
0001
0001
0010
,
0010
0010
0100
0100
,
0100
1000
0100
0000
,
0010
0001
0000
1000
,
1000
0000
0000
0000
,
0100
0000
0000
0000
,
0010
0001
0010
0001
,
0010
0001
0000
2000
,
0000
0000
0000
0000
,
3000
0000
0000
0010
,
0100
2001
0000
3010
,
0100
0000
0010
0100
,
0000
0001
0010
0100
,
1000
0100
0010
0002
,
0003
0000
2000
3000
,
0010
0010
0000
0000
,
1001
1000
1000
1000
,
0000
1000
1000
0000
,
1000
1000
1000
0100
,
0010
0001
0010
0100
,
0010
0001
0010
0100
,
1000
0100
2010
0001
,
0010
0100
0010
3001
,
1100
0011
0000
1000
,
0110
0110
1000
0001
,
0000
0001
0010
0100
,
1000
0100
0010
0001
,
0020
0000
0030
0000
,
1001
0011
1100
0010
,
0010
0010
0010
0010
,
0100
0000
0010
0010
,
0000
1001
0000
0000
,
0000
1001
1001
0110
;

//---------------dance-single - ----------------
#NOTES:
     dance-single:
     :
     Easy:
     4:
     0.362,0.345,0.137,0.110,0.000:
0000
0000
0000
1000
0100
0000
0010
0000
,
0000
0001
0000
0000
1000
1000
1000
1000
,
0010
0010
0000
0000
0100
0100
0000
0001
,
0001
1000
1000
0100
0000
0100
0000
0010
,
0000
0000
0010
0000
1000
1000
0100
0100
,
0010
0001
0001
1000
0000
0100
0010
0001
,
0000
0010
0100
0000
1000
1000
0100
0000
,
1000
0100
0000
0001
0001
0001
0001
0001
,
0001
0001
0001
0000
1001
0000
0010
0100
,
0000
0010
0010
0000
0100
0001
1000
0000
,
0000
1000
0000
0100
0010
0000
0001
0011
,
1100
0000
1010
0101
0000
0010
0100
0010
,
0000
0100
0001
0010
0000
1100
0000
0000
,
0010
0001
0000
0010
0100
1000
0000
0001
,
1000
0010
0000
0100
0000
0000
0002
0000
,
0000
0000
0000
0010
0000
0100
0013
0000
,
0000
0010
0000
0000
1000
1000
0000
0100
,
0001
0001
0000
0000
0001
0000
0000
0000
,
0001
0000
0001
0000
,
0001
0000
0000
0000
0000
0000
1000
0100
,
0000
0010
0000
1000
0000
0010
0001
0000
,
0010
0100
0100
0000
0010
0010
0000
0001
,
0001
0001
0001
0000
0000
1000
1000
0100
,
1000
1000
0100
0000
1000
0010
0000
1001
,
0010
0100
0000
2002
0000
3003
0000
0000
,
0000
1000
1000
0010
0001
0010
0010
0010
,
0001
0010
0010
0100
0000
1000
1000
1000
,
1000
0100
0010
0000
0001
0010
0100
0010
,
0010
0010
0100
0100
1000
1000
0000
0000
,
2002
3000
0020
0000
0033
0000
1000
0100
,
0010
0000
0000
0001
0010
0100
1000
0000
,
0000
0000
1000
0000
0000
1000
0000
0000
,
0001
0010
0000
0100
1000
0001
0010
0100
,
0000
0010
2002
3000
0003
0010
0000
0000
;

//---------------dance-single - ----------------
#NOTES:
     dance-single:
     :
     Medium:
     7:
     0.585,0.532,0.918,0.178,0.000:
0000
0000
0000
1000
1000
1000
1000
1000
,
0000
1000
0100
0110
0010
0001
0000
0001
,
0001
0001
0000
1100
1000
0010
0000
0011
,
0000
0100
0100
1100
1000
1000
0100
0100
,
0100
0010
0010
0010
0010
0001
0001
0001
,
1000
0000
1000
0010
0000
1001
1000
0100
,
0010
1010
1000
0100
1000
0010
1100
1010
,
0000
1000
0000
1100
0010
1100
0010
1100
,
0010
0100
0000
0100
0000
0000
1000
0110
,
1000
0110
0000
1100
0010
1100
0010
1100
,
0000
0110
1000
1100
0000
0010
0000
1001
,
1001
0110
1001
1001
0000
0010
0010
0100
,
0100
0110
0020
0230
0310
0002
1003
0100
,
0010
0011
0100
0110
0110
2002
0000
0003
,
0000
0100
0001
0010
0100
3010
2000
0020
,
0000
3030
2000
0000
0000
0001
3001
0001
,
0001
0010
0010
0010
1000
1001
1001
0010
,
0110
0010
0000
0010
0010
0010
0010
0010
,
0000
1100
0001
0110
1000
0010
0100
1001
,
0000
0010
0001
1000
0000
0000
0000
1001
,
1010
1000
0001
0001
1000
0011
0000
0100
,
1000
0001
0001
1010
0010
1100
0100
0011
,
0010
0100
0000
0000
0110
0101
1000
1010
,
0100
1000
0010
0010
1001
1000
0110
0001
,
0000
0011
2000
0200
0000
3300
0000
0000
,
0000
1001
0000
1010
0001
1010
0000
1001
,
0010
1000
0001
1000
0011
0110
0001
0010
,
0001
0011
0010
0011
0001
1000
0000
1000
,
0100
0011
1000
0100
0010
0001
0000
0000
,
1000
0110
0001
0110
1000
0110
0001
0110
,
1000
1100
0100
1010
1000
1100
0100
1000
,
0000
1100
0011
1100
0000
1100
1000
0010
,
0010
1001
0001
1000
0001
0001
0001
0001
,
0001
2000
0000
3200
0000
0320
0030
0000
;

//---------------dance-single - (WARNING!!! DO NOT PLAY ON MAT unless your Ryota Wada)----------------
#NOTES:
     dance-single:
     (WARNING!!! DO NOT PLAY ON MAT unless your Ryota Wada):
     Hard:
     15:
     0.626,0.665,0.699,0.151,1.000: // measure 1
0000
0000
0000
0000
1000
0000
0100
0000
0010
0001
0000
1000
,  // measure 2
0100
0010
0000
0001
1000
0100
0010
0001
1000
1000
1000
0010
,  // measure 3
0000
0010
0010
0000
0001
0001
0001
0000
0000
1000
1000
1000
,  // measure 4
0000
0010
0010
0010
0000
0001
0001
0001
0000
0000
1000
1000
,  // measure 5
1000
0000
0010
0000
0000
0000
0000
1000
0100
1000
0010
0010
,  // measure 6
1000
0001
0001
0000
0110
0000
1001
1001
0001
0010
0000
1000
,  // measure 7
0100
1000
0010
0010
1000
0000
0000
1000
0100
1010
0100
0010
,  // measure 8
0000
1000
0000
0000
1000
0100
0010
1100
0010
1000
0100
0010
,  // measure 9
1000
0100
1010
0100
0000
0001
0001
0000
0000
1000
0000
0001
,  // measure 10
0010
0100
0100
0220
0000
0000
0300
0001
0000
0000
0000
0001
,  // measure 11
0000
0030
1000
0110
0000
0001
1000
0010
0000
0000
0000
2001
,  // measure 12
0100
0000
0010
0010
0000
3001
0000
0001
0001
0010
0010
0010
,  // measure 13
0100
0100
1000
0000
0001
0001
0000
1000
0010
0000
1001
1000
,  // measure 14
0010
0010
0001
0001
0000
0010
0010
0100
0100
0000
1000
0100
,  // measure 15
0000
0100
0100
0000
1000
0001
1010
0001
1000
0020
0000
0032
,  // measure 16
0000
0003
1000
0010
0000
0200
0000
0000
0320
0030
0100
0100
,  // measure 17
0000
0000
0010
0000
0000
0000
0001
1001
1010
0100
1000
0000
,  // measure 18
1001
0010
0000
0000
0010
0000
0010
0000
1100
0010
1100
0000
,  // measure 19
0010
1000
0000
0000
0001
1010
0000
1000
0100
0100
1000
0010
,  // measure 20
0010
1001
0001
0000
0000
0000
0000
1001
0000
0000
0100
0000
,  // measure 21
0000
1001
0010
0000
1100
1001
0001
0010
0100
0010
1100
0000
,  // measure 22
0010
1100
0100
0100
1010
0010
1000
0001
0011
0100
0100
0010
,  // measure 23
0001
1001
0001
0000
0000
1001
0011
0100
0000
0000
1010
0000
,  // measure 24
0000
0000
1001
0000
0000
0010
1000
0100
1000
0010
0110
0000
,  // measure 25
1000
0000
0110
1010
0001
0000
1010
0000
0000
0100
1010
1100
,  // measure 26
0000
0001
0001
1010
0000
0001
0010
1001
0000
0000
0001
0000
,  // measure 27
0000
0000
0000
0000
0000
0000
1001
0000
0000
0000
1000
0000
,  // measure 28
0100
0000
0000
0010
0000
0001
0000
0010
0000
0100
0000
1000
,  // measure 29
0100
0001
0000
0010
1000
0001
0000
0010
0100
0000
0000
0000
,  // measure 30
2002
0000
3010
0000
0000
0200
2300
0000
3000
0013
0000
0010
,  // measure 31
0000
0100
0100
0100
0000
0010
0000
0100
0000
1000
1001
0001
,  // measure 32
0000
1000
0001
1000
0000
0000
1001
1001
0000
0000
0001
1000
,  // measure 33
0001
0000
1001
0001
1000
1001
0001
1000
1001
0001
1001
1000
,  // measure 34
0000
0000
0000
1001
1001
1001
0010
0000
0000
0000
0000
0000
;
