#TITLE:Pancakes;
#SUBTITLE:;
#ARTIST:OMFG;
#TITLETRANSLIT:;
#SUBTITLETRANSLIT:;
#ARTISTTRANSLIT:;
#GENRE:Glitch Hop;
#CREDIT:;
#BANNER:omfg-pancakes-dvf - banner.png;
#BACKGROUND:omfg-pancakes-dvf - BG.png;
#LYRICSPATH:;
#CDTITLE:;
#MUSIC:omfg-pancakes-dvf.mp3;
#OFFSET:0.000000;
#SAMPLESTART:100.058243;
#SAMPLELENGTH:12.000000;
#SELECTABLE:YES;
#BPMS:0.000000=110.250000
;
#STOPS:
;
#BGCHANGES:;
#KEYSOUNDS:;
#ATTACKS:;

//---------------dance-single - ----------------
#NOTES:
     dance-single:
     :
     Beginner:
     3:
     0.221131,0.401318,0.667882,0.000000,0.000000,197.000000,112.000000,85.000000,0.000000,0.000000,0.000000,0.221131,0.401318,0.667882,0.000000,0.000000,197.000000,112.000000,85.000000,0.000000,0.000000,0.000000:
0000
0000
0000
0000
,
0101
0000
0000
0000
,
1010
0000
0000
0000
,
0101
0000
0000
0000
,
1010
0000
0000
0000
,
0101
0000
0000
0000
,
1010
0000
0000
0000
,
0101
0000
0000
0000
,
1010
0000
0000
0000
,
0101
0000
0000
0000
,
1010
0000
0000
0000
,
0101
0000
0000
0000
,
1010
0000
0000
0000
,
0000
0000
0010
0000
,
0100
0000
0010
0000
,
0100
0000
0010
0000
,
0100
0000
0010
0000
,
1100
0000
0011
0000
,
1100
0000
0011
1100
,
0110
0000
0110
0000
,
0101
0000
0101
0000
,
1010
0000
0110
0110
,
0110
0110
0110
0110
,
0101
0101
0101
0101
,
0110
0110
0110
0110
,
0101
0110
0110
0110
,
0110
0110
0110
0110
,
0000
0110
0110
0110
,
0110
0110
0110
0110
,
0000
1100
0000
0011
,
0000
1100
0000
0000
,
0011
0000
0000
0000
,
1100
0000
0000
0000
,
0011
0000
1000
0100
,
0011
0000
1100
0000
,
0011
0000
1100
0000
,
0011
0000
1100
0000
,
0011
0000
1100
0000
,
0011
0000
1100
0000
,
0011
0000
1000
0100
,
0011
0000
0000
1100
,
0011
0000
0000
1100
,
0000
0011
0000
1100
,
0000
0011
0000
1100
,
0000
0011
0000
1100
,
0000
0011
0000
1100
,
0000
0110
0000
0101
,
0000
1100
0000
0011
,
0000
0000
1100
0000
,
0000
0010
0100
0000
,
0010
0000
0100
0000
,
0010
0000
0100
0000
,
0010
0000
0100
0000
,
0000
0010
0000
0100
,
0000
0010
0000
0100
,
0000
0010
0000
0100
,
0000
0010
0000
0100
;

//---------------dance-single - ----------------
#NOTES:
     dance-single:
     :
     Easy:
     5:
     0.414199,0.568436,0.746456,0.007857,0.000000,369.000000,274.000000,95.000000,1.000000,0.000000,0.000000,0.414199,0.568436,0.746456,0.007857,0.000000,369.000000,274.000000,95.000000,1.000000,0.000000,0.000000:
0000
0000
0000
0000
,
1001
0000
0110
0000
,
1001
0000
0110
0000
,
1001
0000
0110
0000
,
1001
0000
0110
0000
,
1001
0110
1001
0110
,
1001
0110
1001
0110
,
1001
0110
1001
0110
,
1001
0110
1001
0110
,
1001
0110
1001
0110
,
1001
0110
1001
0110
,
1001
0110
1001
0110
,
1001
0110
1001
0110
,
0000
0101
1010
0101
,
0110
0110
1010
0101
,
0110
0000
0000
1010
0000
0101
0000
0000
,
0000
0110
0000
0001
0000
1000
0000
0100
,
0010
0001
0000
0001
0000
0110
0000
0100
,
0000
0101
0110
0000
0100
0010
0000
0100
,
0000
0100
0000
1000
0100
0010
0000
0000
,
0000
0001
0010
0100
0000
1000
0100
0010
,
0000
0001
1000
0001
1000
0001
1000
0001
,
1000
0001
0001
1000
1000
0100
0100
0010
,
0010
0000
0001
1000
0001
1000
0001
1000
,
0001
0001
0001
0010
0010
0100
0100
1000
,
1000
0000
0001
1000
0001
1000
0001
1000
,
0001
0010
0010
0100
0100
1000
1000
0100
,
0100
0000
0001
0001
0010
0010
0100
0100
,
1000
0100
1000
0100
1000
0001
0001
0010
,
0100
1000
0000
0101
0000
0010
0000
1000
,
0000
0100
0000
0010
0000
0001
0000
1000
,
0000
1001
0000
0010
0000
0100
0000
0010
,
0000
0100
0000
0110
0000
0100
0000
0010
,
0000
1001
0000
0110
0000
1001
0100
0010
,
0000
0101
0000
0110
0000
1010
0000
0110
,
0000
0101
0000
0110
0000
1010
0000
0110
,
0000
0101
0000
0110
0000
1010
0000
0110
,
0000
0101
0000
0110
0000
1000
0000
0110
,
0000
0101
0000
0110
0000
1000
0000
0110
,
0000
0101
0000
1000
0000
0110
0000
0101
,
0000
1000
0110
0000
0000
0101
0000
0010
,
0000
0100
0000
0010
0100
0010
0000
0001
,
1000
0100
0000
0010
0010
0100
0000
0010
,
0010
0001
0000
1000
1000
0100
0000
0010
,
0010
0001
0000
1000
1000
0100
0000
0010
,
0010
0001
0000
1000
1000
0001
0000
0010
,
0010
0001
0000
0010
0010
0100
0000
0010
,
0010
0100
0000
1000
1000
0100
0000
0010
,
0010
0001
0000
1000
1000
0001
0000
0010
,
0000
1000
0000
0100
0000
0010
0000
0001
,
0000
0010
0000
0100
0000
1000
0000
0100
,
0000
0010
0000
0001
0000
1000
0000
0100
,
0000
0010
0001
0010
0000
1000
0100
0010
,
0000
0001
0010
0100
0000
1000
0100
0010
,
0000
0001
0010
0100
0000
1000
0100
0010
,
0000
0101
0101
0101
0000
0110
0110
0110
,
0000
1100
1100
1100
0000
0110
0110
0110
,
0000
0002
0000
0000
0000
0000
0000
0003
;

//---------------dance-single - ----------------
#NOTES:
     dance-single:
     :
     Medium:
     7:
     0.392872,0.382362,0.149291,0.227866,0.766100,350.000000,331.000000,19.000000,29.000000,0.000000,2.000000,0.392872,0.382362,0.149291,0.227866,0.766100,350.000000,331.000000,19.000000,29.000000,0.000000,2.000000:
0000
0000
0000
0000
,
0000
2000
0000
0001
0010
0000
0000
0100
0000
0000
0000
0001
0000
0010
0000
0100
,
0000
0000
0000
0001
0000
0010
0000
0100
0000
0000
0000
0001
0000
0010
0000
0100
,
0000
0000
0000
0001
0000
0010
0000
0100
0000
0000
0000
0001
0000
0010
0000
0100
,
0000
0000
0000
0001
0000
0010
0000
0100
0000
0000
0000
0001
0000
0010
0000
0100
,
0000
3002
0000
0000
0000
1000
0000
0100
0000
1000
0000
0000
0000
0100
0000
1000
,
0000
0100
0000
0000
0000
0100
0000
1000
0000
0100
0000
0000
0000
1000
0000
0100
,
0000
1000
0000
0000
0000
0100
0000
1000
0000
0100
0000
0000
0000
0100
0000
1000
,
0000
0100
0000
0000
0000
1000
0000
0100
0000
1000
0000
0000
0000
0100
0000
2000
,
0003
0001
0000
0000
0000
0010
0000
0100
0000
0010
0000
0000
0000
0001
0000
0010
,
0000
0100
0000
0000
0000
0100
0000
0010
0000
0100
0000
0000
0000
0001
0000
0010
,
0000
0100
0000
0000
0000
0001
0000
0010
0000
0100
0000
0000
0000
0001
0000
0010
,
0000
0001
0000
0000
0000
0001
0000
0010
0000
0001
0000
0000
0000
0000
0000
3000
,
0000
0002
0000
0000
0000
0010
0000
1000
0000
0100
0000
0000
0000
1000
0000
0100
,
0000
0010
0000
0000
0000
0100
0000
0010
0000
1000
0000
0000
0000
0100
0000
0010
,
0000
1000
0000
0000
0000
0100
0000
0100
0000
0010
0000
0000
0000
1000
0000
1000
,
0000
0100
0000
0000
0000
0010
0000
0000
0000
1100
0000
0000
0000
1000
0000
0000
,
0003
0001
0000
0000
0000
2000
0000
0000
0000
0100
0000
0000
0000
0010
0000
0100
,
0000
0010
0000
0000
0000
0100
0000
0010
0000
0100
0000
0000
0000
0101
0000
0000
,
0000
0010
0000
0000
0000
0000
0000
0000
0000
0000
0000
0000
0001
0010
0000
0100
,
0000
0000
0000
0000
0000
0100
0000
0100
0000
0010
0000
0000
0000
0001
0000
3000
,
0000
0000
0001
1000
0000
0001
0000
1000
0000
0001
0000
1000
0000
0001
0000
1000
,
0000
0001
0000
1000
0000
0000
0001
0000
1000
0000
0001
1000
0000
0001
0000
0010
,
0000
0000
0000
0100
0000
0010
0000
0100
0000
0010
0000
0100
0000
0010
0000
0100
,
0000
1000
0000
0100
0000
0000
1000
0100
0000
1000
0000
0100
0000
1000
0000
0001
,
0000
0000
0000
0001
0000
0010
0000
0100
0000
0000
0010
0001
0000
0000
0010
0001
,
0000
0000
0010
0000
0001
0000
0010
0001
0000
0010
0000
0100
0000
1000
0000
0100
,
0000
0000
0000
0001
0000
0010
0000
0001
0000
0000
0010
0001
0000
0010
0000
0001
,
0000
1000
1000
0100
0100
0010
0010
0001
,
0001
0000
0000
0000
1000
0100
0000
0010
0000
0000
0000
0001
0000
0010
0000
0100
,
0000
0000
0000
0000
1000
0000
0100
0010
0000
0000
0000
0000
0001
0010
0000
0000
,
0100
0000
0001
0010
0001
0000
1000
0100
,
1000
0000
0001
0010
0001
0000
1000
0100
,
0010
0001
0000
0101
0000
0110
0000
0101
,
0000
0110
0000
1000
0000
0110
0000
0001
,
0000
0000
0010
0000
0000
0000
0101
0000
0010
0000
0100
0000
0000
0000
1000
0100
,
0000
0020
0030
0100
1000
0101
0000
0110
,
0101
0000
0010
0000
0000
0000
0100
0000
1000
0000
0200
0000
0000
0300
0010
0000
,
0001
0000
2000
0000
0000
3000
0100
0000
0010
0000
0101
0000
0000
0000
0110
0000
,
0000
0000
1000
0000
0100
0000
0010
0000
0001
0000
2000
0000
0000
3100
0000
0010
,
0000
0000
0002
0000
0000
0003
1000
0000
0100
0000
0010
0000
0000
0000
0001
0000
,
0000
0000
2000
0000
0000
0000
3001
0000
0010
0000
0200
0000
0000
0300
0010
0000
,
0001
2000
0000
3002
0000
0023
0000
0230
,
0000
0300
1000
0000
0100
0000
0010
0000
0001
0000
0020
0000
0000
0000
1030
0000
,
0100
0000
0020
0000
0000
0000
0032
0000
0000
0003
1000
0000
0100
0000
0010
0000
,
0001
0000
0000
2000
0000
0000
3200
0000
0000
0000
0320
0000
0000
0000
0031
0000
,
1000
0000
0101
0000
0000
0000
0110
0000
0000
0000
0000
0101
0000
0000
0110
0000
,
0000
0101
0000
0010
1000
0200
0000
0320
,
0000
0030
0002
0000
0000
0000
2003
0000
0000
0000
3200
0000
0000
0000
0020
0300
,
0000
0030
0001
0000
1000
0000
0000
0100
0010
0000
0000
0000
0001
0000
0000
0010
,
0100
0000
0000
1000
0000
0100
0000
0010
0001
0000
0000
0000
0000
0010
0000
0100
,
0000
1000
0100
0000
0000
0010
0000
0001
1000
0000
0000
0000
1000
0000
0100
0000
,
0010
0000
0000
0001
0000
0001
0000
1000
0000
0000
0000
0000
0010
0000
0100
0000
,
1000
0000
0000
0001
0000
0010
0000
0100
0000
1000
0000
0000
0000
1000
0000
0100
,
0010
0000
0000
0000
0001
0000
0000
0010
0100
0000
0000
0000
0000
1000
0000
0100
,
0000
0010
0000
0000
0000
0001
1000
0000
0100
0000
0000
0000
0000
1000
0000
0100
,
0000
1000
0000
0000
0000
0001
0000
0010
0000
0001
0000
0000
0000
0101
0000
0000
,
0000
0020
0000
0000
0030
0000
0000
0000
0000
0000
0000
0000
0000
0000
0000
0000
;

//---------------dance-single - ----------------
#NOTES:
     dance-single:
     :
     Hard:
     9:
     0.537673,0.718562,0.667882,0.290725,1.178615,479.000000,394.000000,85.000000,37.000000,0.000000,2.000000,0.537673,0.718562,0.667882,0.290725,1.178615,479.000000,394.000000,85.000000,37.000000,0.000000,2.000000:
// measure 0
0000
0000
0000
0000
0000
1000
0000
0000
0000
1000
0000
0000
0000
1000
0000
0000
0000
1000
0000
0000
0000
1000
0000
0000
0000
1000
0000
0000
0000
1000
0000
0000
,  // measure 1
0000
0100
0000
0000
0000
0010
0000
0000
0000
0001
0000
0000
0000
1000
0000
0000
0000
0000
0000
0000
0000
0100
0000
0000
0000
0010
0000
0000
0000
0001
0000
0000
,  // measure 2
0000
0000
0000
0000
0000
1000
0000
0000
0000
0100
0000
0000
0000
0010
0000
0000
0000
0000
0000
0000
0000
0100
0000
0000
0000
1000
0000
0000
0000
0000
0100
0000
,  // measure 3
0000
0010
0000
0000
0000
0000
0000
0000
0000
0001
0000
0000
0000
0010
0000
0000
0000
0000
0000
0000
0000
0001
0000
0000
0000
0010
0000
0000
0000
0001
0000
0000
,  // measure 4
0000
0000
0000
0000
0000
0000
1000
0000
0000
0100
0000
0000
0000
1000
0000
0000
0000
0000
0000
0000
0000
0100
0000
0000
0000
1000
0000
0000
0000
0000
0100
0000
,  // measure 5
0000
0000
0010
0000
0000
0001
0000
0000
1000
0000
0000
0000
0000
0100
0000
0000
0000
0000
0010
0000
0000
0000
0000
0000
0001
0000
0000
1000
0000
0100
0000
0000
,  // measure 6
0000
0000
0000
0010
0000
0000
0000
0000
0000
0000
0100
0000
0000
0000
1000
0000
0000
0100
0000
0000
0000
0000
0000
0000
0000
0010
0000
0000
0000
0001
0000
0000
,  // measure 7
0000
0000
0110
0000
0000
0000
0000
0000
0001
0000
1000
0000
0000
0000
0100
0000
0000
0000
0000
0101
0000
0000
0000
0000
0000
0010
0000
0000
0100
0000
1000
0000
,  // measure 8
0000
0000
0110
0000
0000
0000
0000
0000
0000
0000
0001
0000
0000
1000
0000
0000
0000
0110
0000
0000
0000
0000
0000
0001
0000
0010
0000
0100
0000
1000
0000
0000
,  // measure 9
0000
0000
0110
0000
0000
0000
0000
0000
0000
0001
0000
0000
0000
1000
0000
0000
0000
0110
0000
0000
0000
0000
0000
0000
0000
0001
1000
0000
0100
0000
0000
0000
,  // measure 10
0000
0000
0010
0000
0000
0000
0000
0000
0000
0000
0001
0000
0000
1000
0000
0000
0000
0000
0110
0000
0000
0000
0000
0000
0000
0000
0001
0000
0000
1000
0001
0000
,  // measure 11
0000
0000
0000
0110
0000
0000
0000
0000
0000
0000
0001
0000
0000
0000
1000
0000
0000
0000
0110
0000
0000
0000
0000
0000
0000
0000
0001
0000
1000
0000
0010
0000
,  // measure 12
0000
0000
0110
0000
0000
0000
0000
0000
0000
0000
0001
0000
0000
1000
0000
0000
0000
0110
0000
0000
0000
0000
0000
0000
0000
0000
0001
0000
0000
0000
0000
0000
,  // measure 13
0000
0101
0000
0101
0000
0101
0000
0000
0000
0010
0000
1000
0000
0100
0000
0010
,  // measure 14
0000
0000
0110
0000
0000
0000
0110
0000
0000
0000
0000
1000
0000
0000
1000
0000
0000
0000
0110
0000
0000
0000
0000
0110
0000
0000
1000
0000
0000
0000
1000
0000
,  // measure 15
0000
0000
0110
0000
0000
0000
0000
0000
0000
0000
0000
0101
0000
0000
0000
0101
0000
0000
0110
0000
0000
0000
0110
0000
0000
0000
1000
0000
0000
0000
1000
0000
,  // measure 16
0000
0000
0110
0000
0000
0000
0000
0110
0000
0000
1000
0000
0000
0000
1000
0000
0000
0000
0110
0000
0000
0000
0000
0110
0000
0000
1000
0000
0000
0000
0110
0000
,  // measure 17
0000
0000
0000
0101
0000
0000
1000
0000
0000
0000
0010
0000
0000
0000
1000
0000
0000
0000
0000
0010
0000
0000
1000
0000
0000
0000
0000
0010
0000
0000
1000
0000
,  // measure 18
0000
0000
0000
0010
0000
0000
1000
0000
0000
0000
0100
0000
0000
0000
0010
0000
0000
0000
0000
0001
0000
0000
0000
0010
0000
0000
0000
0000
0001
0000
0000
0010
,  // measure 19
0000
0000
0000
0000
0001
0000
0000
0000
1000
0000
0000
0000
0001
0000
0000
0000
1000
0000
0000
0000
0001
0000
0000
0000
0100
0000
0000
0000
0000
0010
0000
0000
,  // measure 20
0000
0000
0001
0000
0000
0000
0000
0000
0000
0000
0000
0101
0000
0000
0000
0000
0000
0000
0110
0000
0000
0000
0000
0000
0000
0000
0000
1000
0000
0000
0000
0000
,  // measure 21
0000
0000
0000
0001
0000
0000
0000
1000
0000
0000
0000
0110
0000
0000
0000
0110
0000
0000
0000
0110
0000
0000
0100
0010
0000
0000
0000
0110
0000
0000
0000
0110
,  // measure 22
0000
0000
0000
0110
0000
0000
0000
0110
0000
0000
0000
0110
0000
0000
0000
0110
0000
0000
0000
0110
0000
0000
0000
0110
0000
0000
0000
0110
0000
0000
0000
0110
,  // measure 23
0000
0000
0000
0000
0000
0000
0000
1001
0000
0000
0000
1001
0000
0000
0000
1001
0000
0000
0000
1001
0000
0000
0000
1001
0000
0000
0000
1001
0000
0000
0000
1001
,  // measure 24
0000
0000
0000
0110
0000
0000
0110
0000
0000
0000
0000
1000
0000
0000
0000
1001
0000
0000
0000
0110
0000
0000
0000
0110
0000
0000
0000
1001
0000
0000
0000
0110
,  // measure 25
0000
0000
0000
0000
0000
0000
0000
0110
0000
0000
0000
0110
0000
0000
0000
0110
0000
0000
0000
0110
0000
0000
0000
0110
0000
0000
0000
0110
0000
0000
0000
0110
,  // measure 26
0000
0000
0000
1000
0000
0000
0000
0110
0000
0000
0000
1000
0000
0000
0000
0110
0000
0000
0000
1000
0000
0000
0000
0110
0000
0000
0000
1000
0000
0000
0000
0110
,  // measure 27
0000
0000
0000
0000
0000
0000
0000
0101
0000
0000
0000
0101
0000
0000
0000
0101
0000
0000
0000
0101
0000
0000
0000
0101
0000
0000
0000
0101
0000
0000
0000
0110
,  // measure 28
0000
0000
0000
0110
0000
0000
0000
0110
0000
0000
0000
0000
0110
0000
0000
0110
0000
0000
0000
1000
0000
0000
0000
1000
0000
0000
0000
1000
0000
0000
0000
0110
,  // measure 29
0000
0000
0000
0000
0000
0000
0000
0010
0000
1000
0010
0000
0000
0000
1000
0000
0000
0000
0000
0000
0000
0000
0000
0010
0000
1000
0000
0010
0000
1000
0000
0010
,  // measure 30
0000
0000
0000
0000
0000
0000
0000
0100
0000
0000
0100
0000
1000
0000
0000
0100
0000
0000
0000
0000
0000
0000
0000
0100
0000
0000
0010
0100
0000
0000
0010
0100
,  // measure 31
0000
0000
0010
0000
0000
0000
0000
0001
0000
0000
0001
0000
0010
0000
0000
0010
0000
0000
0000
0000
0000
0000
0000
0001
0000
0000
0010
0001
0000
0000
0010
0001
,  // measure 32
0000
0000
0000
0000
0000
0000
0000
0100
0000
0000
0000
0010
0000
0000
0100
0000
0000
0000
0000
0000
0000
0000
0000
1000
0000
0000
0100
0000
1000
0000
0100
1000
,  // measure 33
0000
0000
0000
0000
0000
0000
0000
0001
0000
0001
0000
1000
0000
0000
0000
0100
0000
0000
0000
0010
0000
0000
0000
0000
0000
0001
0000
1000
0000
0001
1000
0000
,  // measure 34
0100
0000
0000
0000
0000
0000
0000
0010
0000
0000
0010
0010
0000
0000
0000
0001
0000
0000
0000
0000
1000
0000
0000
0000
0100
0000
1000
0100
0000
1000
0000
0100
,  // measure 35
0000
1000
0000
0000
0000
0000
0000
0001
0000
0000
0001
0000
1000
0000
0000
0001
0000
0000
0000
0000
1000
0000
0000
0000
0001
0000
1000
0000
0001
0000
1000
0001
,  // measure 36
0000
0000
0000
0000
0000
0000
0000
0000
0100
0000
0100
1000
0000
0000
0000
0100
0000
0000
0000
0000
0000
0000
0000
0000
0100
0000
0100
0000
1000
0000
0000
0100
,  // measure 37
1000
0000
0000
0000
0000
0000
0000
0000
0100
0000
0100
0000
1000
0000
0000
0000
0100
0000
0000
0000
0000
0000
0000
0000
0100
0000
0100
1000
0000
0000
0000
0100
,  // measure 38
1000
0000
0000
0000
0000
0000
0000
0010
0000
0000
0010
0000
0001
0000
0000
0000
0010
0000
0000
0000
0001
0000
0000
0000
0000
0010
0000
0010
0000
0000
0001
0000
,  // measure 39
1000
0000
0000
0100
0000
0000
0000
0000
1000
0000
1000
0000
0100
0000
0000
0000
0010
0000
0000
0000
0001
0000
0000
0000
0000
0100
0000
1000
0100
0000
1000
0000
,  // measure 40
0100
0000
0000
0000
0000
0000
0000
0010
0000
0000
0010
0000
0001
0000
0000
1000
0000
0000
0000
0000
0100
0000
0000
0000
0010
0000
0000
0001
0010
0000
0001
0000
,  // measure 41
0000
0000
0000
0000
2000
0000
0000
0000
0000
0000
0000
0000
0010
0000
0000
0100
0000
0000
0000
0000
0010
0000
0000
0000
0000
0000
0000
0000
0001
0000
0000
0000
,  // measure 42
0010
0000
0000
0000
0000
0100
0000
0000
0000
0000
0000
0000
3000
0002
0000
0000
0000
0000
0000
0000
0010
0000
0000
0000
0000
0000
0000
0000
1000
0000
0000
0000
,  // measure 43
0100
0000
0000
0000
0010
0000
0000
0000
0000
0000
0000
0000
1000
0000
0000
0000
0000
1000
0000
0000
0100
0000
0000
0000
0000
0000
0000
0000
0010
0000
0000
0010
,  // measure 44
0000
0000
0000
0000
0100
0000
0000
0000
1000
0000
0000
0000
0000
0000
0000
0000
0100
0000
0000
0000
1000
0000
0000
0000
0000
0100
0000
0000
0000
1000
0000
0000
,  // measure 45
0100
0000
0003
0000
0000
0101
0000
0000
0000
0000
0000
0000
0000
0110
0000
0000
0100
0000
0000
0000
0100
0000
0000
0000
0000
0000
0000
0000
0000
1000
0000
0000
,  // measure 46
1000
0000
0000
0000
0020
0000
0000
0000
0000
0000
0030
0000
0000
0001
0000
0000
0000
0100
0000
0000
2000
0000
0000
0000
0000
0000
0000
0000
3000
0100
0000
0000
,  // measure 47
0100
0000
0000
0000
0010
0000
0000
0000
0000
0000
0000
0000
0001
0000
0000
0000
0002
0000
0000
0000
0000
0000
0000
0000
0000
0000
0000
0003
1000
0000
0000
0000
,  // measure 48
0100
0000
0000
0000
0020
0000
0000
0000
0000
0000
0000
0000
0002
0030
0000
0000
0000
0000
0000
0000
2003
0000
0000
0000
0000
0000
0000
0000
0200
3000
0000
0000
,  // measure 49
0000
0000
0000
0000
0320
0000
0000
0000
0000
0000
0000
0000
0032
0000
0000
0000
0000
0000
0000
0000
2003
0000
0000
0000
0000
0000
0000
0000
0000
3200
0000
0000
,  // measure 50
0000
0000
0000
0000
0000
0020
0300
0000
0000
0000
0000
0000
0002
0030
0000
0000
0000
0000
0000
0000
2003
0000
0000
0000
0000
0000
0000
0000
0200
3000
0000
0000
,  // measure 51
0000
0000
0000
0320
0000
0000
0000
0000
0000
0000
0000
0000
0002
0030
0000
0000
0000
0000
0003
0000
0202
0000
0000
0000
0000
0000
0000
0000
0000
0000
0000
0000
,  // measure 52
0000
0000
0000
0000
2303
0000
0010
0000
0000
0000
0000
0000
0000
0010
0000
0000
0000
0000
0000
0000
0000
3200
0000
0000
0000
0000
0000
0000
0000
0000
0000
0000
,  // measure 53
0000
0000
0000
0300
0020
0000
0000
0000
0000
0000
0000
0000
0000
2032
0000
0000
0000
0000
0000
0000
0000
0000
0000
0000
0000
0000
3000
0000
2003
0000
0000
0000
,  // measure 54
0000
0000
0000
0000
0000
0002
3000
0000
0000
0000
0000
0000
0000
0023
0000
0000
0000
0000
0000
0000
0200
0000
0030
0000
0000
0000
0000
0000
2000
0300
0000
0000
,  // measure 55
0000
0000
0000
0000
0002
3000
0000
0000
0000
0000
0000
0000
0000
2003
0000
0000
0000
0000
0000
0000
0002
3000
0000
0000
0000
0000
0000
0000
0000
0023
0000
0000
,  // measure 56
0000
0000
0000
0000
0030
0200
0000
0000
0000
0000
0000
0000
0000
0020
0000
0000
0000
0000
0000
0000
0000
0000
0000
0000
0000
0000
0000
0000
0000
0000
0000
0000
,  // measure 57
0000
0000
0000
0000
0000
0330
0000
0000
0000
0000
0000
0000
0000
0000
0000
0000
0000
0000
0000
0000
0000
0000
0000
0000
0000
0000
0000
0000
0000
0000
0000
0000
;
