#TITLE:PUHANOiA☆Revolution;
#SUBTITLE:;
#ARTIST:F41TH兄貴;
#TITLETRANSLIT:;
#SUBTITLETRANSLIT:;
#ARTISTTRANSLIT:;
#CREDIT:;
#BANNER:puha_b.png;
#BACKGROUND:puha_bg.png;
#LYRICSPATH:;
#CDTITLE:215edit.png;
#MUSIC:PUHANOiARevolution_ktn.mp3;
#OFFSET:0.820;
#SAMPLESTART:27.460;
#SAMPLELENGTH:12.000;
#SELECTABLE:YES;
#BPMS:0.000=75.000,36.000=360.000,292.500=180.000,356.500=360.000,418.500=893.000,423.500=360.000;
#STOPS:;
#BGCHANGES:1.000=PUHANOiA Revolution.avi=1.000=1=0=1,
99999=-nosongbg-=1.000=0=0=0 // don't automatically add -songbackground-
;

//---------------dance-single - ----------------
#NOTES:
     dance-single:
     :
     Challenge:
     19:
     1.000,1.000,0.714,0.245,0.415: // measure 1
0000
0000
0000
0020
,  // measure 2
0000
0130
0000
0001
0001
1000
0200
0000
,  // measure 3
0300
1000
0100
0010
0001
0010
0200
0000
,  // measure 4
0310
0001
0010
0100
1000
0010
0200
0000
,  // measure 5
0010
0001
0310
0002
,  // measure 6
1003
0001
0100
1000
0100
0001
0200
0000
,  // measure 7
0310
0100
0010
0100
0001
0100
0020
0000
,  // measure 8
1030
0010
0001
0010
1000
0100
0002
0000
,  // measure 9
0100
0100
0103
2000
,  // measure 10
3001
0000
0000
1000
0001
0000
0100
0001
,  // measure 11
0100
0010
0000
1000
0001
0000
0001
0100
,  // measure 12
0010
0100
0000
0001
1000
0000
0010
1000
,  // measure 13
0100
1000
0000
0010
0100
0000
0010
0100
,  // measure 14
0000
1100
0000
1000
0000
0110
0000
0100
,  // measure 15
0000
0011
0000
0010
0000
0101
0000
0001
,  // measure 16
0000
1000
0100
0001
0100
1000
0010
0100
,  // measure 17
1000
0001
0100
0010
0100
0001
0100
0010
,  // measure 18
2020
3030
0000
0101
0100
0000
1010
0010
,  // measure 19
0000
0110
0100
0000
1001
1000
0000
0011
,  // measure 20
0001
0101
0000
0110
0100
0000
1010
1000
,  // measure 21
0000
0101
0100
0000
1010
0010
0000
0101
,  // measure 22
0100
1100
0000
0101
0001
0000
1010
0010
,  // measure 23
0000
1100
0010
0000
0101
0100
0000
1001
,  // measure 24
0010
1100
0100
0010
0001
1100
0100
0010
,  // measure 25
0001
0011
0010
0100
1000
0011
0010
0100
,  // measure 26
1000
1002
0000
0100
0000
0010
0000
0100
,  // measure 27
0000
1000
0000
0100
0000
1000
0000
0100
,  // measure 28
0000
0010
0000
0100
0000
1000
0000
0100
,  // measure 29
0000
0010
0000
0100
0000
1000
0000
0103
,  // measure 30
0000
0210
0000
0001
0000
0010
0000
1000
,  // measure 31
0000
0010
0000
1000
0000
0001
0000
1000
,  // measure 32
0000
0001
0000
0010
0000
1000
0000
0010
,  // measure 33
0000
0001
0000
1000
0000
0010
0000
0301
,  // measure 34
0000
1020
0000
0100
0000
0001
0000
1000
,  // measure 35
0000
0001
0000
0100
0000
1000
0000
0100
,  // measure 36
0000
1000
0000
0001
0000
0100
0000
0001
,  // measure 37
0000
0100
0000
1000
0000
0100
0000
1030
,  // measure 38
0000
0001
0000
1000
0000
0010
0000
1000
,  // measure 39
0000
0001
0000
0100
0000
0101
0000
0000
,  // measure 40
0000
0202
0000
0303
0000
0010
0000
1000
,  // measure 41
0000
0010
0000
0000
0000
1001
0000
0000
,  // measure 42
0000
0010
1000
0010
1000
0110
0000
0001
,  // measure 43
0010
0001
0010
0101
0000
1000
0010
1000
,  // measure 44
0010
0110
0000
1000
0001
1000
0001
1010
,  // measure 45
0000
0010
0001
0010
0001
1001
0000
0001
,  // measure 46
0100
1000
0100
0001
0100
0110
0000
1000
,  // measure 47
0010
1000
0010
1100
0000
0100
0010
0100
,  // measure 48
0010
0011
0000
0100
0010
0100
0010
0110
,  // measure 49
0000
1001
0000
1001
0000
2002
0000
3003
,  // measure 50
0000
1000
0100
0001
0100
0110
0000
0001
,  // measure 51
0010
1000
0010
0011
0000
1000
0100
1000
,  // measure 52
0010
0101
0000
0001
0010
0100
0010
1001
,  // measure 53
0000
0100
0010
0100
0001
1010
0000
0001
,  // measure 54
0010
1000
0010
0001
0100
1010
0000
0101
,  // measure 55
0010
1000
0100
0011
0000
1000
0100
0100
,  // measure 56
0001
0110
0001
0100
0100
1010
0100
0001
,  // measure 57
0100
0110
1000
0100
0010
0011
0001
0010
,  // measure 58
0100
2010
0000
0001
0000
0100
0000
0010
,  // measure 59
0000
0100
0000
0001
0000
0010
0000
0100
,  // measure 60
0000
0010
0000
0001
0000
0010
0000
0001
,  // measure 61
0000
0100
0000
0010
0000
3100
0000
0110
,  // measure 62
0000
0012
0000
0100
0000
0010
0000
0100
,  // measure 63
0000
1000
0000
0010
0000
0100
0000
0103
,  // measure 64
0000
0010
1000
0010
0100
0001
0100
0010
,  // measure 65
1000
0010
0001
0010
1000
0100
0001
0100
,  // measure 66
0010
0100
0000
1010
0000
0101
0000
0000
,  // measure 67
0000
2010
0000
0000
0000
3001
0000
0100
,  // measure 68
0100
0110
0000
1010
0000
0101
0000
0000
,  // measure 69
0000
1010
0000
0000
0000
0101
0000
1000
,  // measure 70
1000
0001
0000
0010
0000
0100
0000
1000
,  // measure 71
0000
0001
0000
0010
0000
0100
0000
1000
,  // measure 72
0000
0000
0010
1000
0010
0000
0100
0001
0100
0000
0010
1000
0010
0000
0100
0001
,  // measure 73
0100
0001
0100
1000
0100
0001
0100
1000
,  // measure 74
0100
0000
0010
0000
0001
1000
0000
0010
0001
0100
0010
0000
0100
0010
0000
1000
,  // measure 75
0010
0100
0010
0000
0100
0010
0000
0001
0100
1000
0010
0000
0100
0010
0000
0001
,  // measure 76
0100
1000
0010
0000
0001
1000
0000
0001
0010
0100
1000
0000
0010
1000
0000
0100
,  // measure 77
0001
0010
0100
0000
0010
0001
0000
1000
0100
1000
0010
0000
0100
0001
0000
0010
,  // measure 78
0100
0010
0001
0000
1000
0010
0000
0100
0001
0100
0010
0000
0010
1000
0000
0001
,  // measure 79
0100
1000
0010
0000
0100
0010
0000
0100
0001
1000
0010
0000
0010
0100
0000
0001
,  // measure 80
1000
0010
0100
0000
0010
0001
0000
1000
0100
0010
0001
0000
0010
1000
0000
0100
,  // measure 81
0010
0100
0001
0000
1000
0010
0000
0100
0001
0100
1000
0000
0001
0010
0000
1000
,  // measure 82
0100
0001
0100
0000
0100
1000
0000
0010
0001
0010
0001
0000
0100
1000
0000
0010
,  // measure 83
0100
1000
0100
0000
0010
0001
0000
0010
0001
0010
0100
0000
1000
0001
0000
1000
,  // measure 84
0010
0001
0100
0000
0010
0100
0000
0100
0010
0100
0010
0000
1000
0100
0000
0010
,  // measure 85
1000
0010
1000
0000
0001
0100
0000
1000
0010
0001
0010
0000
0010
1000
0000
0100
,  // measure 86
1000
0001
1010
0000
1010
0000
0110
0000
0110
0000
0101
0000
0101
0000
1010
0000
,  // measure 87
1010
0110
0011
1100
0011
0110
1100
0011
,  // measure 88
0110
0000
0000
0000
0100
0010
0100
0000
0001
0000
0100
0000
1000
0000
0100
0000
0001
0000
0010
0000
0100
0010
0100
0000
0010
0000
0001
0000
0010
0000
0100
0000
,  // measure 89
1000
0000
0001
0000
1000
0010
1000
0000
0010
0000
0100
0000
0001
0100
0001
0000
1000
0000
0010
0000
1000
0001
1000
0000
0010
0000
1000
0000
0010
0100
0010
0000
,  // measure 90
0100
0010
0001
0000
0100
0000
1000
0000
0100
0000
0010
0000
0000
0000
0100
0000
,  // measure 91
0001
0010
0000
0001
0000
0010
0000
0001
,  // measure 92
0000
0100
0000
0001
0010
1000
0010
0100
,  // measure 93
0000
0010
0001
0100
0000
0001
0000
0100
,  // measure 94
0000
0001
0100
1000
0100
0001
0000
1000
,  // measure 95
0001
0100
0000
0001
0000
1000
0000
0010
,  // measure 96
0000
0100
0000
0001
0100
1000
0000
0010
,  // measure 97
0000
0001
0000
0011
0000
0000
0000
0110
,  // measure 98
0000
0010
0001
0100
0010
0200
0000
0310
,  // measure 99
1000
0100
0010
0200
0000
0301
0000
0100
,  // measure 100
0010
1000
0000
0010
0100
2000
0000
3001
,  // measure 101
0100
1000
0000
0001
0010
1000
0000
0001
,  // measure 102
0000
0010
1000
0100
0010
0200
0000
0310
,  // measure 103
0001
0100
0010
0200
0000
1300
0000
0100
,  // measure 104
0010
0001
0000
0010
0100
0002
0000
1003
,  // measure 105
0100
0001
0000
1000
0010
2002
0000
0000
,  // measure 106
0000
0000
0000
0000
0000
3003
0000
0110
,  // measure 107
0000
0100
0000
0010
0000
1000
0000
0001
,  // measure 108
0010
0100
0010
0001
0000
0100
0100
0010
,  // measure 109
0000
1000
0000
0010
0100
0010
0001
0010
,  // measure 110
1000
1010
0000
0100
0010
1000
0001
0101
,  // measure 111
0000
0100
0000
1010
0000
0001
0100
1000
,  // measure 112
0000
0010
1000
0100
0010
1000
0000
0010
,  // measure 113
0001
0010
0000
0001
0010
0100
0100
1000
,  // measure 114
0010
0100
0001
0001
0100
0010
1000
0100
,  // measure 115
0000
0011
0000
0011
0000
1000
0100
1000
,  // measure 116
0001
0010
0010
0100
0000
0001
0010
0001
,  // measure 117
0100
1000
0000
0010
1000
0010
1000
0010
,  // measure 118
0000
0000
0110
0000
0000
0000
0001
0000
0010
0000
0001
0000
1000
0000
0001
0010
,  // measure 119
0001
0000
0010
0000
0100
0000
1000
0000
0010
0000
0100
0000
0001
0000
0100
0010
,  // measure 120
0100
0000
1000
0000
0100
0000
0001
0000
1000
0000
0010
0000
0001
0000
0010
1000
,  // measure 121
0010
0000
0100
0000
0010
0000
0001
0100
0001
0000
0010
0000
0100
0000
1000
0100
,  // measure 122
1000
0000
0001
0010
0001
0000
0100
0000
0100
0000
0100
0000
0100
0000
1001
0000
,  // measure 123
0000
1001
0000
1000
0100
0001
0100
0010
,  // measure 124
1000
0001
0010
1000
0010
0001
0100
1000
,  // measure 125
0001
0100
1000
0010
0100
0001
0010
1000
,  // measure 126
0010
0001
0100
1000
0100
0001
0100
1001
,  // measure 127
0000
1001
0000
0001
0010
1000
0010
0100
,  // measure 128
0001
1000
0100
0001
0100
1000
0010
0001
,  // measure 129
1000
0010
0001
0100
0010
1000
0100
0001
,  // measure 130
0100
0000
1000
0000
0010
0000
0001
0000
0010
0000
1000
0000
0010
0000
0001
1000
,  // measure 131
0010
0100
0001
0100
1000
0100
0001
0010
,  // measure 132
0100
0000
1000
0000
0100
0000
1000
0000
0010
0000
0100
0000
0001
0000
0010
1000
,  // measure 133
0001
0010
0100
1000
0100
0010
0001
0100
,  // measure 134
1000
0000
0100
0000
0001
0000
0100
0000
1000
0000
0001
0000
0100
0000
1000
0010
,  // measure 135
1000
0000
0100
0000
0010
0000
0001
0010
0001
0000
0100
0000
0010
0000
1000
0001
,  // measure 136
1000
0000
0001
0100
0001
0000
1000
0100
1000
0000
0010
1000
0010
0000
0001
0000
,  // measure 137
0100
0001
0100
0001
0100
0001
0010
0010
,  // measure 138
0010
0010
0010
0010
0010
0010
0020
0000
,  // measure 139
0000
0000
0030
0000
0000
2002
0000
0000
,  // measure 140
0000
0000
0000
0000
,  // measure 141
0000
0000
0000
0000
,  // measure 142
0000
0000
0000
0000
,  // measure 143
0000
0000
0000
0000
,  // measure 144
0000
0000
0000
0000
,  // measure 145
0000
0000
0000
0000
,  // measure 146
0000
0000
0000
0000
,  // measure 147
0000
0000
0000
0000
,  // measure 148
0000
0000
0000
0000
,  // measure 149
0000
0000
0000
0000
,  // measure 150
0000
0000
3003
0000
0000
0000
0000
1000
,  // measure 151
0100
0001
0010
1000
0010
0001
0100
0010
,  // measure 152
0001
0000
0010
1000
0010
0000
0100
0001
0010
0000
0100
1000
0100
0000
0010
0000
,  // measure 153
2002
0000
0000
0000
,  // measure 154
3003
0000
0000
0000
;
