#TITLE:No;
#SUBTITLE:;
#ARTIST:Megan Trainor;
#TITLETRANSLIT:;
#SUBTITLETRANSLIT:;
#ARTISTTRANSLIT:;
#CREDIT:Unknown StepMaker;
#BANNER:no.png;
#BACKGROUND:NO BG.png;
#LYRICSPATH:;
#CDTITLE:;
#MUSIC:No.mp3;
#OFFSET:-0.441;
#SAMPLESTART:54.340;
#SAMPLELENGTH:10.000;
#SELECTABLE:YES;
#DISPLAYBPM:94.000;
#BPMS:0.000=94.000,0.000=94.000,0.000=94.000,0.000=94.000,0.000=94.000,0.000=94.000,0.000=94.000,0.000=94.000,0.000=94.000;
#STOPS:7104.000=-0.618
,7290.000=0.618
,7488.000=-0.618
,7674.000=0.618
,7872.000=-0.618
,8058.000=0.618
,9024.000=-0.618
,9210.000=0.618
,9408.000=-0.618
,9594.000=0.618
,10560.000=-0.618
,10746.000=0.618
,10944.000=-0.618
,11130.000=0.618
,22464.000=-0.618
,22650.000=0.618
,22848.000=-0.618
,23034.000=0.618
,25920.000=-0.618
,26106.000=0.618
,26304.000=-0.618
,26490.000=0.618
;
#BGCHANGES:2.500=Meghan Trainor - NO(2).mpg=1.000=1=0=1,
164.000=no.png=1.000=0=0=1,
99999=-nosongbg-=1.000=0=0=0 // don't automatically add -songbackground-
;

//---------------pump-single - ----------------
#NOTES:
     pump-single:
     :
     Beginner:
     1:
     0.135,0.117,0.095,0.009,0.000:
00000
00000
00000
00000
,
00000
00010
00000
01000
,
00000
00001
00000
10000
,
00000
00010
00000
01000
,
00000
00001
00000
00001
,
00000
01000
00000
00010
,
00000
10000
00000
00001
,
00000
01000
00000
00010
,
00000
10000
00000
10000
,
00000
10001
00000
00100
,
00000
01010
00000
00100
,
10000
00001
00000
01000
,
00000
00010
00000
01000
,
00100
10000
00000
00001
,
00000
01000
00000
00010
,
00100
00001
00000
10001
,
00000
10100
00000
10001
,
00000
01000
00000
00010
,
00000
10000
00000
00001
,
00000
01000
00000
00100
,
00000
10000
00000
10001
,
00000
00010
00000
01000
,
00000
00001
00000
10000
,
00000
00010
00000
01000
,
00000
00100
10000
00001
,
01000
00010
00000
10000
,
00000
00001
00000
01000
,
00000
00100
00000
10000
,
00000
00001
01000
00010
,
10000
00001
00000
01000
,
00000
00010
00000
10000
,
00000
00001
00000
01000
,
00000
00100
00000
10000
,
00000
00001
00000
00100
,
00000
00010
00000
01000
,
00000
10100
00000
00110
,
00000
01100
00000
00101
,
00000
10000
00000
00010
,
00000
01000
00000
00100
,
00000
10000
00000
00001
,
00000
01000
00010
20000
,
30001
00000
00000
00000
;

//---------------pump-single - ----------------
#NOTES:
     pump-single:
     :
     Easy:
     3:
     0.196,0.194,0.019,0.009,0.000:
00000
00000
00000
00000
,
00000
00010
00000
01000
,
00000
00100
00000
10000
,
00000
00001
00000
01000
,
00000
00010
10000
00001
,
01000
00010
00000
10000
,
00000
00001
00000
01000
,
00000
00010
00000
10000
,
00000
00001
10000
00100
,
10000
00010
00000
01000
,
00000
00001
10000
00100
,
01000
00010
10000
00001
,
01000
00010
10000
00001
,
00100
00010
10000
00100
,
10000
00001
01000
00010
,
00100
00001
01000
01100
,
00010
00110
10000
00001
,
01000
00010
10000
00100
,
10000
00001
00100
00010
,
01000
00100
10000
00001
,
00100
00010
00100
00001
,
10000
00001
00100
00010
,
10000
00100
01000
00010
,
00100
00001
10000
00100
,
10000
00010
01000
00001
,
10000
00100
10000
00001
,
00100
00010
01000
00100
,
10000
00001
00100
00001
,
10000
00100
01000
00010
,
00100
00001
00000
10000
,
00000
00010
00000
01000
,
00100
10000
00001
01000
,
00000
00010
10000
00001
,
00100
00010
01000
00100
,
10000
00001
10000
00010
,
00100
00001
01000
00010
,
10000
00001
00100
00010
,
01000
00001
10000
00010
,
00100
00010
01000
00001
,
00100
00001
10000
00100
,
01000
00010
00100
00002
,
10003
00000
00000
00000
;

//---------------pump-single - ----------------
#NOTES:
     pump-single:
     :
     Medium:
     5:
     0.372,0.350,0.104,0.028,0.000:
00000
00000
00000
00000
,
00000
00000
00010
00100
00001
10000
00100
01000
,
00100
10000
00001
00100
00010
01000
00000
00010
,
10000
00001
00000
01000
00010
10000
00000
00001
,
01000
00010
10000
00100
10000
00001
10000
00100
,
01000
00000
00010
01000
00001
01000
00010
01000
,
00001
01000
00010
01000
00000
00100
00000
10000
,
00001
00100
00000
00001
10000
00100
00000
10000
,
00001
00100
00010
01000
00100
10000
00010
00100
,
00001
00000
01001
00000
00010
00100
00001
00000
,
01000
00100
10000
00000
00010
00100
00001
10000
,
00100
01000
01100
00000
00010
00100
00001
00000
,
01000
00100
10000
00000
00010
00100
00001
10000
,
00100
10000
10010
00000
00100
01000
00001
00000
,
00100
00010
10000
00000
00100
10000
00001
00100
,
00010
01000
01100
00000
10010
01001
10010
00000
,
00100
01000
00010
00100
00001
01000
00010
00100
,
00001
00000
10000
00000
00010
00000
00100
00001
,
10000
00000
00001
00000
01000
00000
00010
00100
,
00001
00000
10000
00100
01000
00010
10000
00100
,
01000
00010
10000
00001
01000
00010
20000
00000
,
30000
00001
00100
00010
,
01000
00000
00100
00000
10000
00000
00001
00100
,
00010
01000
00000
00010
10000
00001
00000
00100
,
00010
01000
00100
01000
00001
01000
00010
10000
,
00100
00000
10000
00010
00100
00001
00010
00001
,
00100
00010
01000
00100
10000
01000
10000
00100
,
01000
00010
00000
01000
00100
10000
00000
00001
,
00100
00010
01000
00100
01000
00010
00100
00001
,
10000
00000
00001
00000
01000
00100
10000
00000
,
00010
00100
00001
00000
10000
00100
01000
00010
,
00100
00001
10000
00000
00010
10000
00001
00000
,
10000
00010
01000
00000
00001
00100
00010
01000
,
00100
10000
00001
00000
10000
00010
01000
00000
,
00001
00100
00010
00000
01000
00100
10000
00001
,
00100
00010
10000
00000
10010
01001
10010
00000
,
00100
01000
00010
01000
00001
01000
00010
10000
,
00001
00000
01000
00010
10000
00001
00100
00010
,
01000
00000
00001
00100
00010
10000
00001
01000
,
00010
00000
10000
00100
10000
00001
00100
00010
,
01000
00100
10000
00001
00100
00010
02020
00000
,
03030
00000
00000
00000
;

//---------------pump-single - ----------------
#NOTES:
     pump-single:
     :
     Hard:
     10:
     0.527,0.466,0.199,0.019,0.569:
00000
00000
00000
00000
,
00000
00000
00000
00010
00100
00000
00001
00000
00000
00101
00000
10000
00100
00000
01000
00000
,
00000
01100
00000
00010
00100
00001
10000
00000
00000
10001
00000
00000
00000
00100
00010
01000
,
00100
10000
00010
00000
00000
10000
00100
01000
00010
00100
00001
00000
00000
00100
00001
01000
,
00010
01000
00100
00000
10000
00000
00010
00100
00010
00000
01000
00100
01000
00000
00001
00000
,
10000
00000
00000
00010
00100
00000
00101
00000
00000
01000
00000
00100
10000
00000
00010
00000
,
00000
00110
00000
01000
00100
10000
00001
00000
00000
00101
00000
00000
00000
01000
00100
01000
,
00010
00100
00001
00000
00000
00100
00010
01000
00100
10000
01000
00000
00000
10000
00100
01000
,
00010
00100
00001
00000
00010
00000
00001
00100
00001
00000
01000
00100
01000
00000
00010
00000
,
10000
00000
00000
00000
00101
00000
00000
00000
01000
00100
10000
00010
00100
00000
00000
00000
,
00010
01000
00100
01000
00001
00000
00000
00000
01000
00010
00100
00010
10000
00100
10000
00001
,
00100
00010
01000
00100
01000
00000
00000
00000
00010
00100
00001
10000
00001
00000
00000
00000
,
00100
00010
01000
00100
10000
00000
00000
00000
00010
00000
00100
00001
10000
00000
00100
00000
,
01000
00000
00010
00000
10000
00000
00000
00000
00010
00100
00001
01000
00100
00000
00000
00000
,
01000
00010
00100
00001
10000
00000
00000
00000
00001
00100
00010
01000
00100
00000
10000
00000
,
00010
00100
00101
00000
01000
00010
10010
00000
,
00100
01000
00001
00000
00100
00000
00010
01000
00100
00000
01000
00010
00100
00000
00001
00000
,
10000
00000
00000
00000
00001
00000
00010
00000
00100
00000
01000
00000
00010
00000
00100
00001
,
00000
00000
00000
00000
10000
00000
01000
00000
00100
00000
00010
00000
01000
00000
00001
10000
,
00000
00000
00001
00010
00100
01000
00010
00100
,
00001
10000
00010
01000
00100
10000
10001
00000
,
00000
00000
00000
00010
00100
00000
00001
00000
00000
01100
00000
00010
00100
00010
10000
00000
,
00000
10100
00000
00010
00100
00001
01000
00000
00000
01100
00000
00000
00000
00010
00100
00001
,
10000
00100
10000
00000
00000
00001
00000
00100
00010
01000
00100
00000
00000
01000
00000
00010
,
10000
00001
00100
00000
00001
00000
01000
00100
01000
00000
00010
00100
00010
00000
10000
00000
,
00001
00000
00000
00000
01000
00000
00010
00000
00100
00001
10000
00000
00100
00000
01000
00000
,
00010
00100
00001
00000
10000
00000
00100
00000
01000
00100
10000
00000
00000
00001
00100
00010
,
01000
00100
01000
00000
00000
00010
10000
00001
00100
00001
01000
00000
00000
00100
01000
00010
,
00100
00001
10000
00000
00010
00000
00100
00010
01000
00000
00100
01000
00010
00000
10000
00000
,
00001
00000
00000
00000
01001
00000
00000
00000
00010
00100
00001
00100
00010
00000
00000
00000
,
01000
00100
10000
00100
01000
00000
00000
00000
00010
00100
00001
10000
00001
00000
00100
00000
,
00010
00000
01000
00000
01100
00000
00000
00000
00010
00100
00010
10000
00100
00000
00000
10000
,
00010
00100
00001
01000
00100
00000
00000
00000
01000
00001
00100
00010
10000
00000
00001
00000
,
00100
00000
00010
00000
01010
00000
00000
00000
01000
00100
10000
00001
00100
00000
00000
00001
,
00100
00010
01000
00100
01000
00000
00000
00000
00001
01000
00010
10000
00100
00000
10000
00000
,
00001
00100
00101
00000
01001
01001
01001
00000
,
00010
00100
00010
00000
01000
00000
00100
10000
00100
00000
10000
00001
00100
00000
00001
00000
,
01000
00000
00000
00000
00010
00000
10000
00000
00001
00000
00010
00000
00100
00000
01000
00010
,
00000
00000
00000
00000
10000
00000
01000
00000
00100
00000
00010
00000
01000
00000
00001
00010
,
00000
00000
00001
00100
00010
01000
00100
10000
,
01000
00100
00010
01000
00001
10000
02020
00000
,
03030
00000
00000
00000
;

//---------------pump-single - ----------------
#NOTES:
     pump-single:
     :
     Challenge:
     14:
     0.668,0.563,0.019,0.825,0.744:
00000
00000
00000
00000
,
00000
00000
00000
01000
00100
00000
20000
00000
00000
30001
00000
00001
00100
00000
00020
00000
,
00000
10030
00000
10000
00100
01000
00020
00000
00000
00130
00000
00000
00000
10000
00001
01000
,
00010
00100
00001
00000
00000
01000
00010
10000
00100
01000
00010
00000
00000
01000
00000
00100
,
10000
00010
00100
00000
00001
00000
00001
00100
00001
00000
00010
00100
00010
00000
00001
00100
,
00002
00000
00003
01000
00100
00000
20000
00000
00000
30001
00000
00001
00100
00000
00020
00000
,
00000
10030
00000
10000
00100
01000
00020
00000
00000
00130
00000
00000
00000
10000
00001
01000
,
00010
00100
00001
00000
00000
01000
00010
10000
00100
01000
00010
00000
00000
01000
00000
00100
,
10000
00010
00100
00000
00001
00000
00001
00100
00001
00000
00010
00100
00010
00000
00001
00100
,
00002
00000
00003
00000
01001
00000
00000
00000
00001
00010
00100
01000
10000
00000
00000
00000
,
00001
00010
00100
01000
10000
00000
00000
00000
00001
10000
00001
01000
00010
10000
00100
10000
,
00020
00030
00200
00300
00002
00000
00003
00000
10000
01000
00100
00010
00001
00000
00000
00000
,
10000
01000
00100
00010
00001
00000
00000
00000
01000
00001
10000
00100
10000
00010
01000
00001
,
00100
00000
00010
00000
02000
00000
03000
00000
00001
00010
00100
01000
10000
00000
00000
00000
,
00001
00010
00100
01000
10000
00000
00000
00000
00010
00100
00001
10000
00100
01000
00010
00100
,
00001
00000
00000
00000
00100
00000
00000
00000
00020
00000
00000
00000
00030
00000
00000
00000
10000
00100
00001
00000
10000
00100
00001
00000
10000
00100
00001
00000
00000
00000
00000
00000
,
01000
00010
00100
00001
10000
00000
10000
00100
10000
00000
01000
00100
01000
00000
10000
00100
,
20000
00000
30000
00000
00020
00030
02000
03000
20000
30000
00020
00030
00002
00003
00200
00020
,
00330
00000
00000
00000
02000
03000
00020
00030
00002
00003
02000
03000
20000
30000
00200
02000
,
03300
00000
00000
00000
00002
00003
00200
00300
20000
30000
00200
00300
00002
00003
20000
30000
,
00020
00030
02000
03000
00200
00300
20000
30000
00002
00003
00200
00300
00020
00000
00000
00000
,
02000
03030
00000
01000
00100
00000
20000
00000
00000
30001
00000
00001
00100
00000
00020
00000
,
00000
10030
00000
10000
00100
01000
00020
00000
00000
00130
00000
00000
00000
10000
00001
01000
,
00010
00100
00001
00000
00000
01000
00010
10000
00100
01000
00010
00000
00000
01000
00000
00100
,
10000
00010
00100
00000
00001
00000
00001
00100
00001
00000
00010
00100
00010
00000
00001
00100
,
00002
00000
00003
00000
10000
01000
00100
00010
00100
00001
00010
00001
00100
00010
01000
00100
,
10000
01000
00100
00010
00001
00100
00010
01000
00100
10000
00002
00000
00003
00000
01000
00100
,
01000
00100
20000
30000
00000
00010
00100
00010
00100
00001
00200
00300
00000
00010
00000
00100
,
00001
00100
00010
00000
00001
00100
00001
00010
00100
00010
00001
00100
00002
00003
02000
03000
,
00020
00030
00000
00000
10110
00000
00000
00000
10000
01000
00100
00010
00001
00000
00000
00000
,
10000
01000
00100
00010
00001
00000
00100
00000
00010
00100
00001
10000
00100
01000
00100
10000
,
00001
00000
00100
00000
00020
00000
00030
00000
01000
00100
10000
00100
02000
03000
00000
00010
,
00100
00001
00100
00010
02000
03000
00000
00000
00001
00100
00010
10000
00100
01000
00010
00100
,
00020
00030
20000
30000
00002
00000
00003
00000
01000
00100
00010
00100
01000
00000
00000
00000
,
00010
00100
01000
00100
00010
00000
00000
00000
01000
00100
10000
00001
00100
00010
00100
00001
,
10000
00000
00100
00000
01000
00000
00100
00000
20000
00000
00000
00000
30000
00000
00000
00000
00001
00100
01000
00000
00001
00100
01000
00000
00001
00100
01000
00000
00000
00000
00000
00000
,
00010
00100
00001
10000
00010
00000
00001
00100
00001
00000
00010
00100
00010
00000
00001
00100
,
00002
00000
00003
00000
02000
03000
00200
00300
20000
30000
00020
00030
00002
00003
00200
00020
,
00330
00000
00000
00000
02000
03000
00002
00003
00020
00030
20000
30000
02000
03000
00020
00200
,
00330
00000
00000
00000
00002
00003
00020
00030
00200
00300
02000
03000
00200
00300
20000
30000
,
02000
03000
00200
00300
00020
00030
00002
00003
00020
00030
00200
00300
02000
00000
00000
00000
,
03000
00000
00000
00000
;

//---------------pump-double - ----------------
#NOTES:
     pump-double:
     :
     Easy:
     4:
     0.218,0.233,0.104,0.009,0.000:
0000000000
0000000000
0000000000
0000000000
,
0000000000
0000000100
0000000000
0000001000
,
0000000000
0000000010
0000000000
0000000100
,
0000000001
0000010000
0000000100
0000001000
,
0000000100
0000010000
0000000001
0000000100
,
0000000010
0000001000
0000000000
0000010000
,
0000000000
0000100000
0000000000
0001000000
,
0010000000
0000100000
1000000000
0010000000
,
0100000000
0001000000
0010000000
0000100000
,
0001000000
0000001000
0000010000
0000010000
,
0000001000
0000000010
0000000100
0000000001
,
0000010000
0000000100
0000010000
0000000001
,
0000000100
0000000010
0000001000
0000000100
,
0000010000
0000001000
0000100000
0000010000
,
0001000000
0000100000
0010000000
0000001000
,
1000000000
0010000000
0100000000
0100000000
,
0001000000
0010000000
0010000000
0000100000
,
0000100000
0001000000
0000001000
0000100000
,
0000110000
0000001000
0000000100
0000010000
,
0000010001
0000000001
0000000100
0000000010
,
0000001000
0000000100
0000010000
0000001000
,
0000101000
0001000000
0000100000
0010000000
,
0001000000
1000000000
0010000000
0100000000
,
0000100000
0010100000
1000000000
1010000000
,
0001000000
0011000000
0110000000
0011000000
,
0000100000
1000000000
0010000000
0100000000
,
0001000000
0010000000
0000100000
0001000000
,
0000001000
0000010000
0000000100
0000001000
,
0000000010
0000000100
0000000001
0000001000
,
0000001001
0000000100
0000000000
0000010000
,
0000000000
0000000001
0000000100
0000000010
,
0000001000
0000000100
0000010000
0000001000
,
0000100000
0000010000
0001000000
0000100000
,
0010000000
0011000000
0000000000
1010000000
,
0000000000
0100000000
0001000000
0010000000
,
0000100000
0001000000
0000001000
0000001000
,
0000100000
0000100000
0000010000
0000001000
,
0000000100
0000010000
0000000001
0000000100
,
0000000010
0000001000
0000000100
0000010000
,
0000000001
0000000100
0000000001
0000000010
,
0000000100
0000001000
0000010000
0000200000
,
0000300000
0000000000
0000000000
0000000000
;

//---------------pump-double - ----------------
#NOTES:
     pump-double:
     :
     Medium:
     7:
     0.351,0.330,0.038,0.009,0.000:
0000000000
0000000000
0000000000
0000000000
,
0000000000
0001000000
0010000000
0000100000
,
1000000000
0000000000
0010000000
0000000000
0100000000
0000000000
0001000000
0010000000
,
0000100000
1000000000
0000000000
0000100000
0010000000
0001000000
0000000000
0010000000
,
0000100000
0010000000
0001000000
0010000000
0000100000
0001000000
0000001000
0000100000
,
0000010000
0000001000
0000000010
0000000000
,
0000000001
0000000000
0000000100
0000000000
0000000010
0000000000
0000001000
0000000100
,
0000010000
0000000001
0000000000
0000010000
0000000001
0000000100
0000000000
0000000001
,
0000000100
0000000010
0000001000
0000000100
0000010000
0000000100
0000001000
0000010000
,
0000100000
0000000000
0001100000
0000000000
0001000000
0010000000
0000100000
0000000000
,
1000000000
0010000000
0100000000
0000000000
0001000000
0010000000
0000100000
0001000000
,
0000001000
0000100000
0000010000
0000000000
0001000000
0000100000
0010000000
0000000000
,
0000100000
1000000000
0010000000
0000000000
1000000000
0001000000
0010000000
0000100000
,
0001000000
0000010000
0001000000
0000000000
0000001000
0000100000
0000001000
0000000000
,
0000100000
0000010000
0000001000
0000000000
0000000100
0000001000
0000000010
0000000100
,
0000000001
0000010000
0000000100
0000000000
0000001000
0000000010
0000010000
0000000000
,
0000000010
0000001000
0000000001
0000000010
0000000001
0000000100
0000000010
0000001000
,
0000000100
0000000000
0000001000
0000100000
0001000000
0000100000
0000001000
0000010000
,
0000001000
0000000000
0000001000
0000010000
0001000000
0000100000
0000001000
0000010000
,
0001000000
0000000000
0000001000
0000100000
0001000000
0000010000
0000001000
0000100000
,
0000010000
0000001000
0000100000
0001000000
0000001000
0000100000
0000010000
0000000000
,
0000100000
0001000000
0010000000
0000100000
,
1000000000
0000000000
0010000000
0000000000
0100000000
0000000000
0001000000
0010000000
,
0000100000
1000000000
0000000000
0000100000
0010000000
0001000000
0000000000
0100000000
,
0010000000
1000000000
0000100000
0010000000
0001000000
0000100000
0000010000
0000001000
,
0000000100
0000000000
0000001000
0000000010
0000000100
0000000001
0000000010
0000000001
,
0000000100
0000000010
0000001000
0000000100
0000010000
0000001000
0000010000
0000000100
,
0000001000
0000010000
0000100000
0000001000
0001000000
0000100000
0010000000
0001000000
,
1000000000
0010000000
0100000000
0001000000
0010000000
0000100000
0001000000
0000001000
,
0000100000
0000110000
0000000000
0000011000
,
0000000000
0000000000
0000001100
0000000000
0000000010
0000000100
0000000001
0000010000
,
0000000100
0000001000
0000000010
0000000000
0000001000
0000000100
0000010000
0000000000
,
0000000001
0000000100
0000000001
0000000000
0000000100
0000000010
0000001000
0000000100
,
0000010000
0000001000
0000100000
0000000000
0000010000
0001000000
0000100000
0000000000
,
0010000000
0001000000
1000000000
0000000000
0010000000
0100000000
0001000000
0010000000
,
0000100000
0001000000
0000001000
0000000000
0000100000
0000010000
0000001000
0000000000
,
0000010000
0000100000
0001000000
0010000000
0000100000
1000000000
0010000000
0100000000
,
0001000000
0000000000
0100000000
0010000000
1000000000
0000100000
0001000000
0000001000
,
0000100000
0000000000
0000010000
0000001000
0000000010
0000000100
0000000001
0000010000
,
0000000010
0000000000
0000000100
0000000001
0000000010
0000000100
0000001000
0000010000
,
0000100000
0001000000
0010000000
0100000000
1000000000
0010000000
0200000000
0000000000
,
0300000000
0000000000
0000000000
0000000000
;

//---------------pump-double - ----------------
#NOTES:
     pump-double:
     :
     Hard:
     15:
     0.569,0.560,0.180,0.000,0.735:
0000000000
0000000000
0000000000
0000000000
,
0000000000
0000000000
0000000000
0001000000
0010000000
0000000000
0000100000
0000000000
0000000000
0010100000
0000000000
1000000000
0010000000
0000000000
0100000000
0000000000
,
0000000000
0110000000
0000000000
0001000000
0010000000
0000100000
0001000000
0000000000
0000000000
0001100000
0000000000
0000000000
0000000000
0000001000
0000000000
0000100000
,
0000010000
0000001000
0000000100
0000000000
0000000000
0000001000
0000000000
0000010000
0000100000
0001000000
0010000000
0000000000
0000000000
0000100000
0000000000
0001000000
,
0000001000
0000100000
0000010000
0000000000
0000001000
0000000000
0000000100
0000001000
0000010000
0000000000
0000001000
0000000100
0000001000
0000000000
0000010000
0000000000
,
0000100000
0000000000
0000000000
0001000000
0010000000
0000000000
0000100000
0000000000
0000000000
0010100000
0000000000
1000000000
0010000000
0000000000
0100000000
0000000000
,
0000000000
0110000000
0000000000
0001000000
0010000000
0000100000
0001000000
0000000000
0000000000
0001001000
0000000000
0000000000
0000000000
0000001000
0000100000
0000010000
,
0000001000
0000000100
0000001000
0000000000
0000000000
0000000100
0000001000
0000010000
0000100000
0001000000
0010000000
0000000000
0000000000
0001000000
0010000000
0000100000
,
0001000000
0000001000
0000100000
0000000000
0000010000
0000000000
0000001000
0000000100
0000001000
0000000000
0000010000
0000001000
0000010000
0000000000
0000100000
0000000000
,
0000001000
0000000000
0000000000
0000000000
0001010000
0000000000
0000000000
0000000000
0001000000
0000001000
0000100000
0000010000
0001000000
0000000000
0000000000
0000000000
,
0000100000
0001000000
0001000000
0010000000
0000100000
0000000000
0000000000
0000000000
0001000000
0000100000
0010000000
0001000000
0100000000
0010000000
1000000000
0100000000
,
1000000000
0010000000
0100000000
0000000000
0001000000
0000000000
0000000000
0000000000
0010000000
0000100000
0001000000
0000001000
0000100000
0000000000
0000000000
0000010000
,
0000001000
0000000100
0000010000
0000000001
0000000100
0000000000
0000000000
0000000000
0000000001
0000000100
0000000010
0000000100
0000000001
0000000010
0000000001
0000000100
,
0000000010
0000001000
0000000100
0000010000
0000001000
0000000000
0000000000
0000000000
0000010000
0000000100
0000001000
0000010000
0000100000
0000000000
0000000000
0000000100
,
0000001000
0000010000
0000100000
0000001000
0001000000
0000000000
0000000000
0000000000
0000100000
0001000000
0000100000
0010000000
0001000000
0010000000
0000100000
0001000000
,
0000001000
0000100000
0000010000
0000000000
0001000000
0000000000
0000000000
0000000000
0001010000
0000000000
0000101000
0000000000
0001010000
0000000000
0000000000
0000000000
,
0001000000
0000100000
0010000000
0000000000
0001000000
0000000000
0010000000
0000100000
0100000000
0000000000
0001000000
0010000000
0000100000
0000000000
0100000000
0000000000
,
0001000000
0000000000
0000000000
0000000000
1000000000
0000000000
0100000000
0000000000
0010000000
0000000000
0001000000
0000000000
0000100000
0000000000
0000010000
0000001000
,
0000000000
0000000000
0000000000
0000000000
0000000100
0000000000
0000000010
0000000000
0000000001
0000000000
0000000010
0000000000
0000000100
0000000000
0000001000
0000010000
,
0000000000
0000000000
0000100000
0001000000
0010000000
0100000000
1000000000
0100000000
,
0010000000
0001000000
0000100000
0000010000
0000001000
0000000100
0000010000
0000000000
,
0000000001
0000000000
0000000000
0000000100
0000000010
0000000000
0000001000
0000000000
0000000000
0000001100
0000000000
0000000010
0000000100
0000000000
0000000001
0000000000
,
0000000000
0000000101
0000000000
0000001000
0000000100
0000010000
0000001000
0000000000
0000000000
0000011000
0000000000
0000000000
0000000000
0000001000
0001000000
0000100000
,
0010000000
0001000000
0000000000
0000000000
0000000000
0001000000
0010000000
0000100000
0001000000
0000001000
0000100000
0000000000
0000000000
0000001000
0001000000
0000100000
,
0010000000
0001000000
0100000000
0000000000
0010000000
0000000000
0100000000
0001000000
0010000000
0000000000
0001000000
0100000000
0010000000
0000000000
1000000000
0000000000
,
0000100000
0000000000
0000000000
0000000000
1000000000
0010000000
0100000000
0001000000
0010000000
0000100000
0001000000
0000001000
0000100000
0000010000
0000001000
0000000100
,
0000001000
0000000001
0000000100
0000000010
0000000100
0000000001
0000000010
0000000100
0000001000
0000010000
0000100000
0000001000
0001000000
0000100000
0010000000
0001000000
,
0010000000
0000100000
0001000000
0000000000
0000000000
0000100000
0010000000
0001000000
0010000000
0000100000
0001000000
0000000000
0000000000
0000100000
0010000000
0001000000
,
0010000000
0000100000
0100000000
0001000000
1000000000
0000000000
0001000000
0100000000
0010000000
0000000000
0100000000
0001000000
0010000000
0000000000
0000100000
0000000000
,
1000000000
0000000000
0000000000
0000000000
0001010000
0000000000
0000000000
0000000000
0001000000
0000001000
0000100000
0000000000
0000101000
0000000000
0000000000
0000000000
,
0000001000
0001000000
0000010000
0000000000
0001010000
0000000000
0000000000
0000000000
0001000000
0000100000
0010000000
0001000000
0010000000
0000100000
1000000000
0010000000
,
0100000000
0001000000
0010000000
0000100000
1000000000
0000000000
0000000000
0000000000
0001000000
0010000000
0000100000
0001000000
0000001000
0000000000
0000000000
0000100000
,
0000010000
0000001000
0000000100
0000001000
0000000010
0000000000
0000000000
0000000000
0000000100
0000000010
0000000100
0000000001
0000000010
0000000001
0000000100
0000000010
,
0000000100
0000000001
0000001000
0000000010
0000010000
0000000000
0000000000
0000000000
0000000100
0000010000
0000000010
0000000100
0000000001
0000000000
0000000000
0000000000
,
0000000010
0000000001
0000000100
0000000010
0000001000
0000000000
0000000000
0000000000
0000000100
0000010000
0000000001
0000000100
0000000010
0000001000
0000000100
0000010000
,
0000001000
0001000000
0000010000
0000100000
0000001000
0000000000
0000000000
0000000000
0001010000
0000000000
0000101000
0000000000
0001010000
0000000000
0000000000
0000000000
,
0000001000
0000100000
0000010000
0001000000
0000100000
0010000000
0001000000
0010000000
0000100000
1000000000
0010000000
0100000000
0001000000
0010000000
0000100000
0000000000
,
0001000000
0000000000
0000000000
0000000000
0000001000
0000000000
0000100000
0000000000
0000010000
0000000000
0000001000
0000000000
0000000100
0000000000
0000010000
0000000001
,
0000000000
0000000000
0000000000
0000000000
0000000010
0000000000
0000000001
0000000000
0000000100
0000000000
0000000010
0000000000
0000001000
0000000000
0000000100
0000010000
,
0000000000
0000000000
0000001000
0000100000
0000010000
0001000000
0000100000
0010000000
,
0001000000
0000000000
1000000000
0000000000
0010000000
0100000000
0001000000
0010000000
0000100000
0001000000
0000001000
0000100000
0000010000
0000000000
0000000000
0000000000
;

//---------------dance-single - Copied from----------------
#NOTES:
     dance-single:
     Copied from:
     Hard:
     9:
     0.646,0.602,0.199,0.588,0.663: // measure 1
0000
0000
1100
0100
0110
0010
0011
1001
,  // measure 2
0101
0000
0000
0010
1000
0000
0100
0000
0000
0010
0000
0001
0100
0000
0010
0000
,  // measure 3
0000
1000
0000
0100
0010
0100
0010
0000
0000
0001
0000
1000
0000
0010
1000
0100
,  // measure 4
1000
0010
1000
0001
0000
0100
0001
0010
0001
0100
0001
1000
0000
0002
0000
0013
,  // measure 5
0100
0010
0001
0000
0001
0000
1000
0100
1000
0000
0001
0100
0001
0000
1000
0000
,  // measure 6
0100
0000
0000
0010
1000
0000
0100
0000
0000
0022
0000
1033
0010
0000
0010
0000
,  // measure 7
0000
2200
0000
3310
0001
0010
0001
0000
0000
2200
0000
3300
0000
0010
1000
0100
,  // measure 8
1000
0010
1000
0001
0000
0001
0100
0010
0100
0001
0100
0010
0000
0020
0000
0130
,  // measure 9
0001
0010
0100
0000
1000
0000
0100
0010
0100
0000
0001
1000
0001
0000
1000
0000
,  // measure 10
0100
0000
0000
0000
1001
0000
0000
0000
0010
1000
0010
1000
0100
0000
0000
0000
,  // measure 11
0001
0100
0001
0100
0010
0000
0000
0000
0010
1000
0100
1000
0010
0000
1000
0000
,  // measure 12
0100
0000
0001
0000
0100
0000
0000
0000
0010
0001
0100
0010
1000
0000
0000
0000
,  // measure 13
0010
0100
0001
0010
0100
0000
0000
0000
0010
0100
1000
0100
1000
0000
0010
0000
,  // measure 14
0100
0000
0001
0000
0010
0000
0000
0000
0001
0010
1000
0010
0001
0000
0000
0000
,  // measure 15
1000
0100
0001
0100
1000
0000
0000
0000
0010
0100
0001
0100
0010
0000
1000
0000
,  // measure 16
0100
0010
0001
0000
1100
0101
1100
0000
,  // measure 17
0100
1000
0100
0000
1010
0000
0010
0100
0101
0000
0001
0010
0110
0000
0100
0000
,  // measure 18
1000
0000
0000
0000
0000
0000
0000
0000
0000
0000
0000
0000
0000
0000
0000
0000
0002
0000
0000
0000
0000
0000
0000
0003
0002
0000
0000
0000
0000
0000
0000
0003
2000
0000
0000
0000
0000
0000
0000
3000
2000
0000
0000
0000
0000
0000
0000
3000
0200
0000
0000
0000
0000
0000
0000
0300
0100
0000
0000
0000
1000
0000
0000
0000
,  // measure 19
0000
0000
0000
0000
0000
0000
0000
0000
0000
0000
0000
0000
0000
0000
0000
0000
0000
0000
0000
0000
0000
0000
0000
0000
1000
0000
0000
0000
0000
0000
0000
0000
0100
0000
0000
0000
0000
0000
0000
0000
0010
0000
0000
0000
0000
0000
0000
0000
0002
0000
0000
0000
0000
0000
0000
0000
0000
0000
0000
0000
0000
0000
0000
0000
0000
0000
0000
0000
0000
0003
0000
0000
0002
0000
0000
0000
0000
0000
0000
0000
0000
0000
0000
0000
0000
0000
0000
0000
0000
0000
0000
0000
0000
0003
0000
0000
0200
0000
0000
0000
0000
0000
0000
0000
0000
0000
0000
0000
0000
0000
0000
0000
0000
0000
0000
0000
0000
0300
0000
0000
0200
0000
0000
0000
0000
0000
0000
0000
0000
0000
0000
0000
0000
0000
0000
0000
0000
0000
0000
0000
0000
0300
0000
0000
0020
0000
0000
0000
0000
0000
0000
0000
0000
0000
0000
0000
0000
0000
0000
0000
0000
0000
0000
0000
0000
0030
0000
0000
0010
0000
0000
0000
0000
0000
0000
0000
0000
0000
0000
0000
1000
0000
0000
0000
0000
0000
0000
0000
0000
0000
0000
0000
,  // measure 20
0000
0000
0000
0000
0000
0000
0000
0000
0000
0000
0000
0000
0000
0000
0000
0000
0000
0000
0000
0000
0000
0000
0000
0000
0001
0000
0000
0000
0000
0000
0000
0000
0010
0000
0000
0000
0000
0000
0000
0000
0100
0000
0000
0000
0000
0000
0000
0000
2000
0000
0000
0000
0000
0000
0000
0000
0000
0000
0000
0000
0000
0000
0000
0000
0000
0000
0000
0000
0000
3000
0000
0000
2000
0000
0000
0000
0000
0000
0000
0000
0000
0000
0000
0000
0000
0000
0000
0000
0000
0000
0000
0000
0000
0000
0000
0000
3020
0000
0000
0000
0000
0000
0000
0000
0000
0000
0000
0000
0000
0000
0000
0000
0000
0000
0000
0000
0000
0030
0000
0000
0020
0000
0000
0000
0000
0000
0000
0000
0000
0000
0000
0000
0000
0000
0000
0000
0000
0000
0000
0000
0000
0000
0000
0000
0230
0000
0000
0000
0000
0000
0000
0000
0000
0000
0000
0000
0000
0000
0000
0000
0000
0000
0000
0000
0000
0300
0000
0000
0200
0000
0000
0000
0000
0000
0000
0000
0000
0000
0000
0000
0000
0000
0000
0000
0000
0000
0000
0000
0000
0000
0000
0000
,  // measure 21
0302
0000
0000
0000
0000
0000
0000
0000
0000
0000
0000
0000
0000
0000
0000
0000
0000
0000
0000
0000
0000
0003
0000
0000
0001
0000
0000
0000
0000
0000
0000
0000
0010
0000
0000
0000
0000
0000
0000
0000
0100
0000
0000
0000
0000
0000
0000
0000
2000
0000
0000
0000
0000
0000
0000
0000
0000
0000
0000
0000
0000
0000
0000
0000
0000
0000
0000
0000
0000
3000
0000
0000
2000
0000
0000
0000
0000
0000
0000
0000
0000
0000
0000
0000
0000
0000
0000
0000
0000
0000
0000
0000
0000
3000
0000
0000
0200
0000
0000
0000
0000
0000
0000
0000
0000
0000
0000
0000
0000
0000
0000
0000
0000
0000
0300
0000
0000
0000
0000
0000
0200
0000
0000
0000
0000
0000
0000
0000
0000
0000
0000
0000
0000
0000
0000
0000
0000
0000
0000
0000
0000
0300
0000
0000
0020
0000
0000
0000
0000
0000
0000
0000
0000
0000
0000
0000
0000
0000
0000
0000
0000
0000
0000
0000
0000
0000
0000
0000
0000
0000
0000
0000
0000
0000
0000
0000
0000
0000
0000
0000
0000
0000
0000
0000
0000
0000
0000
0000
0000
0000
0000
0000
,  // measure 22
0200
0000
0000
1330
0001
0000
0100
0000
0000
0010
0000
1000
0100
0000
0010
0000
,  // measure 23
0000
0001
0000
1000
0100
0010
0001
0000
0000
0001
0000
1000
0000
0010
1000
0100
,  // measure 24
1000
0010
1000
0001
0000
0001
0010
0100
0010
0100
0001
0100
0000
0020
0000
0130
,  // measure 25
1000
0010
1000
0000
0001
0000
1000
0100
1000
0000
0001
0100
0001
0000
1000
0000
,  // measure 26
0100
0000
0000
0100
2000
0000
3002
0000
0000
0203
0000
0310
0200
0000
0320
0000
,  // measure 27
0000
2030
0000
3100
0010
0100
0020
0000
0000
0031
0000
1000
0000
0010
1000
0100
,  // measure 28
1000
0010
1000
0000
0000
0001
1000
0001
1000
0010
1000
0000
0000
0002
0000
1003
,  // measure 29
0010
0100
0001
0000
0001
0000
0001
1000
0001
0000
0001
1000
0001
0000
1000
0000
,  // measure 30
0100
0000
0000
0000
0100
0000
0000
0000
1000
0100
1000
0001
1000
0000
0000
0000
,  // measure 31
0001
0010
0001
1000
0001
0000
0000
0000
0001
0100
0010
0100
0001
0000
2000
0000
,  // measure 32
3200
0000
0320
0000
0032
0000
2003
0000
3200
1000
0310
1000
0010
0000
0000
0100
,  // measure 33
0010
0100
0001
0100
0010
0000
0000
0000
0010
1000
0100
1000
0020
0000
0230
0000
,  // measure 34
0302
0000
0023
0000
0230
0000
0000
0300
1000
0010
0001
0010
1000
0000
0000
0001
,  // measure 35
1000
0100
0001
0100
1000
0000
0000
0000
0010
0100
0001
0010
0200
0000
0320
0000
,  // measure 36
0032
0000
0203
0000
0320
0000
0000
0030
1001
0000
1100
0000
1001
0000
0000
0000
,  // measure 37
0100
1000
0100
0000
1010
0000
0010
0100
0101
0000
0001
0010
0110
0000
0100
0000
,  // measure 38
1000
0000
0000
0000
0002
0000
1000
0000
0010
0000
0100
0000
0103
0000
0001
0010
,  // measure 39
0200
0000
0000
1300
0100
0010
0002
0000
0000
0100
0000
0000
0010
0000
0000
1000
0000
0000
1000
0000
0000
0100
0000
0000
,  // measure 40
1003
0000
0000
0001
0010
0100
2000
0000
0000
0001
0000
0000
0100
0000
0000
0010
0000
0000
0100
0000
0000
0001
0000
0000
,  // measure 41
3100
0000
0000
1000
0100
0010
0002
0000
0000
0010
0000
0000
0100
0000
0000
1000
0000
0000
0203
0000
0000
0000
0000
0000
,  // measure 42
0310
0000
0000
0000
;

//---------------dance-single - ----------------
#NOTES:
     dance-single:
     :
     Beginner:
     2:
     0.176,0.175,0.028,0.085,0.000:
0000
0000
0000
0000
,
0000
1000
1000
0001
,
0001
1000
1000
0001
,
0001
1000
1000
0001
,
0001
0020
0000
0230
,
0000
0301
0001
1000
,
1000
0001
0001
1000
,
1000
0001
0001
1000
,
1000
0020
0000
0230
,
0000
0302
0000
2003
,
0000
3001
0000
1000
,
0010
0100
0000
0001
,
0000
0010
0000
0100
,
1000
0001
0000
0100
,
0000
0010
0000
1000
,
0001
1000
0000
1001
,
0000
0010
1000
0100
,
0000
0000
0000
0000
,
0000
0001
0000
0000
,
0000
1000
0000
0010
,
0000
0001
0000
0100
,
0000
1000
0001
1000
,
0001
1000
0001
1000
,
0001
1000
0001
1000
,
0001
2000
0000
0002
,
0000
3003
0001
1000
,
1000
0010
0010
0100
,
0100
0001
0001
1000
,
1000
0001
0001
0001
,
0001
1001
0000
0110
,
0000
0001
0000
1000
,
0010
0100
0000
0001
,
0000
0001
0000
0010
,
0100
0001
0000
1000
,
0000
0001
0000
0100
,
1000
0010
0000
0002
,
0000
1003
1000
1000
,
0000
0010
0010
0010
,
0010
0100
0100
0100
,
0100
0001
0001
0001
,
0001
1000
1000
1000
,
1000
0000
0000
0000
;

//---------------dance-single - ----------------
#NOTES:
     dance-single:
     :
     Easy:
     3:
     0.226,0.253,0.038,0.161,0.000:
0000
0000
0000
0000
,
0000
1000
0001
1000
,
0010
0100
0010
1000
,
0001
1000
0100
0010
,
0100
0000
1000
0000
0001
0000
1000
1000
,
1000
0002
0000
2003
,
0000
3020
0000
0230
,
0000
0302
0000
2003
,
0000
3000
0001
0000
1000
0000
0001
0001
,
0001
1100
0000
0101
,
0000
0001
1000
0100
,
0010
0000
0001
0000
0100
0100
0100
0000
,
1000
1000
1000
0000
0001
0000
1000
0000
,
0010
0000
0100
0000
0001
0100
0001
0000
,
1000
0100
1000
0000
0010
0000
0100
0000
,
0001
0000
0010
0000
0100
0100
0100
0000
,
1000
0001
1000
0010
,
0100
0002
0000
0000
,
0000
1000
0000
0000
,
0000
0010
0000
0100
,
0000
1000
0010
0100
,
0003
0100
0100
0010
,
0010
0001
0001
1000
,
1000
0001
0001
1000
,
1000
0001
1000
1001
,
1001
0010
0100
0001
,
0100
0010
1000
0010
,
1000
0100
0010
0001
,
0010
0000
0100
0000
1000
0000
0001
0001
,
0001
0002
0000
2000
,
0000
3003
0010
0000
0100
0000
0001
0000
,
0010
0000
0100
0000
1000
0100
1000
0000
,
0001
0100
0001
0000
1000
0100
1000
0000
,
0001
0100
0001
0000
1000
0000
0010
0000
,
0100
0100
0100
0000
0001
0010
0100
0000
,
1000
0100
0010
0000
0001
0001
0001
0000
,
0001
1000
0002
0000
2003
0000
3002
0000
,
2003
0000
0002
0000
0000
0000
0000
3000
,
0000
0200
0000
0000
,
0300
0020
0000
0000
,
0000
0030
2000
0000
0000
0000
0000
0000
,
3003
0000
0000
0000
;

//---------------dance-single - ----------------
#NOTES:
     dance-single:
     :
     Medium:
     6:
     0.322,0.311,0.000,0.218,0.038:
0000
0000
0001
0000
1000
0000
0001
1000
,
0001
0000
0000
0000
0010
0000
0100
0000
0000
1000
0000
0000
0001
0000
0100
0000
,
0000
0010
0000
0000
1000
0000
0100
0000
0000
0010
0000
0000
0000
0000
0000
0000
,
0001
1000
0000
0000
0001
1000
0000
0000
,
0001
1000
0001
0001
1000
1000
0001
0001
,
2000
0100
0010
3002
,
0010
0000
0000
0003
2000
0000
0000
0000
0100
0000
0000
3000
0001
0000
1000
0000
,
0010
0000
0010
0100
0001
0000
0010
0100
,
1000
0000
0000
0000
0001
0000
0002
0000
1000
0000
1000
0003
2000
0000
0001
0000
,
0002
0000
0000
3000
1000
0003
0000
0000
0001
0000
1000
0000
0010
0000
0000
0000
,
0010
0100
0001
0000
0001
0010
0100
1000
,
0100
0010
0001
0000
0001
0100
1000
0000
,
1000
0100
0001
0000
0010
0100
0001
0010
,
0100
1000
0001
0000
0001
1000
0001
0000
,
1000
0001
1000
0000
0010
0100
0001
1000
,
0100
0010
0001
0000
0001
0010
0001
0000
,
1000
0001
1000
0000
0200
0000
0000
0000
2300
0000
0000
0000
3020
0000
0000
0030
,
0200
0000
0000
0000
0001
0000
0000
0300
0000
0000
0000
0000
0000
0000
0000
0000
,
0000
1000
0001
0000
0000
0000
0000
0000
,
0000
0010
0100
0000
0001
0000
1000
0000
,
0100
0000
0010
0001
0010
0100
2000
0000
,
0001
3000
0000
0000
0001
0000
0100
0000
0000
0010
0000
0000
1000
0000
0100
0000
,
0000
0010
0000
0000
0001
0000
0100
0000
0000
0010
0000
1000
0000
0000
0000
0000
,
0100
1000
0001
0100
,
0010
0000
1000
1000
0001
0001
1000
0100
,
0010
0000
0000
0000
0002
0000
0000
0000
0000
0000
0000
0003
2000
0000
0000
0000
,
0000
0000
0000
3000
0200
0000
0000
0000
0000
0000
0000
0300
0010
0000
0001
0000
,
0010
0001
0000
1000
0100
1000
0000
0010
,
0100
0010
1000
0001
0010
0100
0010
0001
,
1000
0000
0001
0000
1000
0001
1000
0000
,
0001
0100
1000
0000
0010
0100
0001
0010
,
0100
1000
0001
0000
0001
0001
0001
0000
,
1000
1000
1000
0000
0001
1000
0010
0100
,
0001
1000
0100
0000
0100
1000
0010
0000
,
0010
0100
0001
0000
0001
0100
0010
1000
,
0100
0010
0001
0000
0001
0001
0001
0000
,
2000
0100
3002
0100
,
2003
0000
0200
0000
0000
0000
0000
0300
,
0020
0000
0000
0030
0002
0000
0000
0000
0000
0000
0000
0000
0000
0000
0003
0000
,
0200
0000
0000
0300
0020
0000
0000
0000
0000
0000
0000
0030
0002
0000
0003
0000
,
0001
0000
0001
0000
0001
0000
0001
0001
,
3001
0000
0000
0000
;
