#TITLE:Neu (H);
#SUBTITLE:(Hyper Version);
#ARTIST:SHOUNENRADIO;
#TITLETRANSLIT:;
#SUBTITLETRANSLIT:;
#ARTISTTRANSLIT:;
#CREDIT:;
#BANNER:bn.png;
#BACKGROUND:bg.png;
#LYRICSPATH:;
#CDTITLE:;
#MUSIC:neu HYPER.mp3;
#OFFSET:0.000;
#SAMPLESTART:100.050;
#SAMPLELENGTH:12.000;
#SELECTABLE:YES;
#BPMS:0.000=199.120;
#STOPS:;
#BGCHANGES:;

//---------------dance-single - ----------------
#NOTES:
     dance-single:
     :
     Beginner:
     2:
     0.287,0.455,0.337,0.227,0.000:
0000
0000
0000
0000
,
0000
0000
0000
0000
,
0000
0000
0000
0000
,
0000
0010
0000
0000
,
0000
0100
0000
0000
,
0000
0001
0000
0000
,
0000
1000
0000
0000
,
0000
0010
0000
0100
,
0000
0010
0000
0100
,
0000
0010
0000
0100
,
0000
0001
0010
0100
,
0000
1000
0000
0100
,
0000
0010
0000
0001
,
0000
0010
0000
0100
,
0000
1000
0000
0100
,
0000
2002
0000
3003
,
0000
0022
0000
0033
,
0000
2200
0000
3300
,
0000
2020
0000
3030
,
0000
0202
0000
0000
,
0303
2020
0000
0000
,
3030
0000
0000
1000
,
1000
0000
0000
0001
,
0010
0100
0000
1000
,
0001
0000
0000
0010
,
0000
0010
0000
0010
,
0000
0010
0010
0010
,
0010
0200
0000
0000
,
0000
0000
0000
0000
,
0300
0000
0000
0001
,
1000
0000
0000
0000
,
0000
0000
0000
0001
,
0001
0000
0000
0000
,
0000
0011
0000
1100
,
0000
1010
0101
0000
,
0000
1001
0000
0110
,
0000
0000
0011
0000
,
0000
1100
0000
0000
,
1010
0000
0101
0000
,
0000
0011
0000
1100
,
0000
0000
1100
0000
,
0000
1010
0000
0000
,
0110
0000
0000
0101
,
0000
0000
0101
0000
,
0000
0011
0000
0000
,
0011
0000
0000
1001
,
0000
0000
0110
0000
,
0000
1001
0000
0000
,
0000
0000
0000
0000
,
0000
1001
0000
0000
,
0000
0000
0000
0000
,
0000
1001
0000
1000
,
0000
0001
0000
1000
,
0000
0001
0000
1001
,
1001
0100
0110
0000
,
0000
1001
1001
0100
,
0100
0010
0000
1000
,
1000
0001
1000
1000
,
0001
0100
1000
0100
,
0010
0001
0010
0200
,
0000
0000
0000
0000
,
0300
0002
0000
0000
,
0000
0000
0000
0003
,
0000
0020
0000
0000
,
0000
0000
0000
0000
,
0030
0000
2020
0000
,
0000
0030
0002
0000
,
0000
3023
0000
0000
,
0000
0000
0200
0000
,
0000
0330
2002
3003
,
0020
1000
0000
0030
,
0000
0020
1000
0000
,
1000
0000
0000
1000
,
0030
0000
1002
0000
,
0003
0000
2001
0000
,
3000
0010
0000
0100
,
0100
0000
0010
0000
,
0100
0000
0010
0000
,
0010
0000
0001
0000
,
1000
0000
0100
0100
,
0000
0010
0000
0010
,
0000
0001
0000
0000
,
1000
0000
0001
0000
,
0000
0000
1000
1000
,
0100
0100
0010
0010
,
0000
0001
0000
1000
,
0000
0000
0100
0000
,
0001
0010
0100
0000
,
1000
1000
0000
0000
,
0001
0000
1000
0000
,
1000
0000
0001
0010
,
0100
0000
1000
0010
,
0100
0001
0010
0100
,
0001
0010
0001
1000
,
0001
0010
0100
1010
,
0001
0010
0001
0010
,
0001
0010
0100
1000
,
0100
0010
0100
0010
,
0001
0010
0100
0110
,
0010
0100
0010
0100
,
0010
0000
0000
0000
,
0000
0000
2002
0000
,
0000
0000
0000
0000
,
0000
0000
0000
0000
,
0000
0000
3003
0000
,
0000
0000
1001
0000
;

//---------------dance-single - ----------------
#NOTES:
     dance-single:
     :
     Easy:
     3:
     0.454,0.744,0.791,0.180,0.000:
0000
0000
0000
0000
,
1000
0010
0001
0010
,
0100
1000
0100
0010
,
1001
0000
0000
0011
,
0000
1100
0000
1010
,
0000
0101
0101
1010
,
0000
0101
0101
0011
,
0000
1100
0011
0000
,
0000
1000
0000
0100
,
0000
0001
1000
0000
,
0000
0001
1000
0000
,
0000
0001
1000
0001
,
1000
0001
1000
0001
,
1000
0001
1000
0001
,
1000
0001
1000
0001
,
1000
1001
1001
1001
,
1001
1001
1001
1001
,
1001
1001
1001
1001
,
1001
1001
2002
0000
,
3003
0010
0010
0000
,
0100
0010
0000
0001
,
0001
0010
0010
0000
,
0100
1000
0000
1000
,
0100
0010
0010
0000
,
0001
0010
0010
0000
,
0100
1000
0100
0010
,
0011
0000
0100
0010
,
0100
0020
0000
0000
,
0000
0200
0000
0000
,
0000
0332
0000
0000
,
0000
2003
0000
0000
,
0000
3200
0000
0000
,
0000
0320
0000
0000
,
0002
0030
0000
0000
,
0000
0203
0000
0000
,
0300
1000
0001
0010
,
0100
0010
0010
0001
,
0010
0010
0100
0010
,
0010
1000
0100
0100
,
1000
0010
0010
0100
,
0010
0010
0001
0010
,
0100
0110
0110
0001
,
0010
0110
0110
0001
,
1000
1000
0001
1000
,
0001
0000
1010
0101
,
0010
1001
0010
0100
,
0010
0100
0010
0100
,
0110
0000
0000
0110
,
0110
1001
0000
0110
,
0000
2002
0000
0000
,
0000
0003
0001
0001
,
0000
0000
0001
3002
,
0000
0000
1000
1000
,
0000
1000
1003
0010
,
0100
0010
0010
0100
,
0010
0100
0010
0100
,
0000
0010
0010
0010
,
0000
0010
0010
0000
,
0000
2000
0000
0200
,
0000
0000
0000
3300
,
0000
1000
0100
0010
,
0001
0010
0100
0000
,
1000
0000
0100
0010
,
0001
0010
0000
0100
,
0000
1000
0001
1000
,
1002
0003
0000
0010
,
0100
0000
0100
0000
,
0010
0100
0002
0000
,
0000
0020
0000
0003
,
0000
0230
0000
0000
,
0000
2000
0300
0000
,
3000
0010
0100
0100
,
0010
0000
0100
0100
,
0001
1000
0001
1000
,
0001
1000
1001
0110
,
1001
0110
1001
0000
,
1001
0000
0110
0000
,
0110
0000
0011
0011
,
1100
1100
0011
0011
,
1100
1100
0011
0011
,
1100
1100
1010
0101
,
1010
0101
0000
1000
,
1001
0000
1000
0000
,
0000
1010
0000
1010
,
0000
0101
1010
0000
,
1010
0101
1010
1010
,
0100
0001
0000
0000
,
0000
0000
1010
1010
,
0000
1100
0000
0011
,
0011
0010
0011
0001
,
0011
0011
0001
0011
,
0000
0000
0011
0001
,
0011
0001
0011
0001
,
0011
0001
0010
0011
,
0000
0011
0000
0011
,
0000
0011
1100
0011
,
0011
1001
0011
1000
,
0001
0000
1010
0000
,
1100
0000
1000
0100
,
0010
0001
2002
0000
,
0000
0000
0000
0000
,
0000
0000
0000
0000
,
0000
0000
0000
0003
,
0002
0000
0000
0000
,
0000
0000
3003
0000
,
0001
0110
1001
0000
;

//---------------dance-single - ----------------
#NOTES:
     dance-single:
     :
     Medium:
     8:
     0.572,0.745,0.486,0.204,1.000:
0000
0000
0000
0000
0000
1000
0000
0000
0000
0000
0000
0000
,
0000
0000
0000
0010
0000
0010
0000
0000
0100
0000
0000
0100
,
0000
0000
0001
0000
0000
0000
0000
0000
1001
0000
0001
1000
,
0000
0010
0000
0000
0000
0010
0000
0000
0010
0000
0000
0010
,
0000
0000
0100
0000
0100
0100
0000
0000
0010
0000
0000
0000
,
0000
0000
0100
0000
0100
0100
0000
0000
0000
0100
0100
0100
,
0000
0000
0100
0000
0100
0100
0000
0000
0100
0000
0100
0100
,
0000
0000
0010
0000
0100
0000
0000
0010
0000
0000
0100
0000
,
0000
0010
0000
0000
0000
0100
0000
0010
0000
0000
0100
0000
,
0000
0000
1000
0000
0000
0001
0000
0000
1000
0000
0000
0001
,
0000
0000
1001
0000
0000
1001
0000
0000
1001
0000
0000
0000
,
0000
0000
0000
0001
1000
0001
0000
1000
0000
0001
1000
0001
,
0000
1000
0001
0000
1000
0001
0000
1000
0001
0000
1000
0001
,
0000
1000
0001
0000
1000
0001
0000
1000
0001
1000
0000
0001
,
1000
0000
0001
1000
0000
0001
1000
0000
0001
1000
0000
0001
,
1000
0000
0010
1000
0000
0010
1000
0000
0010
1000
0000
0010
,
1000
0010
0000
0000
0001
0000
0100
0001
0000
0100
0001
0000
,
0100
0001
0000
0100
0000
0100
0000
0000
0000
0000
0000
0000
,
0000
2000
0002
0000
0000
0000
0000
0000
0000
3003
0000
1001
,
0000
0000
0000
0010
0000
0010
0000
0000
0010
0000
0000
0000
,
0010
0000
0000
0000
0001
0000
0001
0001
0000
0001
0000
0010
,
0000
0000
0010
0000
0000
0010
0000
0000
0000
0000
0000
0000
,
0100
0000
0000
0000
0000
0010
0000
0000
0100
0000
0000
0000
,
0000
0000
0010
0000
0010
0010
0000
0000
0000
0000
0000
0000
,
0000
0000
0000
0001
0000
0001
0001
0001
0001
0001
0001
0000
,
0001
0001
0001
0000
0001
0001
0000
0001
0001
0000
0000
0000
,
0000
0000
0000
0010
0000
0100
0000
0000
0000
0010
0000
1001
,
0000
1001
0011
0011
,
1100
0011
0011
1100
,
0011
0000
0000
1100
0000
0000
0011
0000
0000
0100
1000
0000
,
1100
1100
1100
1100
,
1100
0000
0000
1000
1000
0000
0000
0100
0100
0000
0000
0010
,
0000
0010
0000
0000
0001
0001
0000
0000
0010
0010
0000
0000
,
0010
0000
0000
0100
0100
0100
0000
0100
0000
0100
0100
0000
,
0100
0000
0000
1000
1000
0000
1000
0000
0000
0010
0010
0010
,
0000
0000
0001
0000
0000
0000
0001
0000
0000
0001
0000
0000
,
0010
0000
0000
0100
0000
0100
0000
0000
0010
0000
0000
0010
,
0000
0000
0001
0000
0000
0001
0000
0000
0010
0000
0000
0100
,
0000
0000
0000
0000
0000
0000
1000
0000
1000
0000
0000
0000
,
0000
0000
0001
0000
0000
0001
0000
0000
0000
0000
0000
0000
,
0010
0000
0000
1001
0000
0000
0000
0000
0000
0000
0100
0000
,
1001
0000
0010
0011
,
0000
0000
0000
0000
0010
0000
0000
1100
0000
0000
0000
0000
,
0000
1010
0000
0000
1010
0000
0000
0000
0000
0000
0000
0101
,
0000
0000
0000
1010
0000
0000
0000
0001
0000
0000
0011
0000
,
0000
0000
0000
0000
0000
0000
0000
0101
0000
0000
0000
0000
,
0000
0011
0000
0000
,
0000
0000
0000
0000
,
0000
0000
0000
0000
0101
0000
0000
0011
0000
0000
0101
0000
,
0000
0011
0000
0000
0101
0000
0000
0011
0000
0000
0101
0000
,
0000
0011
0000
0000
0101
0000
0000
0010
0000
0000
0010
0000
,
0000
1000
0000
0100
0000
0000
1000
0000
0000
0000
1010
0000
,
0000
1100
0000
0000
1010
0000
0000
1100
0000
0000
1010
0000
,
0000
0000
0000
0000
1000
0000
1000
1000
0000
0000
0000
0000
,
0000
0100
0100
0000
0100
0000
0000
0000
0000
0000
0000
0010
,
0010
0010
0000
0000
0000
0000
0000
0000
0000
0000
0010
0010
,
0000
0010
0000
0000
0000
0000
0000
0000
0000
0000
0000
0000
,
0010
0010
0010
0000
0000
0000
0000
0000
0010
0000
0010
0010
,
0000
0000
0000
0010
0000
0010
0010
0000
0000
0010
0000
0010
,
0010
0010
0000
0010
0010
0010
0000
0000
0000
0001
0000
0000
,
1000
0001
1000
0001
,
0010
0000
0000
0100
0000
0000
0010
0000
0000
0100
0000
0010
,
0000
0000
0100
0000
0000
0010
0000
0100
0000
0000
0100
0000
,
0000
2002
0000
0000
3003
0010
0000
0000
0010
0000
0100
0000
,
0000
0100
0000
0000
0010
0000
0100
0000
0000
2002
0000
0000
,
3003
0010
0000
0000
0000
0101
0000
0000
0000
0010
0000
0000
,
0000
0100
0000
0000
0010
0000
0000
0000
0000
2002
0000
0000
,
3003
0010
0000
0000
0100
0000
0000
0100
0000
0000
0100
0000
,
0000
0010
0000
0100
0000
0000
0000
2002
0000
0000
0000
3003
,
0000
0001
0000
0000
2000
0000
0000
0000
0000
3002
0000
0000
,
0000
0000
2003
0000
0000
0000
3002
0000
0000
0000
0000
2003
,
0000
0000
3002
0000
0000
2003
0000
0000
0000
3002
0000
0000
,
0000
2003
0000
0000
0000
0000
3002
0000
0000
0000
2003
0000
,
0000
3001
0000
0000
0000
2002
0000
0000
0000
0000
0000
0000
,
0000
0000
0000
0000
,
3003
0000
0000
0000
0000
1000
0000
0000
0100
0000
0000
0010
,
0000
0000
0001
0010
0000
0100
0000
0000
1000
0000
0000
0100
,
0000
0000
0010
0000
0000
0001
0010
0000
0100
1000
0000
0100
,
0000
0000
0000
0000
0001
0000
0000
0000
0000
0010
0000
0000
,
0000
0000
0000
0000
0000
1000
0100
0010
0000
0001
0000
0010
,
0100
0000
1000
0100
0000
0100
0100
0000
1000
0010
0000
0010
,
0000
1000
0001
0000
0001
0000
1000
0010
0010
0000
1000
0100
,
0100
0000
1000
0001
0000
0001
0001
0001
1000
0001
0000
1000
,
0001
0000
0001
0000
0000
1000
0100
0000
0100
0000
0010
0000
,
0001
0000
0010
0000
0000
0000
0000
0100
0000
0000
1000
0000
,
0000
0100
0000
0000
0000
0010
0000
0000
0010
0000
0000
0001
,
0001
0000
0000
0000
0000
1000
0000
1000
0000
0000
0000
0001
,
0010
0100
0000
0000
0000
1000
0000
0000
1000
0000
0000
0100
,
0000
0100
0100
0000
0000
0010
0000
0000
0001
0000
0000
0010
,
0000
0000
0100
0000
0000
1000
0000
0010
0000
0000
0000
0100
,
0000
0000
0001
0000
0000
0010
0000
0010
0010
0000
0000
0000
,
0100
0000
0100
0000
0000
1000
0000
0100
0000
0000
0010
0000
,
0000
0001
0000
0000
0010
0000
0000
0100
0000
1000
0000
0000
,
0100
0010
0001
0010
,
0100
0000
1000
0000
0000
0100
0000
0010
0001
0000
0000
0010
,
0000
0000
0000
0100
0000
0100
0000
0000
0010
0100
0000
0000
,
0110
0000
0000
0110
0000
0000
0110
0000
0000
0110
0000
0110
,
0000
0000
0110
0000
0000
0000
1001
0000
0000
0000
0110
0000
,
0000
0000
0001
1000
0000
0000
0000
0000
0000
1001
0000
0000
,
0000
0000
0000
0000
0000
2002
0000
0000
0000
0000
0000
0000
,
0000
0000
0000
0000
,
0000
0000
0000
0000
0000
0003
0002
0000
0000
0000
0000
0000
,
0000
0000
0000
0000
,
0000
0000
0000
0000
,
0000
0000
0000
0000
0000
0000
0000
0000
3003
0000
0000
0000
,
0000
0000
0000
0001
0010
0000
0100
0000
1000
0000
0000
0000
;

//---------------dance-single - ----------------
#NOTES:
     dance-single:
     :
     Hard:
     10:
     0.560,0.744,0.212,0.274,1.000: // measure 1
0000
0000
0000
0000
0000
0000
0000
0000
0000
0000
0000
0000
0000
0000
0000
0000
0000
0000
0000
0000
0000
0000
0000
0000
0000
0000
0000
0000
0000
0000
0000
0000
0000
0000
0000
0000
0000
0000
0000
0000
0000
0000
0000
0000
0000
0000
0000
0000
0000
0000
0000
0000
0000
0000
0000
0000
0000
0000
0000
1000
0000
0000
0000
0000
,  // measure 2
0000
0010
0000
0000
0000
0000
0000
0000
0000
0100
0000
0000
0000
0000
0000
0000
0000
1001
0000
0000
0000
0000
0000
0000
0000
0000
0000
0000
0000
0000
0000
0000
0000
0000
0100
0000
0000
0000
0100
0000
0000
0000
0100
0000
0000
0000
0100
0000
0000
0000
0100
0000
0000
0000
0100
0000
0000
0000
0100
0000
0000
0000
0100
0000
,  // measure 3
0100
0100
0100
0100
0000
0000
0000
0000
0000
0000
0000
0000
,  // measure 4
0000
0000
0000
0000
,  // measure 5
0000
0000
0000
0010
0000
0000
0000
0000
0000
0000
0010
0000
0000
0000
0000
0000
0000
0100
0000
0000
0000
0000
0000
0000
,  // measure 6
0000
0000
0000
0000
0000
0000
0000
0000
0000
0000
0000
0000
0000
0000
0000
0000
0000
0010
0000
0000
0000
0000
0000
0100
,  // measure 7
0000
0000
0000
0000
0000
0000
0000
0000
0000
0000
0000
0000
0000
0000
0000
0000
0001
0000
0010
0000
0000
0100
0000
1000
,  // measure 8
0000
0000
0000
0000
0000
0100
0000
0000
0000
0000
0010
0000
0000
0000
0000
0001
0000
0000
0000
0000
0000
0010
0000
0000
,  // measure 9
0000
0000
0000
0000
0100
0000
0000
0000
0000
0000
0000
1000
0000
0000
0000
0000
0100
0000
0000
0000
0000
0000
0010
0000
,  // measure 10
0000
0000
0001
0000
0000
0010
0000
0000
0000
0000
0000
0000
,  // measure 11
0000
0000
0000
0000
0001
0000
0000
0010
0000
0000
0100
0000
0000
1000
0000
0000
0100
0000
0000
0000
0010
0000
0000
0000
,  // measure 12
0000
0000
0000
0001
0000
0000
0000
0000
0000
0000
0001
0000
0000
0000
0000
0001
0000
0000
0000
0000
0000
0000
0001
0000
,  // measure 13
0000
0000
0000
0000
0000
1001
0000
0000
0000
0000
1001
0000
0000
0000
0000
0000
1001
0000
0000
0000
0000
1000
0000
0000
,  // measure 14
0000
0000
0000
1000
0001
0000
0000
0000
0000
0000
0000
1001
0000
0000
0000
0000
0001
0000
0000
0000
0000
0000
1000
0001
,  // measure 15
0000
0000
0000
0000
0000
0001
1000
0000
0000
0000
0000
1001
0000
0000
0000
0000
0000
0001
0000
0000
0000
0000
0000
0000
,  // measure 16
0000
0000
0000
0000
0000
0000
0001
0000
0000
0000
0000
0000
1001
0000
0000
0000
0000
1000
0000
0000
0000
0000
0000
1001
,  // measure 17
0000
0000
0000
0000
0000
0000
0001
0000
0000
0000
0000
1001
0000
0000
0000
0000
0000
1000
0000
0000
0000
0000
0000
0001
,  // measure 18
0000
0000
0000
0000
0000
1000
0000
0000
0001
0000
0000
1000
0000
0000
0001
0000
0000
1000
0000
0001
0000
1000
0000
0001
,  // measure 19
0000
1000
0000
0000
0000
0001
0000
1000
0000
0001
0000
1000
0000
0000
0001
0000
0000
1000
0000
0000
0000
0000
2000
0000
,  // measure 20
0000
0000
0000
0000
0000
0020
0000
3000
0000
0000
0000
0000
0030
0000
0010
0000
0000
0000
0000
0000
0000
0100
0000
0000
,  // measure 21
0000
0000
0000
0000
0000
0000
0000
0000
0001
0000
0000
0001
0000
0001
0000
0000
0011
0000
0000
0000
0000
0000
0100
0000
,  // measure 22
0000
0000
0000
0000
1000
0000
0000
0000
0000
0000
0000
0100
0000
0100
0000
0100
1000
0000
0000
0000
0000
0000
0010
0000
,  // measure 23
0000
0000
0010
0000
0000
0000
0010
0000
0000
0000
0000
0000
0000
0000
0000
0001
0000
0000
0001
0000
0001
0000
0000
0000
,  // measure 24
0000
0010
0000
0000
0010
0000
0000
0010
0000
0000
0000
0010
0000
0000
0010
0000
0000
0010
0000
0000
0010
0000
0000
0010
,  // measure 25
0000
0000
0000
0010
0000
0000
0010
0000
0000
0010
0000
0000
0000
0010
0000
0000
0010
0000
0000
0010
0000
0000
0010
0000
,  // measure 26
0000
0010
0000
0000
0000
0100
0000
0000
0100
0000
0000
0000
0010
0000
0000
0000
0010
0000
0000
0100
0000
0000
0000
0010
,  // measure 27
0000
0000
0000
0100
0000
0000
0000
0010
0000
0100
0000
0000
0000
0000
0010
0100
0000
0000
0000
0000
0010
0000
0100
0000
,  // measure 28
0000
0000
0000
0000
0000
0002
0000
0000
0000
0000
0000
0000
0000
0000
0000
0000
0000
0000
0000
0000
0000
0000
0000
0000
,  // measure 29
0000
0000
2000
0000
0000
0000
0000
0000
0000
0000
0000
0000
,  // measure 30
0003
0000
0000
0000
0000
0020
0000
0000
0000
0000
0000
0000
0000
0000
0000
0000
0000
0000
3000
0000
0000
0000
0000
0000
,  // measure 31
0000
0000
0000
0000
0000
0200
0000
0000
0000
0000
0000
0000
0000
0000
0000
0000
0000
0000
0000
0000
0000
0000
0000
0000
,  // measure 32
0000
0030
0000
0000
0000
0000
0000
2000
0000
0000
0000
0000
0000
0000
0000
0000
0000
0000
0000
0000
0000
0000
0000
0000
,  // measure 33
0000
3000
0000
0000
0002
0000
0300
0000
0000
0000
0000
0000
0000
0000
0000
0000
0000
0000
0000
0000
0000
0003
0000
0000
,  // measure 34
0000
0000
0000
0000
0000
0000
0001
0000
0000
0000
0000
0000
1000
0000
0000
0000
0000
0000
0000
0001
0000
0000
0000
0000
,  // measure 35
1000
0000
0000
0000
0000
0000
0000
0001
0000
0000
1000
0000
0000
0001
0000
1000
0000
0000
0001
0000
0000
1000
0000
0000
,  // measure 36
0000
0000
0000
0000
0000
0020
0000
0000
0000
0000
0000
0000
0000
0000
0000
0000
0000
0000
0030
0000
0000
0000
0000
0000
,  // measure 37
0000
0000
0010
0000
0000
0010
0000
0000
0000
0000
0000
0000
0010
0000
0000
0000
0000
0000
0000
0100
0000
0000
0000
0000
,  // measure 38
0000
0010
0000
0000
0000
0000
0100
0000
0000
0000
0000
0000
0010
0000
0000
0000
0000
0000
0000
0100
0000
0000
0000
0000
,  // measure 39
0010
0000
0000
0000
0000
0000
0000
0100
0000
0000
0100
0000
0000
0010
0000
0000
0000
0000
0000
0100
0000
0000
0000
0000
,  // measure 40
0010
0000
0000
0000
0000
0000
0000
0000
0100
0000
0000
0000
0000
0010
0000
0000
0000
0000
0000
1000
0000
0000
0000
0000
,  // measure 41
0000
0100
0000
0000
0000
0000
0000
0000
1000
0000
0000
0000
0000
0000
0010
0000
0000
0000
0000
1000
0000
0000
0000
0000
,  // measure 42
0000
0000
0000
0000
0000
0000
0000
0000
1000
0000
0100
0000
0000
0010
0000
0000
0010
0000
0000
1000
0000
0000
0001
0000
,  // measure 43
0000
0001
0000
0000
1000
0000
0010
0000
0000
0010
0000
0000
0100
0000
0000
0001
0000
0000
0001
0000
0010
0000
0000
0100
,  // measure 44
0000
0000
0100
0000
1000
0000
0000
0010
0000
0010
0000
0000
1000
0000
0100
0000
0000
0100
0000
0000
0010
0000
0000
0001
,  // measure 45
0000
0000
0001
0000
0000
0010
0000
0100
0000
0000
0100
0000
0000
1000
0000
0010
0000
0000
0010
0000
1000
0000
0000
0001
,  // measure 46
0000
0000
0001
0000
0010
0000
0000
0001
0000
0000
0001
0000
0000
0010
0000
0000
0001
0000
0000
0001
0000
0000
0000
0001
,  // measure 47
0000
0010
0000
0000
0001
0000
0010
0000
0000
0000
0000
0000
0000
0000
0000
0000
1001
0000
0000
0000
0000
0110
0000
0000
,  // measure 48
0000
0000
0001
1000
0000
0000
0000
0000
0010
0000
0000
0000
0000
0000
0000
0000
0000
0021
0000
0000
0000
0000
0000
0001
,  // measure 49
0000
0000
0000
0000
0000
0001
0000
0001
0000
0000
0000
0000
,  // measure 50
0001
0000
0000
0000
0000
0000
0001
0000
0000
0000
0000
0000
0000
0000
0000
0000
0000
0000
1000
0000
0000
0000
0000
1000
,  // measure 51
0000
0000
0000
0000
0000
0000
0000
0000
0000
0000
0000
0100
0000
0000
0000
0000
0000
0100
0000
0000
0000
0000
0000
0000
,  // measure 52
0000
0000
0000
0000
0000
0001
0000
0000
0000
0000
0000
0001
0000
0000
0000
0000
0000
0000
0000
0000
0000
0000
0000
0001
,  // measure 53
0000
0000
0000
0000
0000
0001
0000
0000
0000
0000
0000
0000
0000
0000
0000
0000
0000
1000
0000
0000
0000
0000
0000
0000
,  // measure 54
1000
0000
0000
0000
0000
0000
0000
0000
0000
0000
0230
0000
0000
0000
0000
0000
0000
0010
0000
0000
0000
0000
0000
0000
,  // measure 55
0000
0010
0000
0000
0000
0000
0010
0000
0000
0000
0000
0000
0010
0000
0000
0000
0000
0000
0000
0010
0000
0000
0000
0000
,  // measure 56
0000
0010
0000
0000
0000
0000
0000
0000
0010
0000
0000
0000
0000
0000
0010
0000
0000
0000
0000
0000
0010
0000
0000
0000
,  // measure 57
0000
0010
0000
0000
0010
0000
0000
0010
0000
0000
0010
0000
,  // measure 58
0000
0010
0000
0000
0010
0000
0000
0010
0000
0000
0010
0000
,  // measure 59
0000
0000
0010
0000
0000
0000
0000
0010
0000
0000
0000
0000
0300
0000
0000
0000
0000
0000
0000
2000
0000
0000
0000
0000
,  // measure 60
0000
0200
0000
0000
0000
0000
0000
0000
0000
0000
0000
0310
0000
0000
0000
3000
0000
0000
0010
0000
0000
0000
0000
0000
,  // measure 61
0000
0010
0000
0000
0000
0100
0000
0000
0000
1000
0000
0000
,  // measure 62
0000
0010
0000
0000
0000
0000
0000
0001
0000
0000
0000
0000
0000
0000
0000
0000
0010
0000
0000
0000
0000
0000
0000
0000
,  // measure 63
0100
0000
0000
0000
0000
0000
0000
0000
0000
1000
0000
0000
0000
0000
0000
1000
0000
1000
0000
0000
0000
0100
0000
0000
,  // measure 64
0000
0000
0010
0000
0000
0000
0000
0000
0000
0001
0000
0000
0000
0000
0010
0000
0000
0000
0000
0000
0100
0000
0000
0000
,  // measure 65
0000
1000
0000
0000
0000
0000
0000
0100
0000
0000
0000
0000
0000
0010
0000
0000
0000
0000
0001
0000
0000
0010
0000
0000
,  // measure 66
0000
0000
0100
0000
0000
0000
0000
0000
1000
0000
0000
0000
0000
0000
0100
0000
0000
0100
0000
0000
0000
0000
0000
0010
,  // measure 67
0000
0010
0000
0000
0000
0000
0000
0001
0000
0000
0001
0000
0000
0000
0000
0000
0010
0000
0000
0010
0000
0000
0010
0000
,  // measure 68
0000
0000
0000
0000
0000
0000
0000
0000
0000
1000
0000
0000
0000
0000
0000
1000
0000
1000
0000
0000
0000
0000
0000
0000
,  // measure 69
0100
0000
0100
0000
0000
0000
0000
0000
0000
0000
0010
0000
0000
0010
0000
0000
0000
0000
0001
0000
0000
0001
0000
0000
,  // measure 70
0000
0000
0000
0010
0000
0000
0000
0000
0000
1000
0000
0000
0000
0000
0000
0000
0000
1000
0000
1000
0000
0000
0000
0000
,  // measure 71
0000
0100
0000
0000
0100
0000
0000
0000
0000
0000
0010
0000
0000
0010
0000
0000
0000
0000
0000
0001
0000
0001
0000
0000
,  // measure 72
0000
0000
0000
0000
0000
0000
0000
0000
0000
1000
0000
0000
1000
0000
0000
0000
0000
0000
0100
0000
0100
0000
0000
0000
,  // measure 73
0000
0000
0010
0000
0000
0010
0000
0000
0000
0000
0010
0000
0000
0000
0010
0000
0000
0000
0001
0000
0000
0001
0000
0000
,  // measure 74
0000
0000
0000
0000
1000
0000
0000
0000
0000
0001
0000
0000
1000
0000
0000
0001
0000
0000
1000
0000
0000
0000
0001
0000
,  // measure 75
0000
1000
0000
0000
0001
0000
0000
1000
0000
0000
0000
0001
0000
0010
0000
0000
0000
0001
0000
0000
0010
0000
0001
0000
,  // measure 76
0000
0000
0010
0000
0000
0000
0000
0000
0000
2002
0000
0000
0000
0000
0000
0000
0000
0000
0000
0000
0000
0000
3003
0000
,  // measure 77
0000
0000
0000
0000
0000
0000
0000
0000
0000
0022
0000
0000
0000
0000
0000
0000
0000
0000
0030
0003
0000
2000
0200
0000
,  // measure 78
0000
0000
0000
0000
0300
3000
0000
0000
0000
2002
0000
0000
0000
0000
0000
0000
0000
0000
0000
0000
0000
0000
0003
3000
,  // measure 79
0000
0000
0000
0000
0000
0000
0000
0000
2020
0000
0000
0000
0000
0000
0000
0000
3030
0000
0000
0200
0002
0000
0000
0000
,  // measure 80
0000
0000
0000
0000
0300
0003
0000
0000
2020
0000
0000
0000
0000
0000
0000
0000
0000
0000
0000
0000
0000
0000
0000
3030
,  // measure 81
0000
0101
0000
2020
0000
0000
0000
0000
,  // measure 82
3030
0000
0000
0000
0000
0000
0000
0000
0000
0101
0000
0000
0000
0000
0101
0000
0000
0000
0000
0000
2020
0000
0000
0000
,  // measure 83
0000
0000
3030
0000
0000
0202
0000
0000
0000
0000
0000
0000
,  // measure 84
0303
0000
0000
1000
0000
0000
0000
0100
,  // measure 85
0000
0000
0000
0000
0000
0010
0000
0000
0001
0010
0000
0100
,  // measure 86
0000
0000
0000
1000
0000
0000
0000
0000
0000
0100
0000
0000
0000
0000
0000
0010
0000
0000
0000
0000
0000
0000
0001
0000
,  // measure 87
0000
0000
0000
0010
0000
0000
0100
0000
0000
1000
0000
0000
0000
0000
0100
0000
0000
0010
0000
0000
0000
0000
0001
0000
,  // measure 88
0000
0000
0000
0000
0010
0000
0000
0000
0000
0000
0100
0000
0000
0100
0000
0000
0100
0000
0000
0000
0000
0000
1000
0000
,  // measure 89
0000
1000
0000
0000
1000
0000
0000
0000
0000
0010
0000
0000
0010
0000
0000
0010
0000
0000
0000
0000
0000
0001
0000
0000
,  // measure 90
0001
0001
0000
0010
0010
0010
0000
0100
,  // measure 91
0100
0000
0000
0100
0000
0000
0000
0000
0000
1000
0000
0000
1000
0000
0000
1000
0000
0000
0000
0000
0000
0000
0100
0000
,  // measure 92
0000
0100
0000
0000
0100
0000
0000
0000
0000
0000
0010
0000
0000
0010
0000
0000
0000
0001
0000
0000
0001
0000
0000
0000
,  // measure 93
0000
0000
0010
0000
0000
0000
0000
0001
0000
0000
0000
0000
0000
0010
0000
0000
0000
0000
0001
0000
0000
0000
0000
0010
,  // measure 94
0000
0000
0000
0000
0001
0000
0000
0000
0000
0000
0000
0010
0000
0000
0000
0000
0000
0001
0000
0000
0000
0000
0000
0010
,  // measure 95
0000
0000
0000
0000
0000
0001
0000
0000
0000
0000
0000
0010
0000
0000
0000
0000
0000
0001
0000
0000
0000
0000
0000
0010
,  // measure 96
0000
0000
0000
0000
0001
0000
0000
0000
0000
0000
0000
0000
0000
0000
0001
0000
0000
0000
0000
0010
0000
0000
0000
0000
,  // measure 97
0000
0001
0000
0000
0000
0000
0000
0010
0000
0000
0000
0000
0001
0000
0000
0000
0000
0000
0010
0000
0000
0000
0000
0000
,  // measure 98
0001
0000
0000
0000
0000
0010
0000
0000
0000
0000
0000
0001
0000
0000
0010
0000
0000
0000
0000
0000
0001
0000
0000
1000
,  // measure 99
0000
0000
0000
0000
0000
0001
0000
0000
0000
0000
0000
1000
0000
0000
0000
0000
0000
0000
0000
0000
0000
0000
0000
0000
,  // measure 100
0000
0000
0000
0000
0000
0000
0000
0000
0000
0000
0000
1000
0000
0000
0000
0000
0000
1000
0000
0000
0000
0000
1000
0000
,  // measure 101
0000
0000
0000
0000
0000
1000
0000
0000
0000
0000
1000
0000
0000
0000
0000
0000
1000
0000
0000
0000
0000
0000
0000
1000
,  // measure 102
0000
0000
0000
0000
0000
1000
0000
0000
0000
0000
0000
0000
0000
0000
0000
0000
0000
0000
0000
0000
0001
0000
0000
0000
,  // measure 103
0000
0000
0000
0000
0000
0000
0000
0000
0001
0000
0000
0000
0000
0000
0000
0000
0000
0000
0000
0000
0000
0001
0000
0000
,  // measure 104
0000
0000
0000
0000
0000
0000
0000
0000
0000
0000
0000
0000
0000
0000
0000
0000
0000
1001
0000
0000
0000
0000
0000
0000
,  // measure 105
0000
0011
0000
0000
0000
0000
0000
2200
0000
0000
0000
0000
0000
0000
0000
0000
0000
0000
0000
0000
0000
0000
0000
0000
,  // measure 106
0000
0000
0000
3300
0000
0000
0000
0000
0000
0000
1000
0000
0100
0000
0001
0000
0000
0000
0000
0000
0000
0000
0000
0000
;
