#VERSION:0.83;
#TITLE:Natsuiro DIARY;
#SUBTITLE:-Summer Experience-;
#ARTIST:Nekomata & OJ remixed by DJXYZ;
#TITLETRANSLIT:;
#SUBTITLETRANSLIT:;
#ARTISTTRANSLIT:;
#GENRE:;
#ORIGIN:;
#CREDIT:;
#BANNER:Natsuiro DIARY -Summer Experience--bn.png;
#BACKGROUND:Natsuiro DIARY -Summer Experience--bg.png;
#PREVIEWVID:;
#JACKET:Natsuiro DIARY -Summer Experience--jacket.png;
#CDIMAGE:;
#DISCIMAGE:;
#LYRICSPATH:;
#CDTITLE:;
#MUSIC:Natsuiro DIARY -Summer Experience-.mp3;
#OFFSET:-0.090000;
#SAMPLESTART:74.144997;
#SAMPLELENGTH:12.000000;
#SELECTABLE:YES;
#BPMS:0.000=175.000;
#STOPS:176.500=0.171,
177.500=0.171,
178.500=0.171,
179.500=0.171;
#DELAYS:;
#WARPS:;
#TIMESIGNATURES:0.000=4=4;
#TICKCOUNTS:0.000=4;
#COMBOS:0.000=1;
#SPEEDS:0.000=1.000=0.000=0;
#SCROLLS:0.000=1.000;
#FAKES:;
#LABELS:0.000=Song Start;
#BGCHANGES:;
#KEYSOUNDS:;
#ATTACKS:
;

//---------------dance-single - ----------------
#NOTEDATA:;
#CHARTNAME:;
#STEPSTYPE:dance-single;
#DESCRIPTION:;
#CHARTSTYLE:;
#DIFFICULTY:Beginner;
#METER:3;
#RADARVALUES:0.187878,0.176056,0.008886,0.097747,0.000000,148.000000,147.000000,1.000000,11.000000,0.000000,0.000000,0.000000,0.000000,0.000000,0.187878,0.176056,0.008886,0.097747,0.000000,148.000000,147.000000,1.000000,11.000000,0.000000,0.000000,0.000000,0.000000,0.000000;
#CREDIT:;
#NOTES:
0000
0000
0000
0000
,
0000
0000
0000
0000
,
0000
0000
0000
0000
,
0000
0000
0000
0000
,
0100
0000
0000
0000
,
0010
0000
0000
0000
,
0100
0000
0000
0000
,
1000
0000
0001
0000
,
0010
0000
0010
0000
,
0010
0000
0010
0000
,
0100
0000
0100
0000
,
0001
0001
0000
0000
,
1000
0000
0010
0000
,
1000
0000
0100
0000
,
0001
0000
0010
0000
,
0001
0000
0100
0000
,
0001
0000
1000
0000
,
0100
0000
1000
0000
,
0001
0000
0100
0000
,
0001
0000
1000
0000
,
0010
0000
0100
0000
,
0010
0000
1000
0000
,
0001
0000
0100
0000
,
0010
0000
0100
0000
,
1000
0000
0010
0000
,
1000
0000
0001
0000
,
0010
0000
0001
0000
,
0100
0000
0010
0000
,
1000
0000
1000
0000
,
0100
0000
0010
0000
,
0001
0000
0001
0000
,
0100
0000
0010
0000
,
1000
0000
0000
0100
0000
0000
0000
0001
,
0000
0000
0100
0000
,
0020
0000
0000
1030
,
1000
0000
0100
0000
,
0020
0000
0000
0031
,
0001
0000
0100
0000
,
0001
0000
0000
0100
0000
0000
0000
1000
,
0000
0000
0010
0000
,
1000
0000
0000
0100
0000
0000
0000
0010
,
0000
0000
0001
0000
,
0200
0000
0301
0000
,
0020
0000
1030
0000
,
1000
0000
0001
0000
,
0100
0000
0010
0000
,
0010
0000
1000
0000
,
1000
0000
0100
0000
,
0100
0000
0001
0000
,
0001
0000
1000
0000
,
0100
0000
0010
0000
,
0001
0000
0010
0000
,
0100
0000
2000
0000
,
3001
0000
0010
0000
,
0010
0000
0001
0000
,
0001
0000
0100
0000
,
0100
0000
0010
0000
,
1000
0000
0100
0000
,
0010
0000
0002
0000
,
0000
0000
1003
0000
,
1000
0000
0100
0000
,
0010
0000
0001
0000
,
0001
0000
0100
0000
,
0010
0000
2000
0000
,
3010
0000
0002
0000
,
0013
0000
0002
0000
,
0103
0000
2000
0000
,
3100
0000
0010
0000
,
0100
0000
0001
0000
,
0010
0000
0010
0000
,
0100
0000
1000
0000
,
0010
0000
1000
0000
,
0100
0000
0010
0000
,
0001
0000
0001
0000
,
0100
0000
0010
0000
,
1000
0000
0000
0000
0010
0000
0000
0100
,
0000
0000
0000
0001
0000
0000
0000
1000
,
0000
0000
0000
2000
0000
0000
0000
0000
,
3001
0000
0010
0000
,
0000
1001
0000
0000
;

//---------------dance-single - ----------------
#NOTEDATA:;
#CHARTNAME:;
#STEPSTYPE:dance-single;
#DESCRIPTION:;
#CHARTSTYLE:;
#DIFFICULTY:Easy;
#METER:7;
#RADARVALUES:0.288164,0.352113,0.106633,0.239925,0.000000,227.000000,215.000000,12.000000,27.000000,0.000000,0.000000,0.000000,0.000000,0.000000,0.288164,0.352113,0.106633,0.239925,0.000000,227.000000,215.000000,12.000000,27.000000,0.000000,0.000000,0.000000,0.000000,0.000000;
#CREDIT:;
#NOTES:
0000
0000
0000
0000
,
0000
0000
0000
0000
,
0000
0000
0000
0000
,
0000
0000
0001
0000
,
0200
0000
0310
0000
,
2000
0000
3010
0000
,
0002
0000
0013
0000
,
0020
0000
0130
1001
,
1000
0000
0000
0100
0000
0000
0000
0010
,
0000
0000
0000
0001
0000
0000
0000
0100
,
0000
0010
1000
0010
,
0100
0001
0000
1000
,
0100
0000
0100
0000
0010
0000
0000
0001
,
0000
0001
0000
0010
0000
0000
0000
0000
,
0010
0000
0010
0000
0100
0000
0000
1000
,
0000
1000
0000
0100
0000
0000
0000
0000
,
0001
0000
0100
0000
0010
0000
0000
1000
,
0000
0010
0000
0100
0000
0000
0000
0000
,
0200
0000
0310
0000
,
0010
1000
0100
0001
,
0010
0000
0100
0000
1000
0000
0000
0010
,
0000
0100
0000
0001
0000
0000
0000
0000
,
0001
0000
0100
0000
0010
0000
0000
1000
,
0000
0100
0000
0010
0000
0000
0000
0000
,
0001
0000
1000
0000
0010
0000
0000
0100
,
0000
0001
0000
1000
0000
0000
0000
0000
,
0200
0000
1300
0001
,
0200
0000
0310
0000
,
2000
0000
0000
3100
,
0010
0100
1000
0001
,
0002
0000
0000
0103
,
0010
0100
0001
1000
,
0100
0000
0000
1100
0000
0000
0000
1010
,
0000
0010
0001
0100
,
0002
0000
0000
0013
,
0100
1000
0010
1000
,
2000
0000
0000
3010
,
0100
0001
1000
0010
,
0100
0000
0000
0101
0000
0000
0000
0011
,
0000
0010
1000
0100
,
0010
0000
0000
0110
0000
0000
0000
1001
,
0000
0001
1000
0010
,
0200
0000
0320
0000
,
2030
0000
3002
0000
,
0013
0100
0010
0100
,
1000
0001
1000
0100
,
0000
1000
0001
0100
,
0000
0001
0010
0001
,
0000
1000
0010
0100
,
0001
0000
0200
0000
,
0310
0000
2000
0000
,
3100
0000
0002
0000
,
0103
0010
0001
0100
,
0010
0000
0100
0001
,
0000
0010
0100
1000
,
0000
0010
1000
0100
,
0000
0010
0001
0010
,
0100
1000
0002
0000
,
2003
0000
3020
0000
,
0000
0000
0130
0100
,
0010
0000
0000
1000
0000
0100
0000
0010
,
0000
0000
0001
0001
,
1000
0000
0000
0010
0000
0001
0000
1000
,
0000
0000
0100
1000
,
0010
0000
0000
0001
0000
0010
0000
0100
,
0000
0100
0020
0000
,
2030
0000
3001
0100
,
0010
1000
0001
0100
,
1000
0000
1000
0100
,
0001
0000
1000
0010
,
0001
0000
0001
0010
,
1000
0000
0200
0000
,
0310
0000
0001
0010
,
0100
1000
0020
0000
,
0130
0000
1000
0100
,
0010
0000
0001
0000
0100
0000
0000
0101
,
0000
0000
0000
0011
0000
0000
0000
1010
,
0000
0000
0000
2200
0000
0000
0000
0000
,
0000
0000
3300
0000
0100
0000
0000
0010
,
0000
1001
0000
0000
;

//---------------dance-single - ----------------
#NOTEDATA:;
#CHARTNAME:;
#STEPSTYPE:dance-single;
#DESCRIPTION:;
#CHARTSTYLE:;
#DIFFICULTY:Medium;
#METER:10;
#RADARVALUES:0.497623,0.563380,0.497623,0.399876,0.000000,392.000000,336.000000,56.000000,45.000000,0.000000,0.000000,0.000000,0.000000,0.000000,0.497623,0.563380,0.497623,0.399876,0.000000,392.000000,336.000000,56.000000,45.000000,0.000000,0.000000,0.000000,0.000000,0.000000;
#CREDIT:;
#NOTES:
0000
0000
0000
0000
,
0000
0000
0000
0000
,
0000
0000
0000
0000
,
0000
0000
0100
0000
,
2000
0000
0000
0010
3010
0000
0000
0000
,
0001
0100
0010
1000
,
0002
0000
0000
0010
0013
0000
0000
0000
,
0100
0001
1000
0020
,
1030
0100
0000
0010
0000
0001
0000
1000
,
0000
0010
0000
0100
0000
0001
0000
2000
,
0000
3100
0002
0013
,
0001
1000
0001
1000
0000
0000
0000
0000
,
1010
0000
0101
0000
1000
0100
0000
0011
,
0000
1100
0000
0001
0000
0020
0000
0030
,
1100
0000
0011
0000
0001
0100
0000
1010
,
0000
0101
0000
1000
0000
0200
0000
0000
,
0310
0000
0011
0000
1000
0100
0000
1000
,
0000
1010
0000
0100
0000
0001
0000
1000
,
0200
0000
0000
0310
0020
0000
0000
0130
,
1000
1100
0110
0011
,
0101
0000
0100
0001
0010
0001
0000
1100
,
0000
0100
1000
0010
0000
0200
0000
0300
,
0011
0000
0010
0001
0100
0001
0000
1010
,
0000
0010
1000
0200
0000
1300
0001
0000
,
0100
0000
0020
0000
1030
0002
0000
0013
,
0000
2000
0000
3001
0000
0100
0010
0000
,
2000
0000
0000
3001
0002
0000
0000
1003
,
2000
0000
0000
3010
0020
0000
0000
0000
,
0130
0000
0101
0000
0001
0100
0010
1000
,
0000
0100
0001
0010
0001
1000
0100
0000
,
0010
0000
1010
0000
1000
0010
0100
0001
,
0000
0100
1000
0010
1000
0001
0100
0000
,
0010
0000
0010
1000
0000
0000
1000
0100
,
0000
0001
0100
0000
0010
0000
1001
0000
,
1100
0000
1100
0000
0010
0001
0010
0001
,
0000
0100
0001
1000
0010
0000
0110
0000
,
0101
0000
0101
0000
0010
1000
0010
1000
,
0000
0100
1000
0001
0010
0000
0001
0100
,
0010
0000
1000
0010
0000
0000
0100
0001
,
0000
0010
0001
0000
2000
0000
3200
0000
,
1300
0000
0010
0100
0000
0000
0001
1000
,
0000
0100
0010
0000
0011
0000
0110
0000
,
2100
0000
0000
0000
0000
3100
0010
0001
,
0100
0010
1000
0001
0000
0000
0000
0000
,
1000
0100
0001
0100
1000
0100
0001
0100
,
0010
0000
0010
0000
1000
0100
0010
0001
,
0000
0001
0010
0000
0001
0100
0010
1000
,
0000
1000
0010
0000
1000
0000
0100
0000
,
0010
0000
0001
0000
0001
0100
0001
1000
,
0000
0100
1000
0000
0200
0000
0000
0310
,
0020
0000
0000
0031
0002
0000
0000
1003
,
2000
0000
0000
3010
0020
0000
0000
0130
,
0100
0101
2200
3000
,
0320
0000
0032
0000
0103
0001
1000
0010
,
0000
0010
1000
0000
0100
1000
0001
0010
,
0000
0010
0001
0000
0010
0100
1000
0000
,
0010
0100
0001
0000
0101
0000
1001
0000
,
1010
0000
0110
0000
0102
0000
0000
1003
,
2000
0000
0000
3010
0020
0000
0000
0000
,
0000
0000
0130
0101
,
1000
0100
0000
0010
0000
1010
0000
1000
,
0000
1001
0000
0000
0100
0000
1100
0000
,
0001
0010
0000
0001
0000
0101
0000
0100
,
0000
0110
0000
0000
0020
0000
2030
0000
,
3001
0100
0000
0002
0000
0023
0000
0130
,
0000
1000
0000
0000
0200
0000
0000
1300
,
2000
0000
0000
3001
0001
0000
0011
0000
,
1001
1010
0110
0010
,
1000
0010
0000
0100
0000
0110
0000
0101
,
0000
0000
0000
0010
0100
0000
0010
0000
,
0001
0010
0000
0100
0000
1000
0010
0000
,
1000
0000
0110
0000
0002
0000
0000
0013
,
0020
0000
0130
1100
,
0101
0000
1100
0000
2000
0000
0000
3010
,
0020
0000
0000
0130
0100
0000
0001
0000
,
1000
0000
0010
0000
1000
0100
0000
0010
,
0000
0101
0000
0001
0000
0100
0000
0010
,
0000
1100
0000
0220
0000
0000
0000
0000
,
0330
0000
1001
0000
1000
0001
1000
0001
,
0000
0110
0000
0000
;

//---------------dance-single - ----------------
#NOTEDATA:;
#CHARTNAME:;
#STEPSTYPE:dance-single;
#DESCRIPTION:;
#CHARTSTYLE:;
#DIFFICULTY:Hard;
#METER:13;
#RADARVALUES:0.644879,0.809859,0.479851,0.613143,0.137735,508.000000,454.000000,54.000000,69.000000,0.000000,0.000000,0.000000,0.000000,0.000000,0.644879,0.809859,0.479851,0.613143,0.137735,508.000000,454.000000,54.000000,69.000000,0.000000,0.000000,0.000000,0.000000,0.000000;
#CREDIT:;
#NOTES:
// measure 0
0000
0000
0000
0000
,  // measure 1
0000
0000
0000
0000
,  // measure 2
0000
0000
0000
0000
,  // measure 3
0000
0000
0002
0000
,  // measure 4
0203
0000
0000
0000
0000
0000
0310
0000
0020
0000
0000
0000
0000
0000
1030
0001
,  // measure 5
0020
0032
2003
3200
,  // measure 6
2300
0000
0000
3001
0002
0000
0000
0013
,  // measure 7
0020
0230
2300
3001
,  // measure 8
0101
0010
1000
1100
0000
0010
0001
0101
,  // measure 9
0000
0001
0010
1100
0000
1000
0010
0202
,  // measure 10
0000
0003
0320
0000
2030
0000
3002
0000
,  // measure 11
0013
0010
0100
0100
0000
0000
0000
0000
,  // measure 12
0010
0100
1000
0100
0001
0100
0000
0010
,  // measure 13
0100
0001
0100
1000
0100
0020
0000
1030
,  // measure 14
0001
1000
0010
1000
0100
1000
0000
0100
,  // measure 15
1000
0000
0010
0000
1000
0000
0001
0000
0010
0000
0200
0000
0000
0000
0310
0001
,  // measure 16
1000
0001
0100
0001
0010
0001
0000
0010
,  // measure 17
0001
0000
0100
0000
0001
0000
1000
0000
0100
0000
0020
0000
0000
0000
0031
1000
,  // measure 18
0200
0000
0000
0000
0000
0000
0310
0000
0020
0000
0000
0000
0000
0000
0031
1000
,  // measure 19
0010
1010
0110
0011
,  // measure 20
0010
0100
0001
0100
1000
0100
0100
0010
,  // measure 21
1000
0100
1000
0001
1000
0010
0000
0100
,  // measure 22
0010
0001
0100
0001
1000
0001
0001
0010
,  // measure 23
0100
1000
0001
0020
0000
0130
0010
0001
,  // measure 24
1000
0000
0011
0000
0001
0010
0000
1010
,  // measure 25
0000
1000
0000
0010
0000
0100
0010
1000
,  // measure 26
0200
0000
0000
0000
0000
0000
0310
0000
0020
0000
0000
0000
0000
0000
0031
0100
,  // measure 27
0002
0000
0000
0000
0000
0000
1003
0000
2000
0000
0000
0000
3010
0100
0010
0100
,  // measure 28
0010
0000
0110
0000
1000
0100
0010
0001
,  // measure 29
0000
0001
0010
0100
1000
0000
1001
0000
,  // measure 30
0110
0000
1001
0000
0001
0100
0010
1000
,  // measure 31
0000
1000
0010
0100
0001
0000
1100
0000
,  // measure 32
0010
0001
0100
1010
0000
1000
0100
0011
,  // measure 33
0000
0000
0001
0000
1000
0000
0100
0000
0010
0000
0000
0000
0001
1000
0001
1000
,  // measure 34
0001
0000
0100
0000
0010
0000
0100
0001
0010
0000
0100
0000
1000
0000
0010
0000
,  // measure 35
0000
0000
0100
0010
0100
0000
0020
0000
2030
0000
3002
0000
0203
0000
0310
0000
,  // measure 36
1000
0000
0100
0000
0010
0000
0100
1000
0010
0000
0100
0000
0001
0000
0010
0000
,  // measure 37
0000
0000
0001
1000
0100
0000
0020
0000
0032
0000
2003
0000
3020
0000
0130
0000
,  // measure 38
1000
0100
0010
1010
0000
0100
0010
0011
,  // measure 39
0000
0001
1000
0100
0010
0100
1000
0000
,  // measure 40
0001
0000
0100
0010
0100
0000
1000
0000
0000
0000
0010
0100
0010
0000
0001
0000
,  // measure 41
0000
0000
0010
0000
1000
0000
0001
0000
0100
0000
0000
0000
0001
0010
0100
1000
,  // measure 42
0001
0000
0110
0000
1000
0001
0100
0010
,  // measure 43
0001
0000
0010
0000
1000
0000
0200
0000
0000
0000
0000
0000
0310
0001
1000
0100
,  // measure 44
1000
1100
0001
0101
1000
1100
0001
0101
,  // measure 45
0110
0000
1001
0000
1000
0100
0010
0001
,  // measure 46
0000
0100
0010
0000
0001
0100
0010
1000
,  // measure 47
0000
0010
0100
0001
0000
1000
0100
1000
,  // measure 48
0010
0000
0100
0001
0010
0000
0001
0000
0010
0000
0100
0000
1000
0000
0001
0000
,  // measure 49
0000
0001
1000
0000
1200
0000
0000
0310
,  // measure 50
0020
0000
0000
0031
0002
0000
0000
1003
,  // measure 51
2000
0000
0000
3010
0020
0000
0000
0130
,  // measure 52
0100
0000
0010
1000
0010
0000
0100
0001
2000
0000
0000
0000
0000
0000
3010
0000
,  // measure 53
0100
0002
0000
0003
0001
0010
0100
1000
,  // measure 54
0000
0010
0100
0000
0010
1000
0100
0010
,  // measure 55
0000
0001
0010
0100
0000
1000
0001
0100
,  // measure 56
1000
0100
0001
1000
0020
2030
3002
0023
,  // measure 57
0230
2300
3002
0023
0230
0000
0000
1300
,  // measure 58
0002
0000
0000
0103
0020
0000
0000
0000
,  // measure 59
0000
0000
0000
0030
1010
0000
0101
0000
,  // measure 60
0001
1000
0000
0011
0000
1100
0000
1001
,  // measure 61
0000
0000
0110
0000
0000
0000
0100
0001
0100
0000
0000
0000
1010
0000
0000
0000
,  // measure 62
0010
0100
0000
1100
0000
0011
0000
0110
,  // measure 63
0000
0000
1001
0000
0000
0000
1000
0100
0010
0000
0000
0000
0011
0000
0000
0000
,  // measure 64
0001
2000
0000
3020
0000
0230
0000
0302
,  // measure 65
0000
0000
0103
0000
0001
0000
0010
0100
2000
0000
0000
0000
0000
0000
3010
0000
,  // measure 66
0020
0000
0000
0000
0000
0000
0130
0001
0010
0000
0000
0000
0011
0000
0000
0000
,  // measure 67
0110
0000
1010
0000
0010
0100
0010
0000
,  // measure 68
0001
1000
0100
0010
0000
0100
1000
0020
,  // measure 69
0000
0000
0000
0000
0000
0000
0130
0001
1000
0000
0100
0000
1000
0000
0000
0000
,  // measure 70
0001
0100
0001
2000
0000
3100
0010
0002
,  // measure 71
0013
0100
1000
0001
0200
0000
0000
0310
,  // measure 72
0020
0000
0000
0000
0000
0000
1030
0100
0010
0000
0000
0000
0011
0000
0000
0000
,  // measure 73
0101
0000
1100
0000
1020
0000
0000
0130
,  // measure 74
0200
0000
0000
0000
0000
0000
0301
0010
0100
0000
0000
0000
1100
0000
0000
0000
,  // measure 75
0110
0000
0101
0000
0100
1000
0010
0101
,  // measure 76
0000
0001
0010
1100
0000
1000
0010
0110
,  // measure 77
0000
0100
0001
2002
0000
0000
0000
0000
,  // measure 78
3003
0000
0000
0000
0100
0010
0100
0010
0100
0000
0001
0000
1000
0000
0010
0000
,  // measure 79
0000
1001
0000
0000
;
