#TITLE:More than friends (Shoco Naid vs Mr JD);
#SUBTITLE:(DvF StepMania Remix);
#ARTIST:Inna;
#TITLETRANSLIT:;
#SUBTITLETRANSLIT:;
#ARTISTTRANSLIT:;
#GENRE:Dance;
#CREDIT:DvF;
#BANNER:morethanfriends_remix - banner.png;
#BACKGROUND:morethanfriends_remix - BG.png;
#LYRICSPATH:;
#CDTITLE:;
#MUSIC:morethanfriends_remix.mp3;
#OFFSET:-0.060000;
#SAMPLESTART:99.985619;
#SAMPLELENGTH:12.000000;
#SELECTABLE:YES;
#BPMS:0.000000=128.000000
;
#STOPS:
;
#BGCHANGES:0.000=morethanfriends_remix.avi=1.000=0=0=0=StretchNoLoop====,
99999=-nosongbg-=1.000=0=0=0 // don't automatically add -songbackground-
;
#KEYSOUNDS:;
#ATTACKS:;

//---------------dance-single - ----------------
#NOTES:
     dance-single:
     :
     Beginner:
     4:
     0.300521,0.316492,0.214144,0.201547,0.000000,268.000000,34.000000,32.000000,0.000000,3.000000,0.000000,0.300521,0.316492,0.214144,0.201547,0.000000,268.000000,34.000000,32.000000,0.000000,3.000000,0.000000:
0000
0010
0100
0010
,
0100
0010
0100
0010
,
0100
0010
0001
0001
,
1000
1000
0100
0100
,
0010
0010
0001
0001
,
1000
1000
0100
0100
,
0010
0010
0001
0001
,
1000
1000
0100
0100
,
0010
0010
0001
0001
,
1000
1000
0100
0100
,
0000
0000
1001
0010
,
0010
0000
1001
0100
,
0100
0000
1001
0010
,
0010
1001
0100
0100
,
0010
0100
0010
0001
,
1000
0100
0010
1000
,
0100
0010
0002
0000
,
0000
0000
0000
0003
,
0000
0000
1001
0100
,
0100
0010
0100
0010
,
0200
0000
0300
1001
,
0010
0100
0010
0001
,
1000
0100
0010
0100
,
0010
0100
1000
0100
,
0010
0001
2000
0000
,
0000
0000
0000
0000
,
3000
0110
2002
0000
,
0000
0000
3003
0000
,
0011
1000
0200
0000
,
0000
0310
0001
1000
,
0100
0010
0002
0000
,
0000
1003
1000
1000
,
0001
0001
0001
0000
,
0001
0000
1001
0010
,
0100
0110
0001
0001
,
2000
0000
3001
0001
,
2000
0000
3001
0001
,
2000
0000
3001
0001
,
0100
0010
0001
0001
,
2000
0000
3100
0010
,
0100
0010
0002
0000
,
1003
1000
0100
0010
,
0100
1001
0220
0000
,
1331
0100
0100
0100
,
0100
0100
0010
0010
,
0010
0010
0001
1000
,
0001
1000
0100
0010
,
0100
0100
0001
0001
,
1000
1000
0010
0100
,
0010
0010
0001
1000
,
0001
1001
0000
0000
,
0010
0001
1000
1000
,
0200
0000
0010
0010
,
0010
1000
1000
0001
,
0301
0001
0020
0000
,
0100
0100
0000
0001
,
0001
1000
1030
0100
,
0010
0001
1001
1001
,
1001
1001
0010
0100
,
0010
0001
1000
0100
,
0010
0000
1100
0010
,
0001
0010
0001
0011
,
1000
0100
0020
0000
,
0000
1030
1000
1000
,
0001
0001
0002
0000
,
0000
1000
0103
0010
,
0001
0100
0220
0000
,
2332
0000
3203
0000
,
0320
0000
0031
0001
,
0001
1000
1000
1000
,
0020
0000
0230
0000
,
2300
0000
3002
0000
,
0023
0000
0031
0001
,
0001
1000
0100
0010
,
0110
0110
0001
0001
,
1000
1000
0100
0100
,
0020
0000
0000
0000
,
0030
1000
0001
0100
,
0010
0110
0010
0001
,
1000
1000
0100
0100
,
0110
0000
0110
0000
,
1001
0000
0110
0110
,
0110
0110
2002
0000
,
0000
0000
0000
3003
;

//---------------dance-single - ----------------
#NOTES:
     dance-single:
     :
     Easy:
     5:
     0.360805,0.423248,0.497569,0.239337,0.000000,284.000000,79.000000,38.000000,0.000000,10.000000,0.000000,0.360805,0.423248,0.497569,0.239337,0.000000,284.000000,79.000000,38.000000,0.000000,10.000000,0.000000:
0000
0020
0000
0000
,
0230
0000
0000
2300
,
0000
0000
3001
0001
,
1000
1000
0100
0100
,
0010
0010
0100
0100
,
0010
0010
1000
1000
,
0100
0100
0001
0001
,
1000
1000
0001
0001
,
0010
0010
0100
0100
,
0010
0010
1000
1000
,
0100
0010
1001
0110
,
0001
1000
0110
0110
,
0001
1000
0110
0001
,
0010
0100
1000
0100
,
0010
0001
0001
0010
,
0100
1000
0100
0010
,
0001
1000
0120
0000
,
0000
0000
0031
0001
,
0001
0001
0200
0000
,
0010
0001
1300
0100
,
0110
0001
1000
0110
,
0001
1000
0110
0001
,
1000
0100
0010
0100
,
0010
0100
0011
1100
,
0010
0001
2200
0000
,
0000
0000
3320
0000
,
0000
1031
0110
0110
,
0110
0110
0110
0110
,
0011
0011
0011
0011
,
0011
0011
1100
1100
,
1100
1100
0011
0011
,
0011
1100
0110
0110
,
0110
0011
0011
0011
,
0110
1100
0011
0011
,
0011
1100
0020
0100
,
1000
0001
1000
0030
,
0010
0001
1000
0010
,
0001
0001
2100
0100
,
0010
0001
0100
0010
,
3002
1000
0100
0010
,
1000
0100
0010
1000
,
0100
0100
0013
0100
,
0011
0000
0011
2200
,
0000
3010
0301
0100
,
0010
0001
0010
1000
,
0110
0001
1000
0110
,
0001
0001
1000
1000
,
0100
0100
0010
0100
,
0010
0001
0100
0010
,
0100
0010
0101
0101
,
0101
1010
1010
0101
,
1010
0100
0010
0001
,
1100
1000
0100
1000
,
1100
0010
0011
0001
,
0110
1000
1100
1000
,
0001
0001
0010
0010
,
0100
1000
0200
0000
,
0010
0001
1301
1001
,
0110
0001
1000
1000
,
0001
0001
0011
1100
,
0010
0110
0001
0200
,
0000
0310
0001
2000
,
0000
3100
0020
0000
,
0000
0031
0001
0001
,
1000
1000
0200
0000
,
0000
0010
0001
1000
,
1000
1300
0100
0010
,
0001
0001
1000
1000
,
0100
0100
0020
0000
,
0030
0001
1000
0100
,
0010
0010
0100
0100
,
0001
0001
1000
1000
,
0010
0100
0020
0000
,
0000
0000
1031
1001
,
1001
0110
2002
0000
,
3223
0000
2330
0000
,
3002
0000
2003
0000
,
3020
0000
0030
0000
,
0110
0010
0002
0000
,
2003
0000
3200
0000
,
0310
0001
2200
0000
,
0000
3322
0000
0000
,
2033
0000
3220
0000
,
0000
0000
0000
0000
,
0330
0000
0000
0000
;

//---------------dance-single - ----------------
#NOTES:
     dance-single:
     :
     Medium:
     6:
     0.391397,0.423248,0.535359,0.289724,0.708563,304.000000,85.000000,46.000000,0.000000,0.000000,0.000000,0.391397,0.423248,0.535359,0.289724,0.708563,304.000000,85.000000,46.000000,0.000000,0.000000,0.000000:
0000
0000
2000
0002
0000
0000
0000
0000
0000
0000
0000
0000
0000
0000
0000
0000
,
3003
0110
0000
0000
0000
0010
0000
0000
0000
0010
0000
0000
0100
0000
0000
0000
,
0100
0000
0000
0000
0100
0000
0000
0000
0002
0000
0000
0000
0000
1000
0000
0000
,
0000
1000
0000
0000
0000
1000
0000
0000
0000
1000
0000
0000
0000
1000
0000
0000
,
0000
1000
0000
0000
0000
1000
0000
0000
0000
2003
0000
0000
0000
0001
0000
0000
,
0000
0001
0000
0000
0000
0001
0000
0000
0000
0001
0000
0000
0000
0001
0000
0000
,
0000
0001
0000
0000
0000
0001
0000
0000
3000
0010
0000
0000
0000
0010
0000
0000
,
0000
0100
0000
0000
0000
0100
0000
0000
0010
0000
0000
0000
0010
0000
0000
0000
,
0100
0100
0001
0001
,
1000
0000
0000
0000
1000
0000
0000
0000
0100
0010
0000
0000
0110
0000
0000
0000
,
0000
0110
0000
0000
0000
0001
0000
0000
0000
0011
0000
0000
0000
0100
0000
0000
,
1000
0100
0010
0001
,
0001
0000
0000
0000
0010
0000
0000
0000
0100
0000
0000
0000
0000
1000
0000
0000
,
0000
0100
0000
0000
0000
1000
0000
0000
0000
0100
0000
0000
0000
1000
0000
0000
,
0010
0000
0000
0000
0000
0001
0000
0000
0000
0010
0000
0000
0000
0001
0000
0000
,
0000
0010
0000
0000
0001
0000
0000
0000
0010
0000
0000
0000
0100
0000
0000
0000
,
1000
0001
0220
0000
,
0000
0000
0000
0000
0000
0000
0000
0330
0000
1001
0000
0000
0000
0110
0000
0000
,
0000
0110
0000
0000
0000
1001
0000
0000
0000
0010
0000
0000
0000
0010
0000
0000
,
0000
0100
0000
0000
0000
0100
0000
0000
0011
0000
0000
0000
0000
1100
0000
0000
,
0000
0022
0000
0000
0000
0000
0000
0033
0000
0000
0000
0000
0000
1100
0000
0000
,
0000
0010
0000
0000
0000
0100
0000
0000
0010
0000
0000
0000
0001
0000
0000
0000
,
0000
0100
0000
0000
0000
1000
0000
0000
0000
0100
0000
0000
0010
0000
0000
0000
,
0000
1000
0000
0100
0000
0000
0000
0010
0000
0001
0000
0000
0010
0000
0000
0100
,
0000
1000
0000
0000
0100
0000
0000
0010
0000
0010
0002
0000
0000
0000
0000
0000
,
0000
0000
0000
0000
0000
0000
0000
0003
0000
2200
0000
0000
0000
0000
0000
0000
,
0000
0000
3300
0000
0000
0110
0000
0000
0000
0001
0000
0000
0000
0001
0000
0000
,
0000
0001
0000
0000
0000
0001
0000
0000
0000
0001
0000
0000
0000
0001
0000
0000
,
0000
1000
0000
0000
0000
1000
0000
0000
0000
0220
0000
0000
0000
0000
0000
0000
,
0000
0000
0000
0030
0300
0001
0000
0010
0000
0000
0000
0100
0000
0000
0000
1000
,
0000
0100
0000
0000
0000
0001
0000
0000
0020
0000
0000
0000
0000
0000
0000
0000
,
0000
0000
0000
0030
0000
1000
0000
0000
0000
0100
0000
0001
0000
0000
0000
0010
,
0000
0100
0000
1000
0000
0100
0000
0010
0000
0001
0000
0000
0000
0100
0000
0000
,
0000
0100
0000
0000
0000
0000
0000
0000
0000
0110
0000
0000
0000
0110
0000
0000
,
0000
0110
0000
0000
0000
1001
0000
0000
0000
0220
0000
0000
0000
0000
0000
0330
,
0002
0000
0000
0000
0000
0000
0003
2000
0000
0000
0000
0000
0000
0000
3000
0020
,
0000
0000
0000
0000
0000
0030
0200
0000
0000
0000
0000
0000
0000
0000
2300
0000
,
0000
0000
0000
0000
0000
3000
0002
0000
0000
0000
0000
0000
0000
0000
0003
0020
,
0000
0000
0000
0000
0000
0000
0030
0000
0200
0000
0000
0000
0000
0000
0000
0300
,
2000
0000
0000
0000
0000
0000
3200
0000
0000
0000
0000
0000
0000
0300
0020
0000
,
0000
0000
0000
0000
0030
0002
0000
0000
0000
0000
0000
0000
0000
0000
2003
0000
,
0000
0000
0000
0000
0000
0000
3000
0000
0000
0110
0000
0000
0000
1001
0000
0000
,
0000
0110
0000
0000
0000
0001
0000
0000
0000
0011
0000
0000
0000
0011
0000
0000
,
0000
0110
0000
0000
0000
0110
0000
0000
1000
0100
0000
0000
0000
1100
0000
0000
,
0000
0001
0010
0000
0000
0011
0000
0000
0000
1100
0000
0000
0000
0010
0000
0000
,
0000
0100
0000
0000
0000
0010
0000
0000
0000
0001
0000
0000
0000
1000
0000
0000
,
0000
0100
0000
0000
0000
0010
0000
0000
0000
0110
0000
0000
0000
0001
0000
0000
,
1000
0000
0000
0000
1000
0000
0000
0000
0000
0001
0000
0000
0010
0000
0000
0000
,
0100
0000
0000
0000
0000
1000
0000
0001
0000
0010
0000
0000
0000
0001
0000
0000
,
0000
0001
0000
0000
0000
0001
0000
0000
0000
0010
0000
0000
0000
0010
0000
0000
,
0000
0110
0000
0000
0000
0001
0000
0000
0000
0011
0000
0000
0000
0011
0000
0000
,
0000
1100
0000
0000
0000
1100
0000
0000
0000
0110
0000
0000
0000
0110
0000
0000
,
0000
0011
0000
0000
0000
0011
0000
0000
0000
0110
0000
0000
0000
1100
0000
0000
,
0000
1100
0000
0000
0000
0110
0000
0000
0000
0011
0000
0000
0000
0011
0000
0000
,
0000
0110
0000
0000
0000
0110
0000
0000
0000
1100
0000
0000
0000
1100
0000
0000
,
0000
0010
0000
0000
0000
0010
0000
0000
0001
0000
1000
0000
0000
0000
0100
0000
,
0010
0000
0001
0000
0000
1000
0000
0100
0000
0010
0000
0000
0000
0100
0000
0000
,
0000
0100
0000
0000
0000
0010
0000
0000
0000
1001
0000
0000
0000
1001
0000
0000
,
0000
0110
0000
0000
0000
0110
0000
0000
0000
0001
0000
0000
0000
1000
0000
0000
,
0000
0100
0000
0000
0000
0010
0000
0000
0000
1000
0000
0000
0000
0001
0000
0000
,
1000
0000
0000
0000
0000
0010
0000
0000
0000
0001
0000
0000
0000
0001
0000
0000
,
0000
0010
0000
0000
0100
0000
0000
1000
0000
0100
0000
0000
0001
0000
0000
0010
,
0000
0100
1000
0000
0000
0001
0000
0000
0000
0220
0000
0000
0000
0000
0000
0000
,
0000
0330
0000
0000
0000
0001
0000
0000
1000
0000
0000
0001
0000
0000
0000
0000
,
0010
0010
0000
0000
0000
0100
0000
0000
0000
0001
0000
0000
0000
1000
0000
0000
,
0000
0100
0000
0000
0000
0010
0000
0000
0000
1001
0000
0000
0000
1001
0000
0000
,
0000
1001
0000
0000
0000
1001
0000
0000
0000
0022
0000
0000
0000
0000
0000
0000
,
0000
0000
0000
0000
0000
0000
0000
0033
0000
2200
0000
0000
0000
0000
0000
0000
,
0000
0000
0000
0000
0000
0000
3300
0000
0000
0020
0000
0000
0000
0000
0000
0000
,
0000
0000
0000
0000
0000
0230
0000
0000
0000
0000
0000
0000
0000
0000
0000
0000
,
2300
0000
0000
0000
0000
0000
0000
0000
3000
0002
0000
0000
0000
0000
0000
0000
,
2003
0000
0000
0000
0000
0000
0000
0000
3020
0000
0000
0000
0000
0000
0000
0230
,
0000
0000
0000
0000
0000
0000
0000
0000
0300
0002
0000
0000
0000
0000
0000
0000
,
2003
0000
0000
0000
0000
0000
0000
0000
3000
0110
0000
0000
0000
0110
0000
0000
,
0000
0110
0000
0000
0000
0110
0000
0000
0000
1001
0000
0000
0000
0110
0000
0000
,
0000
1001
0000
0000
0000
0110
0000
0000
0000
0110
0000
0000
0000
1001
0000
0000
,
0000
0110
0000
0000
0000
1100
0000
0000
0000
0011
0000
0000
0100
1000
0000
0000
,
0000
0010
0000
0000
0000
0001
0000
0000
0000
0110
0000
0000
0000
0110
0000
0000
,
0000
1001
0000
0000
0000
0010
0001
0000
0000
0011
0000
0000
0100
0000
0000
0000
,
1000
0000
0000
0000
0100
0000
0000
0000
0010
0000
0000
0000
0100
0010
0000
0000
,
0001
0000
0000
0000
1000
0000
0000
0000
0000
0010
0000
0000
0100
0000
0000
0000
,
0010
0000
0000
0000
0000
0001
0000
0000
0000
1001
0000
0000
0000
1001
0000
0000
,
0000
1001
0000
0000
0000
1001
0000
0000
0000
0220
0000
0000
0000
0000
0000
0000
,
0000
0000
0000
0000
0000
0000
0000
0000
0000
0000
0000
0000
0000
0000
0000
0330
,
1001
0000
0000
0000
;

//---------------dance-single - ----------------
#NOTES:
     dance-single:
     :
     Hard:
     10:
     0.540757,0.526305,0.390497,0.163757,1.000000,512.000000,62.000000,26.000000,0.000000,1.000000,0.000000,0.540757,0.526305,0.390497,0.163757,1.000000,512.000000,62.000000,26.000000,0.000000,1.000000,0.000000:
// measure 0
0000
0000
0000
0000
0000
0000
0000
0000
0000
1001
0000
0000
0000
0000
0000
0000
1001
0000
0000
0000
0000
0000
0000
0000
1001
0000
0000
0000
0000
0000
0000
0000
,  // measure 1
1001
0000
0000
0000
0000
0000
0000
0000
1001
0000
0000
0000
0000
0000
0000
0000
0000
1001
0000
0000
0000
0000
0000
0000
1001
0000
0000
1001
0000
1000
0001
0000
,  // measure 2
0000
0000
0000
0000
1001
0000
0000
0000
0000
0000
1001
0000
0000
1001
0000
0000
0000
0000
0111
0000
0000
0000
0000
0000
0000
0000
0110
0000
0000
0000
0000
0000
,  // measure 3
0000
0000
0100
0000
0000
0000
0000
0000
0000
0000
1100
0000
0000
0000
0000
0000
0000
0000
0000
0001
0000
0000
0000
0000
0000
0010
0000
0000
0000
0000
0000
0000
,  // measure 4
0100
0000
0000
0000
0000
0110
0000
0000
0000
0001
0000
0000
0000
0011
0000
0000
,  // measure 5
0000
0110
0000
0000
0000
0000
0000
0000
0000
1100
0000
0000
0000
0000
0000
0000
0010
0000
0000
0000
0000
0000
0000
0000
0000
0000
0010
0000
0000
0000
0000
0000
,  // measure 6
0000
0110
0000
0000
0000
0000
0000
0000
0110
0000
0000
0000
0000
0000
0000
0000
0011
0000
0000
0000
0000
0000
0000
0011
0000
0000
0000
0000
0000
0000
0000
0100
,  // measure 7
1000
0000
0000
0000
0000
0000
0000
1000
0100
0000
0000
0000
0000
0000
0000
0000
0110
0000
0000
0000
0000
0000
0000
0000
0110
0000
0000
0000
0000
0000
0000
0011
,  // measure 8
0000
0000
0000
0000
0000
0000
0000
0011
0000
0000
0000
0000
0000
0000
0000
0000
1100
0000
0000
0000
0000
0000
0000
1000
0100
0000
0000
0000
0000
0000
0000
0000
,  // measure 9
0110
0000
0000
0000
0000
0000
0000
0010
0100
0000
0000
0000
0000
0000
0000
0000
0010
0001
0000
0000
0000
0000
0000
0000
0000
0011
0000
0000
0000
0000
0000
0000
,  // measure 10
0000
0000
0011
0000
0000
0000
0000
0000
0000
0000
0011
0000
0000
0000
0000
0000
0000
0200
0000
0000
0000
0000
0000
0000
0000
0000
0010
0000
0000
0000
0000
0000
,  // measure 11
0000
1000
0000
0000
0000
0000
0000
0000
0000
0010
0000
0000
0000
0000
0000
0000
0000
0000
1000
0000
0000
0000
0000
0000
0000
0010
0000
0000
0000
0000
0300
0000
,  // measure 12
0000
0001
0000
0000
0000
0000
0000
0000
0000
0001
0000
0000
0000
0000
0000
0010
0000
0000
0000
0000
0000
0000
0000
0002
0000
0000
0000
0000
0000
0000
0000
0000
,  // measure 13
0000
1000
0000
0000
0000
0000
0000
0000
0000
0010
0000
0000
0000
0000
0000
0000
0000
1000
0000
0000
0000
0000
0000
0000
0100
0000
0000
0000
0000
0000
0000
0000
,  // measure 14
0010
0000
0000
0000
0000
0000
0000
1000
0000
0000
0100
0000
0000
0000
0000
0010
0000
0000
0100
0000
0000
0000
0000
0000
1000
0000
0000
0000
0000
0000
0100
0000
,  // measure 15
0000
0000
0010
0000
0000
0000
0000
0100
0000
0000
0000
0000
0000
0000
1000
0000
0000
0000
0100
0000
0000
0000
0000
0010
0000
0000
0000
0000
0000
0000
0100
0000
,  // measure 16
0000
0000
0100
0000
0000
0000
0000
0000
1000
0000
0000
0000
0000
0000
0100
0000
0000
0000
2000
0000
0000
0000
0000
0000
0000
0000
0000
0003
0000
0000
0000
0000
,  // measure 17
0000
0000
0010
0000
0000
0000
0000
0000
0000
0000
0001
0000
0000
0000
0000
0000
0000
0000
0010
0000
0000
0000
0000
0000
0000
0000
0000
0100
0000
0000
0000
0000
,  // measure 18
0000
0000
0100
0000
0000
0000
0000
0000
0000
0000
0100
0000
0000
3000
0000
0000
0000
0000
0001
0000
0000
0000
0000
0000
0000
0110
0000
0000
0000
0000
0000
0000
,  // measure 19
0000
0001
0000
0000
0000
0010
0000
0000
0000
0100
0000
0000
0000
0000
0001
0000
0000
0000
1000
0000
0000
0000
0000
0000
0000
0000
0110
0000
0000
0000
0000
0000
,  // measure 20
0000
0001
0000
0000
0000
0000
0000
0000
0000
0000
0001
0000
0000
0000
0000
0000
0000
0000
0001
0000
0000
0000
0000
0000
0000
0000
0010
0000
0000
0000
0100
0000
,  // measure 21
0000
0000
1000
0000
0000
0000
0110
0000
0000
0000
0110
0000
0000
0000
0001
0000
0000
0000
0010
0000
0000
0000
0000
0000
0000
0000
0000
0100
0000
0000
0000
0000
,  // measure 22
0000
0000
1000
0000
0000
0100
0000
0000
0000
0010
0000
0000
0000
0001
0000
0000
0000
0000
0100
0000
0000
0010
0000
0000
0000
0001
0000
0000
0000
0000
0010
0000
,  // measure 23
0000
0000
0100
0000
0000
0000
0000
0000
0001
0000
0000
0000
0000
0000
0010
0000
0000
0100
0000
0000
0000
0000
0000
0000
0001
0000
0000
0000
0000
0010
0000
0000
,  // measure 24
0000
0001
0000
0000
0000
0010
0000
0000
0000
0001
0000
0000
0000
0000
0100
0000
0000
0000
1000
0000
0000
0000
0100
0000
0000
0000
1000
0000
0000
0100
0000
0000
,  // measure 25
0000
0010
0000
0000
0000
0100
0000
0000
0001
0000
0000
0000
0000
0010
0000
0000
0100
0000
0000
0000
0000
1000
0000
0000
0000
0100
0000
0000
0010
0000
0000
0000
,  // measure 26
0000
0000
0000
0000
0000
0010
0001
0000
0000
0000
0011
0000
0000
0000
0100
0000
0000
0000
2000
0000
0000
0000
0000
0000
0000
0000
0100
0000
0000
0000
0000
0000
,  // measure 27
0010
0000
0000
0001
0000
0000
0000
0000
0001
0000
0000
0000
0000
0000
0010
0000
0000
0000
0000
0001
0000
0000
0000
0000
0001
0000
0000
0000
0000
0010
0000
0000
,  // measure 28
0000
0100
0000
0000
0000
0000
0000
0100
0000
0000
0000
0000
0000
0000
0000
0000
0000
0000
0000
0001
0000
0000
0000
0010
0000
0000
0100
0000
0000
0000
0001
0000
,  // measure 29
0000
0000
0000
0000
0001
0000
0000
0000
0000
0001
0000
0000
0000
0000
0000
0010
0000
0000
0000
0001
0000
0000
0000
0000
0001
0000
0000
0000
0000
0000
0010
0000
,  // measure 30
0000
0100
0000
0000
0000
0000
0000
0001
0000
0000
0000
0000
0000
0010
0000
0000
0000
3000
0000
0000
0000
0100
0000
0000
0000
0010
0000
0000
0000
0001
0000
0000
,  // measure 31
0000
0100
0000
0000
0000
0000
0000
0100
0000
0000
0000
0000
0000
0010
0000
0000
0000
1000
0000
0000
0000
0000
0000
0000
1000
0000
0000
0000
0000
0001
0000
0000
,  // measure 32
0000
0010
0000
0000
0100
0000
0000
0000
1000
0000
1000
0000
0000
0000
0000
0000
0000
0000
0000
0000
0100
0000
0000
0000
0010
0000
0001
0000
0000
0000
1000
0000
,  // measure 33
0000
0100
0000
0000
0010
0000
0000
0001
0000
0000
0000
0000
0000
0000
0000
0000
0000
0000
0000
0011
0000
0000
0000
0000
0000
0000
0011
0000
0000
0000
0000
0000
,  // measure 34
0000
0000
0011
0000
0000
0000
0011
0000
0000
0011
0000
0011
0000
0000
0011
0000
0000
0000
0000
0100
0000
0000
0000
0100
0000
0000
0000
0010
0000
0000
0001
0000
,  // measure 35
0000
0000
1000
0000
0000
0000
1000
0000
0000
0000
0000
0000
0000
0000
0100
0000
0000
0000
0001
0000
0000
0000
0001
0000
0000
0000
0000
0000
0000
0000
0000
1000
,  // measure 36
0000
0000
0010
0000
0000
0000
0100
0000
0000
0000
0001
0000
0000
0000
0010
0000
0000
0000
0100
0000
0000
0000
0010
0000
0000
0001
0000
0000
0000
1000
0000
0000
,  // measure 37
0100
0000
0000
0000
0100
0000
0000
0000
0000
0000
0000
0000
0010
0000
0000
0001
0000
0000
0010
0000
0000
0000
0010
0000
0000
0000
0000
0000
0000
0000
0100
0000
,  // measure 38
0000
0000
1000
0000
0000
0000
0100
0000
0000
0000
0100
0000
0000
0000
0100
0000
0000
0010
0000
0000
0000
0001
0000
0000
0000
0010
0000
0000
0000
0000
0100
0000
,  // measure 39
0000
0001
0000
0000
0000
0001
0000
0000
0000
0000
0000
0000
0000
0000
0000
1000
0000
0000
0100
0000
0000
0100
0000
0000
0000
0000
0000
0000
0000
0010
0000
0000
,  // measure 40
0000
0100
0000
0000
0000
0010
0000
0000
0000
0100
0000
0000
0000
0010
0000
0000
0000
0100
0000
0000
0000
0000
0010
0000
0000
0001
0000
0000
0000
0100
0000
0000
,  // measure 41
0010
0000
0000
0000
0010
0000
0000
0000
0000
0000
0000
0000
0100
0000
0000
0000
0001
0000
0000
0010
0000
0000
0010
0000
0000
0000
0000
0000
0001
0000
0000
0000
,  // measure 42
0010
0000
0000
0100
0000
0000
1000
0000
0000
0000
0100
0000
0000
1000
0000
0000
0000
0000
0001
0000
0000
0000
0000
0100
0000
0000
0000
0000
0010
0000
0000
0001
,  // measure 43
0000
0000
0000
0000
0010
0000
0000
0000
0000
0010
0000
0000
0000
0000
0001
0000
0000
0000
0010
0000
0000
0000
0000
0010
0000
0000
0000
0000
0100
0000
0000
0000
,  // measure 44
0000
1000
0000
0000
0000
0100
0000
0000
0000
1000
0000
0000
0000
0000
0100
0000
0000
0010
0000
0000
0000
0100
0000
0000
0000
1000
0000
0000
0000
0100
0000
0000
,  // measure 45
0000
0000
1000
0000
0000
0000
1000
0000
0000
0000
0000
0100
0000
0000
1000
0000
0000
0000
0000
0100
0000
0000
1000
0000
0000
0000
0010
0000
0000
0000
0001
0000
,  // measure 46
0000
0000
0010
0000
0000
0000
0000
0000
0000
0010
0000
0000
0000
0010
0000
0000
0000
0000
0100
0000
0000
0000
0000
0010
0000
0000
0000
0100
0000
0000
0000
0010
,  // measure 47
0000
0100
0000
0010
0000
0000
0000
0001
0000
1000
0000
0001
0000
0000
0000
1000
,  // measure 48
0000
0000
0010
0000
0000
0100
0000
0000
0000
0010
0000
0000
0000
0001
0000
0000
0000
0000
0100
0000
0000
0000
1000
0000
0000
0000
0100
0000
0000
0010
0000
0000
,  // measure 49
0000
0000
0000
0000
0000
0000
0101
0000
0000
0000
0000
0000
0000
0000
0000
0000
0000
0000
0010
0000
0000
0100
0000
0000
0000
1000
0000
0000
0100
0000
0000
1000
,  // measure 50
0000
0000
0000
0010
0000
0000
0000
0000
0001
0000
0000
0001
0000
0000
0000
0010
0000
0000
0000
0200
0000
0000
0000
0000
0000
0000
0000
0010
0000
0000
0000
0010
,  // measure 51
0000
0000
0001
0000
0000
0000
0000
0000
0001
0000
0000
0000
0000
1000
0000
0000
0000
0000
0001
0000
0000
0000
0001
0000
0000
0000
0000
0000
1000
0000
0000
0000
,  // measure 52
0010
0000
0000
0000
0000
0000
0010
0000
0000
0010
0000
0000
0000
0000
1300
0000
0000
0000
0100
0000
0000
0000
0000
0010
0000
0000
0000
0000
0000
0001
0000
1000
,  // measure 53
0000
0000
0100
0000
0000
0100
0000
0000
0100
0010
0000
0000
0000
0000
0000
0000
0000
0002
0000
0000
0000
0000
0000
0000
0000
2000
0000
0000
0000
0003
0000
0000
,  // measure 54
0000
0000
0100
0000
0000
0000
0010
0000
3000
0000
0010
0000
0000
0001
0000
0000
0000
0000
0100
0000
0000
0000
0010
0000
0000
0010
0000
0000
0020
0000
0000
0000
,  // measure 55
0000
0000
0200
0030
0000
0000
0000
0000
0000
0000
0000
0010
0000
0000
0000
0301
0000
0000
0010
0000
0000
0000
0100
0000
1000
0000
0000
0000
0000
0100
0000
0000
,  // measure 56
0200
0000
0000
0000
0000
0000
0000
0000
0000
0000
0000
0020
0300
0000
0000
0000
0002
0030
0000
0200
0000
0000
0003
0000
0000
0000
0010
0000
0000
0000
0000
0000
,  // measure 57
0000
0302
0000
0000
0000
0000
0000
0000
0003
2000
0000
0000
0000
0000
0000
0000
0000
0000
3100
0000
0000
0000
0000
0000
0000
0000
0110
0000
0000
0000
0000
0000
,  // measure 58
0000
0000
0110
0000
0000
0000
0000
0000
0000
0000
0110
0000
0000
0000
0000
0000
0000
0000
2000
0000
0000
0000
0000
0001
0000
0000
0000
0000
0000
0000
0010
0000
,  // measure 59
0000
0000
0100
0000
0000
0000
0000
0000
0010
0000
0000
0000
0000
0000
0001
0000
0000
0000
0010
0000
0000
0000
0000
0100
0000
0000
0000
0000
0000
0010
0000
0000
,  // measure 60
0000
0000
0100
0000
0000
0000
0000
3000
0000
0000
0002
0000
0000
0000
0000
0000
0000
0000
1000
0000
0000
0000
0000
0010
0000
0000
0000
0000
0000
0000
0100
0000
,  // measure 61
0000
0000
0000
1000
0000
0000
0000
0000
0100
0000
0000
0000
0000
0000
0010
0000
0000
0000
0000
0010
0000
0000
0000
0000
0000
0000
0100
0000
0000
0000
1000
0000
,  // measure 62
0000
0000
0010
0000
0000
0100
0000
0000
0000
0000
1000
0000
0000
0010
0000
0000
0000
0000
0100
0000
0000
0000
0000
0000
0000
0100
0003
0000
0000
0000
0000
0001
,  // measure 63
0000
0000
0000
0001
0000
0000
0000
0000
0000
0000
0000
0001
0000
0000
0000
0010
0000
0100
0000
0000
0000
0000
0000
0100
0000
0000
0000
0000
0000
1000
0000
0000
,  // measure 64
0000
0100
0000
0000
0010
0000
0000
0001
0000
0000
1000
0000
0000
0000
0100
0000
0000
0000
0010
0000
0000
0000
0000
0000
0000
0010
0000
0000
0000
0000
0000
0000
,  // measure 65
0000
0000
0010
0000
0000
0000
0000
0000
0000
0000
0101
0000
0000
0000
0000
0000
0000
0010
0000
0000
0000
0000
0000
0000
0000
0000
1010
0000
0000
0000
0000
0000
,  // measure 66
0000
0000
1010
0000
0000
0000
0000
0000
0000
0000
1010
0000
0000
0000
0000
0000
0000
0000
0101
0000
0000
0000
0000
0000
0000
0110
0000
0000
0000
0000
0000
0000
,  // measure 67
0000
0001
0000
0000
0000
1000
0000
0000
0010
0000
0000
0000
0000
1000
0000
0000
0010
0000
0000
0000
1000
0000
0000
0000
0001
0000
0000
0000
0100
0000
0000
0010
,  // measure 68
0000
0000
1000
0000
0000
0001
0000
0000
0000
0100
0000
0000
0010
0000
0000
0001
0000
0000
0000
1000
0000
0000
0000
0000
0000
1000
0000
0000
0100
0000
0000
0000
,  // measure 69
0010
0000
0000
0001
0000
0000
0000
0000
0001
0000
0000
0000
1000
0000
0000
0000
0010
0000
0000
0100
0000
0000
0000
0000
0100
0000
0000
0000
0000
0010
0000
0000
,  // measure 70
0000
0001
0000
0000
0000
0000
0000
1000
0000
0000
0000
0000
0010
0000
0000
0000
0000
0000
0000
0000
0000
0000
0100
0000
0000
0000
1000
0000
0000
0000
0010
0000
,  // measure 71
0000
0001
0000
0000
0010
0000
0000
0000
0000
0010
0000
0000
0000
0000
0100
0000
0000
1000
0000
0000
0000
0000
0000
1000
0000
0000
0000
0000
0000
0100
0000
0000
,  // measure 72
0000
0010
0000
0000
0000
0000
0000
0000
0000
0000
0000
1000
0000
0000
0000
0000
0000
0000
0001
0000
0000
0000
0000
0010
0000
0000
1000
0000
0000
0100
0000
0000
,  // measure 73
0000
0001
0000
0000
0010
0000
0000
0000
0010
0000
0000
0000
0000
0000
0100
0000
0000
0000
0001
0000
0000
0010
0000
0000
0000
0100
0000
0000
0000
0000
1000
0000
,  // measure 74
0000
0100
0000
0000
0000
0000
0000
0110
0000
0000
0000
0000
0100
0000
0000
0000
0000
0002
0000
0000
0000
0000
0000
0003
0000
0000
0001
0000
0000
0000
1000
0000
,  // measure 75
0000
0000
0100
0000
0000
0000
0000
0100
0000
0000
0000
0000
0000
2000
0000
0000
0000
0000
0010
3000
0000
0000
0000
0000
0010
0000
0000
0000
0000
0000
0001
0000
,  // measure 76
0000
0000
0100
0000
0000
0000
0200
0000
0000
0000
0000
0000
0000
0000
0300
0010
0000
0000
0000
0001
0000
0000
0000
0100
0000
0000
0010
0000
0000
0000
0000
0001
,  // measure 77
0000
0000
0002
0000
0000
0000
0000
0000
0000
0000
0000
0000
0003
0000
1000
0000
0000
1000
0000
0000
0100
0000
0000
0000
0020
0000
0000
0000
0000
0000
0000
0000
,  // measure 78
0000
0000
0000
0000
0000
0030
0000
0100
0000
0000
0100
0000
0000
0100
0000
0000
0002
0000
0000
0000
0000
0000
0000
0000
0000
0000
0000
0000
0000
0000
0000
2003
,  // measure 79
0000
0000
0000
0000
0000
0000
0000
0000
0000
0000
0000
3000
0000
0100
0000
0000
0000
0010
0000
0000
0001
0000
0000
0000
0100
0000
0000
0000
0010
0000
0000
0000
,  // measure 80
0001
0000
0000
0100
0000
0000
0000
0010
0000
0000
0000
0000
0110
0000
0000
0000
0000
0000
0000
0002
0000
0000
0000
0000
0000
0000
0000
0000
0000
0000
0000
0000
,  // measure 81
0003
1000
0000
0000
0000
0000
0000
0000
0000
0000
1000
0000
0000
0000
0000
0110
0000
0000
0100
0010
0000
0000
0000
0000
0000
0001
0000
0000
0000
0000
0110
0000
,  // measure 82
0000
0110
0000
0110
0000
0000
0110
0000
0110
0000
0110
0000
0000
0000
0000
0001
0000
0000
2000
0000
0000
0000
0000
0000
0000
0000
0000
0000
0000
0000
0000
0000
,  // measure 83
0000
3000
0000
0000
0001
0000
0000
0000
0000
0000
0001
0000
0000
0000
0000
0000
0000
0000
0001
0000
0000
0000
0000
0000
0000
0000
0000
0000
0000
0000
0000
0000
;
