#TITLE:Monster(DotExe Remix);
#SUBTITLE:;
#ARTIST:Unknown artist;
#TITLETRANSLIT:;
#SUBTITLETRANSLIT:;
#ARTISTTRANSLIT:;
#GENRE:;
#CREDIT:;
#BANNER:;
#BACKGROUND:;
#LYRICSPATH:;
#CDTITLE:;
#MUSIC:Monster (DotEXE Remix).mp3;
#OFFSET:0.000000;
#SAMPLESTART:100.000000;
#SAMPLELENGTH:12.000000;
#SELECTABLE:YES;
#DISPLAYBPM:*;
#BPMS:0.000000=140.000000
,88.000000=200.000000
,92.000000=350.000000
,105.000000=120.000000
;
#STOPS:105.000000=0.250000,
112.000000=0.250000,
118.000000=0.250000,
124.000000=0.250000,
138.000000=0.250000,
144.000000=0.250000,
150.000000=0.250000,
156.000000=0.500000,
162.000000=0.250000,
168.000000=0.250000,
175.000000=0.250000,
188.000000=0.250000,
195.000000=0.250000,
201.000000=0.250000,
204.000000=1.500000,
231.000000=0.350000
;
#BGCHANGES:;
#KEYSOUNDS:;
#ATTACKS:;

//---------------dance-single - ----------------
#NOTES:
     dance-single:
     :
     Beginner:
     4:
     0.285812,0.388852,0.024399,0.553034,0.004066,175.000000,3.000000,68.000000,0.000000,0.000000,0.000000,0.285812,0.388852,0.024399,0.553034,0.004066,175.000000,3.000000,68.000000,0.000000,0.000000,0.000000:
1000
0000
0001
0000
,
1000
0000
0001
0000
,
1000
0000
0001
0000
,
1000
0000
0001
0000
,
1000
0000
0001
0000
,
1000
2000
3000
0001
,
0002
0003
1000
2000
,
3000
1001
0002
0003
,
1000
1000
0001
0001
,
0001
1000
1000
0001
,
0001
1000
1000
0001
,
0001
1000
1000
0001
,
0001
1000
1000
0001
,
1000
1000
0001
1000
,
1000
0001
1000
1000
,
0001
0001
1000
1000
,
1000
0200
0300
0001
,
0001
0010
0100
0100
,
0100
2000
3000
0010
,
0010
1000
1000
0001
,
0001
0100
0100
0020
,
0000
0000
0000
0030
,
2002
0000
0000
0000
,
0000
0000
0000
0000
,
0000
0000
0000
0000
,
0000
0000
0000
0000
,
3003
0000
0220
0330
0000
0000
1000
0000
0000
0000
0000
0000
,
0001
0000
1000
0000
,
0001
0000
1000
0000
,
0001
0000
1000
0000
,
0001
0000
1000
0000
,
0001
0000
0020
0030
,
2000
3000
0002
0003
,
0200
0300
0002
0003
,
2000
3000
0002
0003
,
2000
3000
0200
0300
,
0020
0030
2000
3100
,
0010
0002
0003
0010
,
0100
2000
3000
0100
,
0010
0002
0003
0010
,
0200
0300
2000
3000
,
0200
0300
0001
0001
,
2000
3000
0002
0003
,
0200
0300
1000
1000
,
1000
0002
0003
0200
,
0300
2000
3000
0100
,
0100
0002
0203
2300
,
3200
0320
0032
0203
,
0320
0230
2300
3000
,
0100
0100
0100
0002
,
0023
0230
1300
0100
,
0010
0002
0203
0300
,
1000
0100
0020
0030
,
2000
3000
0001
2000
,
3000
0001
2000
3000
,
0001
2000
3000
0001
,
2000
3000
0020
0030
,
1000
0020
0030
1000
,
0020
0030
2000
3000
,
0001
2000
3000
0001
,
2000
3001
0020
0130
,
2000
3100
0002
0013
,
2000
3100
0020
0031
,
0200
1300
0020
0031
;

//---------------dance-single - ----------------
#NOTES:
     dance-single:
     :
     Hard:
     14:
     0.852788,0.818166,0.650629,1.000000,0.683160,517.000000,80.000000,137.000000,0.000000,0.000000,0.000000,0.852788,0.818166,0.650629,1.000000,0.683160,517.000000,80.000000,137.000000,0.000000,0.000000,0.000000:
// measure 0
1001
0000
0220
0330
1100
0000
0011
0000
,  // measure 1
0220
0330
1100
0011
2200
3300
0011
0000
,  // measure 2
0110
0110
0110
2200
3300
0000
0011
0000
,  // measure 3
0011
1100
1100
0110
,  // measure 4
0022
0033
2200
3300
0011
0000
1000
1000
,  // measure 5
1000
2000
3000
0001
0010
0100
1000
0002
,  // measure 6
0023
0230
0300
1000
0100
0010
0010
0010
,  // measure 7
0010
0000
0000
0000
0000
0000
2200
0000
0000
3300
0000
0000
0022
0000
0000
0033
0000
0000
0001
0000
0001
0000
0000
0000
,  // measure 8
2000
0000
0010
3100
0002
0000
0103
0010
,  // measure 9
2000
0000
3010
0100
0002
0000
0103
0010
,  // measure 10
2000
0000
3010
0100
0002
0000
0103
0010
,  // measure 11
2000
0000
3010
0100
0002
0000
0103
0010
,  // measure 12
2000
0000
3010
0100
0002
0000
0013
0100
,  // measure 13
2000
3000
0011
0011
0011
0110
0000
2000
,  // measure 14
3200
0310
0010
0010
0010
0002
0003
1000
,  // measure 15
0100
0010
0010
0010
0002
0003
1000
1000
,  // measure 16
0001
0000
0001
0000
0001
0000
0001
0000
0000
1000
0000
0000
1000
0000
0000
0000
0001
0000
0001
0000
0001
0000
0001
0000
,  // measure 17
0000
0000
0000
1000
0000
0000
1000
0000
0000
0000
0001
0000
0001
0000
0001
0000
0000
0000
1001
0000
0000
0000
0000
0000
,  // measure 18
1001
0010
0010
1100
1100
1100
0001
0001
,  // measure 19
1000
0000
0000
0000
1000
0000
0000
0000
1000
0000
0000
0000
0001
0000
0000
0000
0000
0000
0000
0000
0000
0000
0000
0000
1000
0000
0000
0000
1000
0000
0000
0000
1000
0000
0000
0000
0000
0000
0000
1000
0000
0000
0100
0000
0000
1000
0000
0000
,  // measure 20
0100
1000
0100
1000
0100
1000
0100
1000
0100
1000
0100
1000
0100
1000
0100
1000
,  // measure 21
0100
1000
0100
1000
0100
1000
0100
1000
0100
1000
0100
1000
0100
1000
0100
0000
,  // measure 22
1000
0001
1000
0001
1000
0001
1000
0001
1000
0001
1000
0001
,  // measure 23
1000
1000
0001
1000
0001
1000
0001
1000
,  // measure 24
0001
1000
0001
1000
0001
1000
0001
1000
,  // measure 25
0001
1000
0001
1000
0010
0100
0010
0100
,  // measure 26
0010
0000
0000
0100
0220
0000
0330
0000
0000
0000
1000
0000
0100
0000
0010
0000
0001
0000
0010
0000
0100
0000
0010
0000
,  // measure 27
0001
0010
0100
1000
0100
0010
1000
0100
0010
0001
0010
0100
,  // measure 28
1100
0001
0010
0001
0010
0100
1000
0100
0010
0100
1000
0010
,  // measure 29
0010
0000
1000
0010
0001
0100
1100
0010
0001
0001
0001
0001
,  // measure 30
0001
0100
0010
0001
0010
0100
1000
0100
0020
0032
0003
0000
,  // measure 31
1100
0000
0000
0000
0100
0000
1000
0000
0100
0000
0010
0000
0000
0000
0000
2000
0000
0000
3200
0000
0000
0320
0000
0000
,  // measure 32
0030
0002
0023
0230
2300
3200
0320
0032
,  // measure 33
0023
0230
2300
3200
0320
0230
2300
3200
,  // measure 34
0320
0000
0000
0230
0000
0000
2300
0000
0000
3200
0000
0000
1300
0000
0000
0000
0100
0000
0010
0000
0001
0000
0010
0000
,  // measure 35
0100
1000
0110
0001
0010
0100
0010
0001
0100
1000
0100
0010
,  // measure 36
1001
0000
0010
0100
0010
0100
1000
0100
0010
0100
1000
0100
,  // measure 37
0010
0100
1000
0100
0010
0001
1010
0000
0100
0001
0100
0001
,  // measure 38
0100
0001
0100
1000
0010
1000
0100
0001
0100
1000
0010
0000
,  // measure 39
0022
0000
0000
0000
0033
0000
0000
0000
0000
0000
0000
0000
0000
0000
0000
1000
0000
0000
0100
0000
0000
1000
0000
0000
0100
0000
0000
1000
0000
0000
0100
0000
0001
0000
0000
0000
0000
0000
0000
0000
0010
0000
0000
0000
0100
0000
0000
0000
,  // measure 40
1000
0200
0310
0001
0010
0100
2020
3030
0000
0010
0100
1000
,  // measure 41
0200
0310
0001
0100
0000
0010
0001
0010
0100
1000
0100
0022
,  // measure 42
0033
1000
0100
1000
0100
1000
0001
0010
0001
0010
0001
0010
,  // measure 43
0100
1000
0100
0010
0001
0000
0010
0100
1000
2200
3300
0000
,  // measure 44
0002
0023
0000
0230
2300
3200
0320
0230
,  // measure 45
2300
3200
0320
0032
0023
0230
2300
3200
,  // measure 46
0320
0032
0023
0230
2300
3200
2300
3200
,  // measure 47
1300
0000
0000
1000
0100
0001
0100
1000
0001
0100
1000
0001
,  // measure 48
0100
1000
0001
0100
1000
0001
0100
1000
0100
0110
0000
0100
,  // measure 49
1000
0100
1000
0100
0010
0001
0010
0100
1000
0100
1000
0100
,  // measure 50
1100
0001
0011
1100
0100
0010
0001
0010
0100
1000
0100
0010
,  // measure 51
0101
0000
2200
3300
0110
0022
0033
2200
,  // measure 52
3300
0110
0022
0033
0110
0022
0033
0110
,  // measure 53
2200
3300
0011
0220
0330
2200
3300
0110
,  // measure 54
0022
0033
1100
0011
2200
3300
0011
1100
,  // measure 55
0010
0001
0010
0100
1000
0100
0010
0001
,  // measure 56
1100
0011
2200
3300
0011
1100
0022
0033
,  // measure 57
1100
0110
0022
0033
1100
0011
2200
3300
,  // measure 58
0010
0001
0020
0030
1000
0100
2000
3000
,  // measure 59
0100
0010
0100
0020
0030
0001
0010
0001
,  // measure 60
0020
0030
1000
0100
1000
0200
0300
0001
,  // measure 61
0010
0001
0020
0030
2000
3200
0320
0032
,  // measure 62
0003
0020
0230
2300
3200
0310
0002
0003
;
