#TITLE:Miracle Moon;
#SUBTITLE:;
#ARTIST:Unknown artist;
#TITLETRANSLIT:;
#SUBTITLETRANSLIT:;
#ARTISTTRANSLIT:;
#CREDIT:;
#BANNER:bn.png;
#BACKGROUND:bg.png;
#LYRICSPATH:;
#CDTITLE:;
#MUSIC:Miracle Moon.mp3;
#OFFSET:-1.020;
#SAMPLESTART:71.750;
#SAMPLELENGTH:12.000;
#SELECTABLE:YES;
#BPMS:0.000=128.380;
#STOPS:;
#BGCHANGES:;

//---------------dance-single - ----------------
#NOTES:
     dance-single:
     :
     Beginner:
     1:
     0.280,0.384,0.183,0.269,0.000:
2000
0000
3000
0000
,
1000
0000
0000
1000
,
0000
0000
0002
0003
,
0000
0010
0000
0020
,
0030
0000
1000
1000
,
0001
0000
1000
0000
,
0001
0000
1000
0001
,
1000
0001
1000
0000
,
0000
0002
2000
3003
,
0010
0010
0010
0010
,
0010
0010
0010
0010
,
0100
0100
0100
0100
,
0100
0100
0100
0100
,
0010
0010
0010
0010
,
0010
0010
0010
0010
,
0010
0010
0010
0010
,
2000
0000
0000
3000
,
0010
0010
0010
0010
,
0010
0010
0010
0010
,
0000
2000
0000
3000
,
0000
0002
0000
0003
,
0000
0010
0000
0000
,
0000
0010
0000
1000
,
0100
0010
0001
0000
,
0002
0023
0230
2300
,
3000
1000
0010
0100
,
0002
0023
0230
0300
,
1000
0100
1000
0000
,
2000
3020
0230
0302
,
0000
0000
0000
0003
,
2000
3020
0230
0302
,
0000
0000
0003
0000
,
1000
0010
0100
0001
,
2000
0000
0000
3000
,
1000
1000
1000
1000
,
1000
1000
0002
0000
,
0003
0001
0001
0001
,
0001
0001
0020
0000
,
0030
0110
0000
0110
,
0000
1001
0000
1001
,
0010
0100
0010
0100
,
0110
0100
0100
0100
,
0110
0010
0010
0010
,
0110
0100
0100
0100
,
0110
0010
0010
0010
,
0110
0100
0100
0100
,
0110
1001
0100
1001
,
0100
1001
0100
1001
,
1001
0100
0100
0000
,
1001
1000
1000
1000
,
1001
0001
0001
0001
,
1001
1000
0001
1000
,
0001
0010
0100
2002
,
0000
3003
0000
0000
;

//---------------dance-single - ----------------
#NOTES:
     dance-single:
     :
     Easy:
     3:
     0.372,0.432,0.240,0.337,0.000:
2002
0000
0000
0000
0000
3003
0000
0000
,
1000
1000
1000
0100
0100
0100
0010
0010
,
0010
0001
0001
0001
0000
0000
0000
1000
,
1000
0000
0100
0100
0000
0010
0000
0001
,
0000
0001
0000
1000
1000
0000
1000
0020
,
0000
0230
0000
0320
0000
0230
0000
0320
,
0000
0130
0000
0001
0001
1000
1000
0000
,
0010
0100
0000
0001
0000
0010
0100
0000
,
0000
0000
0000
1000
0100
0010
0011
0000
,
0100
0100
0000
1000
0000
0000
1100
0010
,
0001
0000
0000
1000
0000
0100
0010
0000
,
0011
1000
0000
0100
0000
0011
0000
1000
,
0000
0000
0011
0000
1000
0011
0011
1000
,
0000
0011
0000
0000
1000
0011
0000
0000
,
0001
0000
0000
1100
0000
0001
0000
1100
,
0000
0001
0000
0000
1000
0000
0000
0000
,
2000
0000
3020
0000
0230
0301
0010
0200
,
0000
0320
0000
0230
0000
0320
0000
0000
,
0230
0320
0000
0230
0000
0310
0000
0000
,
0000
0000
1000
0000
0001
0000
0010
0100
,
0000
0000
0001
0010
0100
1000
0000
0000
,
0010
0001
0010
0100
0010
0000
0110
0000
,
0001
0000
0010
0000
0001
0010
0001
0010
,
0001
0010
0001
0010
0001
0010
0001
0010
,
0100
0000
0010
0100
0010
0000
0100
0000
,
0010
0100
0010
0000
0010
0100
0010
0000
,
0000
0100
0010
0000
0100
0000
0000
0000
,
0100
0010
0100
0000
0000
0100
0010
0100
,
0000
0010
0100
0010
0000
0010
0100
0010
,
0000
0010
0000
0010
0010
0000
0000
0010
,
0000
0010
0000
0010
0000
0010
0000
0010
,
0000
0010
0000
0010
0000
0100
0100
0002
,
0000
0000
0000
0000
,
0000
0000
0000
0003
,
1000
1000
0000
0010
0000
0001
0020
0000
,
0000
0030
0000
0000
2000
0000
3200
0000
,
0300
0000
1000
0000
0010
0001
0000
0010
,
0000
0000
0000
0002
0000
0000
0000
0003
,
0000
1000
1000
0100
0000
0010
0000
0002
,
0000
0003
0000
0000
1000
0100
0010
0010
,
0000
0001
0010
0000
0010
0000
1000
1000
,
0000
0000
1100
0010
,
0001
0011
0000
0011
,
0000
0000
0011
2000
0000
0000
3200
0000
,
0000
0300
0011
0000
0000
0000
0011
0000
,
0000
1010
0000
0100
,
0000
1100
0000
0100
,
1100
0100
1100
0100
,
1100
0200
0320
0032
,
0023
0032
0023
0030
,
2000
0000
3200
0000
,
0320
0000
0000
0000
0032
0000
0000
0003
,
0000
0001
0001
0001
0010
0000
0100
1001
;

//---------------dance-single - ----------------
#NOTES:
     dance-single:
     :
     Medium:
     5:
     0.424,0.433,0.154,0.202,0.000:
0220
0000
0000
0000
0330
0000
0000
1000
,
1000
1000
0100
0100
0100
0010
0010
0010
,
0001
0001
0000
0001
0010
0010
0010
0000
,
0001
0001
0000
0010
0100
0000
2000
0000
,
0000
3000
0000
1000
0100
0100
0100
0000
,
1000
0000
0010
0100
0000
0001
0000
1000
,
0100
0010
0001
0010
0100
1000
0100
0000
,
0010
0100
0010
0001
0000
0010
1001
0010
,
0000
0100
0000
0011
1100
1010
0100
0001
,
0010
0010
0000
0100
0000
1000
0000
0100
,
0000
0010
0000
0001
0000
0010
0000
1000
,
0000
0100
0000
1000
0000
0100
0000
1000
,
0000
0000
0100
0000
1000
0100
0000
1000
,
0000
0100
0000
1000
0000
0000
0100
0000
,
1000
0100
0000
1000
0000
1100
0000
0000
,
1000
0000
0100
0000
1000
0100
0000
0000
,
2000
0000
0000
0020
3000
0000
0000
0031
,
0000
0001
0000
0010
0100
0000
0000
0000
,
1000
1000
1000
0010
0010
0000
0000
0000
,
0000
0000
1000
0000
0100
0100
0010
0001
,
0000
1000
1000
0100
0100
0010
0010
0001
,
0001
0010
0100
1000
,
0002
0023
0230
2300
,
3200
0000
0000
0320
0000
0030
0001
0000
,
0002
0000
0023
0200
0030
0000
0300
0000
,
1000
0100
0010
0001
0010
0100
0010
0100
,
0010
0100
0001
0010
0100
1000
0100
0010
,
0001
0010
0001
0010
0001
0010
0010
0002
,
0000
0023
0000
0000
0130
0000
1000
0200
,
0000
0000
0300
0000
,
1000
1000
0100
0100
0010
0010
0001
0002
,
0000
0000
0000
0003
,
1000
0000
0010
0000
0100
0001
0010
0200
,
0000
0000
0000
0000
0000
0000
0000
0300
,
0000
0001
0001
0001
0010
0100
0000
2000
,
0000
0000
3000
0000
1100
0000
0010
0011
,
0000
0100
1000
1000
,
1100
0000
0000
0000
1010
0101
0010
0100
,
0000
0010
0010
0100
0100
0000
0001
0020
,
0000
0000
0030
0000
1100
0000
0100
0100
,
0000
0010
0000
0010
,
0000
0010
0000
0010
,
0001
0010
0100
1000
0100
0010
0001
0010
,
0100
0010
0100
0010
0100
0010
0001
0010
,
0100
0010
0001
0010
0001
1000
0100
0010
,
0001
1000
0010
0100
0010
0001
0010
0100
,
0010
0100
0010
0001
1000
0001
1000
0001
,
0010
0100
0010
0100
0010
0100
0001
1000
,
0100
0010
0100
0001
0010
0100
0010
0100
,
0010
0100
0010
0100
0010
0100
0010
0000
,
0100
0010
0100
0001
1000
0010
0100
0001
,
1000
0001
1000
0001
0010
0100
0001
0010
,
0100
0010
0000
0000
1001
0000
0110
0011
,
1100
0000
0000
0000
;

//---------------dance-single - ----------------
#NOTES:
     dance-single:
     :
     Hard:
     8:
     0.455,0.667,0.212,0.433,0.784:
2002
0000
0000
0000
0000
0000
0000
0003
3000
0000
0000
0000
,
1000
0000
1000
0010
0000
0010
0001
0000
0001
0010
0000
0100
,
0000
0000
0000
0000
0000
1000
0100
0010
0001
0001
0000
0000
,
1000
0000
0100
0000
0000
0010
0000
0000
0001
0000
0000
0010
,
0000
0000
0100
0000
0000
0001
0010
0100
0000
1000
0000
0000
,
0010
0000
0001
0000
0010
0100
0010
0000
0001
0000
0010
0100
,
0000
1000
0100
1000
0000
0010
0001
0000
0010
0100
0010
0000
,
0100
0010
0000
0100
0001
0000
0000
0010
0000
0200
0000
0000
,
0000
0300
0000
0000
0000
1000
1000
0100
0000
0100
0000
0010
,
0000
0000
0001
0000
0010
0000
0200
0000
0000
0300
0000
0000
,
1000
0000
0100
0010
0102
0000
0013
0000
0100
0000
0010
0200
,
0000
0000
0000
0000
0000
2300
0000
0000
0000
0000
0000
3200
,
0000
0000
0320
0000
0000
0032
0000
0000
0023
0000
0030
0000
,
0000
1000
0100
0010
0000
0001
0000
0010
0000
0100
0100
0000
,
1000
0000
0100
0000
0100
0000
0000
0001
0010
0000
0100
0010
,
0000
0100
0000
0010
0000
0000
0100
0000
0100
0000
0000
0000
,
0000
1001
0000
0110
0000
0011
0000
1100
0000
1010
0000
0011
,
0000
0000
0010
0000
0000
0100
0000
0000
0000
0000
1000
1000
,
0000
0100
1000
0001
,
0000
0000
1000
0010
0100
0000
0001
0000
0010
0000
0200
0000
,
0300
0000
1000
0001
0000
0010
0100
1000
0000
0000
0000
0010
,
0000
0100
0100
0000
0010
0010
0000
0010
0100
0000
0100
0001
,
0000
0001
1000
0000
0001
1000
0000
0001
0010
0000
0100
0020
,
0000
0000
0000
0000
0230
0000
0000
0000
0301
0000
0000
1000
,
0000
0100
0010
0001
0000
0010
0000
0000
0000
0000
0000
1000
,
0000
0100
0000
0010
0001
0000
1000
0100
0000
0010
0001
0000
,
1000
0100
0010
0001
0000
0000
2000
0000
0000
3000
0000
0000
,
1000
0100
0010
0000
0001
0000
1000
0100
0010
0001
0000
2000
,
0000
0000
0020
3000
0000
0000
0230
0000
0300
0001
2000
0000
,
0000
0000
0000
3000
,
1000
1000
0000
0010
0010
0000
0001
0001
0000
0001
0020
0000
,
0000
0000
0000
0030
1000
0000
0000
1000
0000
1000
0000
0000
,
0010
0010
0000
0000
0000
0100
0100
0100
0100
0000
0000
0000
,
0010
0010
0010
0000
0000
0000
0001
0001
0001
0000
0000
0000
,
1000
1000
1000
0000
1000
0100
0100
0000
0100
0100
0000
0010
,
0000
0000
0000
0000
0000
0000
0011
0000
0100
0000
1100
0200
,
0000
0000
0300
2000
0000
0000
3200
0000
0000
2300
0000
0000
,
3200
0000
0000
1300
0000
0000
1000
0100
0010
0000
0011
0000
,
0020
0230
0320
0230
,
0320
0000
0000
0230
0000
0300
0001
0020
0000
0130
0000
2000
,
0000
3200
0320
0032
,
0023
0000
0000
0200
0030
0000
1000
0300
0000
0000
0000
0000
,
2000
0000
0000
0000
0000
0000
0000
0000
0000
0000
0000
3000
,
0200
0000
0000
0000
0000
0000
0000
0000
0000
0000
0000
0300
,
0020
0000
0000
0000
0000
0000
0000
0000
0000
0000
0000
0032
,
0000
0000
0000
0000
0000
0000
0000
0000
0000
0000
0000
0003
,
1000
0100
0000
0010
0001
0000
0010
0000
0100
0000
0020
0000
,
0000
0000
0000
0000
0000
0000
0001
0000
0000
0000
0030
0000
,
0000
0000
1000
0010
0000
0100
0000
0100
0000
0010
0000
0001
,
1000
0100
0010
0000
,
0000
0010
0100
0000
0010
0001
0000
1000
0010
0000
1010
1010
,
0010
0001
0011
0000
1100
1100
1000
0010
1010
0011
0000
0011
,
0000
0000
1000
0100
0000
0000
1010
0000
0000
1001
0000
2200
,
0000
0000
0000
0000
3300
0000
0000
0000
0000
0000
0000
0000
;

//---------------dance-single - ----------------
#NOTES:
     dance-single:
     :
     Challenge:
     8:
     0.515,0.510,0.096,0.202,1.000: // measure 1
2000
0001
0000
0000
0000
3200
0000
0000
0320
0000
0030
0000
,  // measure 2
0000
1000
1000
0000
0010
0000
0000
0001
0000
0010
0010
0000
,  // measure 3
0000
0000
0000
0000
0000
1000
1000
0100
0100
0100
0000
0010
,  // measure 4
0000
0000
0001
0000
0000
0010
0000
0100
0000
0000
0010
0000
,  // measure 5
0000
0000
0000
0000
0000
1001
1001
0110
0000
0101
0000
0010
,  // measure 6
0000
0100
1000
0000
0010
0100
0000
0200
0000
0320
0000
0000
,  // measure 7
0000
0030
0000
0000
0000
1000
1000
0100
0000
0100
0100
0010
,  // measure 8
0000
0000
0001
0010
0000
0100
1000
0000
0100
0010
0000
0001
,  // measure 9
0010
0000
0100
1000
0000
0100
0010
0100
0000
0010
0100
0000
,  // measure 10
0010
0100
0001
0000
0010
0100
0010
0000
0001
0010
0000
0100
,  // measure 11
0010
0000
0100
0010
0100
0000
0001
0010
0100
0000
0010
0001
,  // measure 12
0010
0000
0001
0010
0000
0001
0010
0000
0000
0001
0001
0000
,  // measure 13
0000
0010
0000
0000
0001
0000
0001
0000
0010
0200
0000
2300
,  // measure 14
0000
0000
3200
0000
0000
0310
0000
0001
0010
0000
0100
0010
,  // measure 15
0100
0000
0010
0100
1000
0000
0100
0010
0000
0001
0010
0100
,  // measure 16
0000
0010
0100
0000
1000
0010
0000
0010
1000
0001
0000
0001
,  // measure 17
0010
0000
0100
0010
0000
0001
0010
0000
0001
0000
0010
0100
,  // measure 18
0000
0100
1000
0010
0010
0000
1000
0001
0001
0000
0010
0100
,  // measure 19
0100
0000
0010
0001
0001
1000
0000
0010
0010
0000
1000
0100
,  // measure 20
0100
0010
0001
0000
0001
0010
0100
0100
0000
1000
0001
0000
,  // measure 21
0001
1000
0010
0000
0010
1000
0000
0000
0010
0000
0000
0000
,  // measure 22
0000
0001
0000
0001
0000
0000
0000
0010
0010
0000
0000
0000
,  // measure 23
0000
1000
1000
0000
0000
1000
1000
0000
0100
0100
0000
0010
,  // measure 24
0010
0000
0001
0001
0000
0010
0000
0000
0100
0000
0000
1000
,  // measure 25
1000
1000
0000
0000
0000
0010
0010
0010
0000
0000
0000
0001
,  // measure 26
0000
0001
0010
0000
0010
0100
0100
0000
0100
1000
1000
0000
,  // measure 27
0000
0000
0100
0100
0000
0100
0000
0000
0000
0000
0000
0010
,  // measure 28
0010
0000
0010
0000
0000
0000
0001
0000
0000
0001
0000
0000
,  // measure 29
0001
0001
0010
0010
0000
0100
0100
0100
0000
1000
2000
0000
,  // measure 30
0000
0000
0000
0000
0000
0000
0000
0000
0000
0000
0000
0001
,  // measure 31
0000
0000
0010
0000
0000
0000
0100
0000
0000
0010
0002
3000
,  // measure 32
0000
0000
0000
0000
0023
0000
0000
0130
0000
1000
0200
0000
,  // measure 33
0320
0000
0000
0032
0000
0000
0013
0100
0000
1000
0200
0000
,  // measure 34
0000
0000
0000
0300
0000
0000
1001
1000
0001
1000
0000
0000
,  // measure 35
0010
0010
0000
1000
0001
0000
0001
1000
0010
0010
0000
0100
,  // measure 36
0001
0000
0010
0100
0010
0000
0100
0010
0100
0000
0010
0001
,  // measure 37
0010
0000
0100
0000
0010
0100
0000
0010
0100
1000
0000
0001
,  // measure 38
1000
0000
0010
1000
0000
0000
0100
1000
0010
0000
1000
0001
,  // measure 39
1000
0000
0010
0010
0000
1000
0100
0100
0000
1000
0000
0010
,  // measure 40
0010
1000
0000
0100
0100
1000
0001
0000
0001
1000
0010
0000
,  // measure 41
0010
1000
0100
0100
0000
1000
0001
0001
0000
0010
0010
0000
,  // measure 42
0100
0100
0010
0001
0000
0001
1000
0010
0010
0000
1000
0100
,  // measure 43
0100
0010
0000
0001
1000
0000
0010
1000
0100
0000
1000
0010
,  // measure 44
0100
0001
0000
1000
0010
2000
0000
0000
0000
3100
0010
0000
,  // measure 45
0000
0001
1000
0000
0001
1000
0000
0001
0001
0000
1000
0001
,  // measure 46
0000
0001
1000
0000
0001
2000
0000
0000
0000
3010
0200
0000
,  // measure 47
0000
0301
0000
1000
0010
0000
1000
0100
1000
0000
0000
0000
,  // measure 48
1000
0000
0002
0000
0003
0000
1000
0002
0000
0000
0000
0003
,  // measure 49
0000
0010
0100
0010
0000
0100
0010
0000
0100
0000
0010
0000
,  // measure 50
1001
0000
0000
0000
,  // measure 51
1000
0011
1000
0011
,  // measure 52
0000
1000
0000
0000
0100
0000
0000
0010
0000
0000
0000
0000
,  // measure 53
0000
0000
2000
0000
0000
3000
0010
0000
0000
0100
0000
1001
,  // measure 54
1001
0000
0000
0000
;
