#TITLE:Minimal Beat;
#SUBTITLE:;
#ARTIST:Lindsey Stirling;
#TITLETRANSLIT:;
#SUBTITLETRANSLIT:;
#ARTISTTRANSLIT:;
#GENRE:;
#CREDIT:;
#MENUCOLOR:;
#METERTYPE:DDR;
#BANNER:Minimal Beat.png;
#BACKGROUND:Minimal Beat-bg.png;
#LYRICSPATH:;
#CDTITLE:;
#MUSIC:Minimal Beat.mp3;
#OFFSET:1.985;
#SAMPLESTART:44.900;
#SAMPLELENGTH:12.000;
#SELECTABLE:YES;
#LISTSORT:;
#BPMS:0.000=128.000;
#STOPS:;
#BGCHANGES:;
#ATTACKS:;

//---------------dance-single - ----------------
#NOTES:
     dance-single:
     :
     Hard:
     7:
     0.471,0.442,0.173,0.223,0.006: // measure 1
0000
0000
0000
0000
,  // measure 2
0000
0000
0000
0000
,  // measure 3
0000
0000
0000
0000
,  // measure 4
0000
0000
0000
0000
,  // measure 5
0000
0000
0000
0000
,  // measure 6
1000
0000
0010
0100
0001
0000
1000
0100
,  // measure 7
0001
0000
0010
1000
0001
0000
1000
0100
,  // measure 8
0010
0000
0001
1000
0010
0000
0100
0001
,  // measure 9
0010
0000
0001
1000
0010
0100
0001
0010
,  // measure 10
0100
0000
1000
0001
0100
0000
0010
0100
,  // measure 11
0001
0000
0100
0010
1000
0001
0010
0100
,  // measure 12
1000
0000
0001
1000
0010
0000
0100
0001
,  // measure 13
1000
0000
0010
0010
2000
0000
3002
0010
,  // measure 14
0013
0100
0100
1000
1000
0000
0110
0000
,  // measure 15
0010
0100
0001
0100
0010
1000
0100
1000
,  // measure 16
0001
1000
0010
0100
0002
0000
2003
0000
,  // measure 17
3200
0000
1300
1000
0001
0100
0010
0100
,  // measure 18
0011
0000
0100
1000
0010
0000
0100
0001
,  // measure 19
1000
0000
0001
1000
0010
0100
0001
1000
,  // measure 20
0100
0000
1100
0000
0001
2000
3000
1010
,  // measure 21
0000
0100
0001
2000
0000
3001
1000
0020
,  // measure 22
0000
0030
1000
0020
0000
1030
0001
0020
,  // measure 23
0000
0031
1000
0020
0000
1030
0001
0200
,  // measure 24
0000
0301
1000
0200
0000
1300
0001
2000
,  // measure 25
0000
3010
0100
0002
0000
1003
0100
0010
,  // measure 26
1001
0000
0010
0100
0001
0100
0010
1000
,  // measure 27
0000
0001
1000
0100
0000
1000
0010
0100
,  // measure 28
0010
0000
0110
1000
0001
0100
0001
1000
,  // measure 29
0010
0010
1000
1000
0001
0001
0010
0010
,  // measure 30
0100
0000
1000
0100
0000
1000
0010
0200
,  // measure 31
0000
0301
1000
1000
0001
0001
0010
0100
,  // measure 32
0110
0000
0001
0100
0000
1000
0010
0100
,  // measure 33
1000
0000
0001
0000
0000
1000
0000
0000
0110
0000
0100
0000
1000
0000
0001
0000
,  // measure 34
0010
0000
0010
0100
0001
0100
0010
1000
,  // measure 35
0000
0001
1000
0100
0000
1000
0010
0100
,  // measure 36
0011
0000
0001
0010
0100
0010
0001
1000
,  // measure 37
0010
0010
1000
1000
0001
0001
1000
0100
,  // measure 38
1010
0000
0010
0100
0001
1000
0100
1000
,  // measure 39
0000
0001
0010
0010
0100
0100
0010
0001
,  // measure 40
1010
0000
1000
0001
1000
0010
0100
0001
,  // measure 41
0000
1100
0000
0011
0100
0010
0100
0001
,  // measure 42
2002
0000
0000
0000
,  // measure 43
3003
0000
0000
0000
;

//---------------dance-single - ----------------
#NOTES:
     dance-single:
     :
     Medium:
     5:
     0.377,0.416,0.099,0.161,0.000:
0000
0000
0000
0000
,
0000
0000
0000
0000
,
0000
0000
0000
0000
,
0000
0000
0000
0000
,
0000
0000
0000
0000
,
2000
0000
0001
3010
,
0002
0000
0010
1003
,
0200
0000
1000
0010
,
0301
0000
1000
0000
0010
0100
0010
1000
,
0002
0000
1000
0010
,
0100
0000
0013
0000
0001
1000
0100
1000
,
0020
0000
1000
0130
,
1000
0100
1000
0010
0100
0001
0010
0100
,
1001
1000
0001
0001
0010
0000
1000
0000
,
0001
0001
1000
0010
0100
0100
0001
0001
,
1000
1000
0100
1000
0020
0000
1030
0000
,
0001
1000
0100
1000
0010
0100
0001
1000
,
0100
1000
0001
1000
,
0010
0100
0010
0100
0001
0100
0001
1000
,
0100
1000
0001
1000
,
0010
0100
0010
0100
0001
0100
0001
2000
,
0000
0000
0000
3001
0000
1000
0010
0200
,
0000
0000
0000
0301
0000
1000
0100
2000
,
0000
0000
0000
3001
0000
1000
0010
0200
,
0020
0000
0000
0330
,
1001
0000
0010
1000
0010
0100
0000
0100
,
0000
0101
0000
1001
0000
1000
0100
1000
,
0010
0000
0100
0001
1000
0100
0000
0100
,
0001
0010
0001
1000
0100
1000
0010
0000
,
1000
0000
0001
0000
1000
0010
0000
1010
,
0000
0100
0001
1000
0100
1000
0100
0000
,
1000
0000
0010
0000
0100
0010
0000
1010
,
0000
0100
0001
0000
1000
0001
1000
0001
,
1000
0000
0010
0100
0001
0100
0000
0001
,
0000
1000
0000
1010
0000
0100
1000
0010
,
0100
0000
0001
0100
0001
0010
0000
1000
,
0001
0010
0001
1000
0010
1000
0100
0000
,
1000
0000
0001
0000
1000
0010
0000
0100
,
0000
0001
0010
0001
1000
0100
1000
0000
,
0010
0000
0100
0000
0001
0010
0000
0001
,
0000
1000
0100
1000
0010
0000
0100
0000
,
2002
0000
0000
0000
,
3003
0000
0000
0000
;

//---------------dance-single - ----------------
#NOTES:
     dance-single:
     :
     Easy:
     4:
     0.253,0.286,0.037,0.074,0.000:
0000
0000
0000
0000
,
0000
0000
0000
0000
,
0000
0000
0000
0000
,
0000
0000
0000
0000
,
0000
0000
0000
0000
,
1000
0000
0001
1000
,
0010
0100
0010
0100
,
0001
0000
1000
0001
,
1000
0100
1000
0100
,
0010
0000
0001
1000
,
0010
0100
0010
0100
,
0001
0000
1000
0100
,
0001
0100
0001
0100
,
1000
0010
1000
0010
,
0100
0100
0001
1000
,
0100
0000
1000
0001
,
0100
0100
0010
1000
,
1001
0000
0010
1000
,
0001
0001
0010
0010
,
0100
0000
0001
1000
,
0100
0100
1000
0010
,
0200
0300
0010
1000
,
0200
0300
0010
0001
,
0200
0300
0001
1000
,
0200
1300
0010
0100
,
1001
1000
0010
0100
,
0001
0010
0100
0010
,
0001
1000
0100
1000
,
0010
0010
1000
1000
,
0001
1000
0010
0100
,
0001
0001
0010
0010
,
0100
0010
0001
1000
,
0100
1000
0010
0000
,
1000
0001
0100
0001
,
1000
0100
0010
0100
,
1000
0010
0100
0001
,
1000
0001
1000
0010
,
0100
0100
0001
0001
,
1000
1000
0010
0010
,
1000
0001
0010
0001
,
1000
0100
1000
0010
,
0220
0000
0000
0000
,
0330
0000
0000
0000
;

//---------------dance-single - ----------------
#NOTES:
     dance-single:
     :
     Beginner:
     1:
     0.161,0.233,0.050,0.099,0.000:
0000
0000
0000
0000
,
0000
0000
0000
0000
,
0000
0000
0000
0000
,
0000
0000
0000
0000
,
0000
0000
0000
0000
,
1000
0000
0000
0000
,
0001
0000
1000
0000
,
0010
0000
0000
0000
,
0100
0000
0001
0000
,
1000
0000
1000
0000
,
0001
0000
0001
0000
,
0010
0000
0100
0000
,
0010
0000
1000
0000
,
1001
0000
1000
1000
,
1000
0000
0010
0000
,
0100
0000
0001
0001
,
0001
0000
1000
0000
,
1001
0000
0100
0000
,
0001
0000
1000
0000
,
0100
0000
1000
0000
,
0010
0000
0100
0000
,
0110
0000
0200
0300
,
0200
0300
0200
0300
,
0200
0300
0200
0300
,
0200
0000
0300
0000
,
1000
1000
1000
0000
,
0010
0010
0010
0000
,
1000
1000
1000
0000
,
0001
0001
0001
0000
,
0100
0000
0100
0000
,
0001
0000
0001
0000
,
1000
1000
1000
0000
,
0001
0001
0001
0000
,
0010
0000
0100
0000
,
0010
0000
1000
0000
,
0001
0000
1000
0000
,
0010
0010
0010
0000
,
1000
0000
0100
0000
,
0001
0000
0100
0000
,
1000
0000
0010
0000
,
0001
0000
0100
0000
,
2002
0000
0000
3003
;
