#VERSION:0.81;
#TITLE:Mickey Mouse March(Eurobeat Version);
#SUBTITLE:;
#ARTIST:Domino;
#TITLETRANSLIT:;
#SUBTITLETRANSLIT:;
#ARTISTTRANSLIT:;
#GENRE:;
#ORIGIN:;
#CREDIT:;
#BANNER:Mickey Mouse March(Eurobeat Version).png;
#BACKGROUND:Mickey Mouse March(Eurobeat Version)-bg.png;
#PREVIEWVID:;
#JACKET:Mickey Mouse March(Eurobeat Version)-jacket.png;
#CDIMAGE:;
#DISCIMAGE:;
#LYRICSPATH:;
#CDTITLE:./CDTitles/DanceDanceRevolution 2013.png;
#MUSIC:Mickey Mouse March(Eurobeat Version).ogg;
#OFFSET:0.000;
#SAMPLESTART:45.790;
#SAMPLELENGTH:15.000;
#SELECTABLE:YES;
#BPMS:0.000=152.000;
#STOPS:;
#DELAYS:;
#WARPS:;
#TIMESIGNATURES:0.000=4=4;
#TICKCOUNTS:0.000=4;
#COMBOS:0.000=1;
#SPEEDS:0.000=1.000=0.000=0;
#SCROLLS:0.000=1.000;
#FAKES:;
#LABELS:0.000=Song Start;
#BGCHANGES:;
#KEYSOUNDS:;
#ATTACKS:
;

//---------------dance-single - ----------------
#NOTEDATA:;
#CHARTNAME:;
#STEPSTYPE:dance-single;
#DESCRIPTION:;
#CHARTSTYLE:;
#DIFFICULTY:Beginner;
#METER:2;
#RADARVALUES:0.103,0.116,0.011,0.000,0.000,65.000,1.000,0.000,0.000,0.000,0.000,0.000,0.000,0.103,0.116,0.011,0.000,0.000,65.000,1.000,0.000,0.000,0.000,0.000,0.000,0.000;
#CREDIT:;
#NOTES:
0000
0000
0000
0000
,
0000
0000
0000
0000
,
0000
0000
0000
0000
,
0000
0000
0000
0000
,
0000
0000
0000
0000
,
0001
0000
0000
0000
,
0000
0000
0000
0000
,
1000
0000
0000
0000
,
0000
0000
0000
0000
,
0001
0000
0000
0000
,
1000
0000
0000
0000
,
0010
0000
0000
0000
,
0010
0000
0000
0000
,
0001
0000
0000
0000
,
1000
0000
0000
0000
,
0010
0000
0000
0000
,
0010
0000
0000
0000
,
0100
0000
0000
0000
,
0100
0000
0000
0000
,
0100
0000
0100
0000
,
0100
0000
0100
0000
,
0010
0000
0000
0000
,
0010
0000
0000
0000
,
0010
0000
0010
0000
,
0010
0000
0010
0000
,
0001
0000
0000
0000
,
1000
0000
0000
0000
,
0010
0000
0000
0000
,
0010
0000
0010
0000
,
0010
0000
0000
0000
,
1000
0000
0000
0000
,
0001
0000
0001
0000
,
0001
0001
0001
0000
,
1000
0000
0000
0000
,
0001
0000
0000
0000
,
1000
0000
1000
0000
,
1000
1000
1000
0000
,
0010
0000
0000
0000
,
0010
0000
0000
0000
,
0100
0000
0000
0000
,
0100
0000
0100
0000
,
0100
0000
0000
0000
,
1000
0000
0000
0000
,
0001
0000
0000
0000
,
0010
0000
0010
0000
,
0010
0000
0000
0000
,
1000
0000
0000
0000
,
0010
0000
0010
0000
,
0010
0010
0010
0000
,
0001
0000
0000
0000
,
1000
0000
0000
0000
,
0010
0000
0010
0000
,
0100
0000
0100
0000
,
1001
0000
0000
0000
;

//---------------dance-single - ----------------
#NOTEDATA:;
#CHARTNAME:;
#STEPSTYPE:dance-single;
#DESCRIPTION:;
#CHARTSTYLE:;
#DIFFICULTY:Easy;
#METER:5;
#RADARVALUES:0.250,0.231,0.109,0.044,0.000,146.000,10.000,4.000,0.000,0.000,0.000,0.000,0.000,0.250,0.231,0.109,0.044,0.000,146.000,10.000,4.000,0.000,0.000,0.000,0.000,0.000;
#CREDIT:;
#NOTES:
0000
0000
0000
0000
,
0000
0000
0000
0000
,
0000
0000
0000
0000
,
0000
0000
0000
0000
,
0000
0000
0000
0000
,
2000
0000
0000
3000
,
0001
1000
0001
1000
,
0002
0000
0000
0000
,
0003
0000
0000
0000
,
0001
0000
0001
0000
,
1000
0100
0001
0100
,
1000
0000
1000
0000
,
0001
0100
1000
0100
,
0001
0000
0001
0000
,
1000
0100
0001
0100
,
1000
0000
1000
0000
,
0002
0000
0003
0000
,
0001
0100
1000
0100
,
0001
0100
1000
0000
,
0001
0000
1000
0000
,
0010
0100
1001
0000
,
1000
0100
0001
0100
,
1000
0100
0001
0000
,
1000
1000
0001
0001
,
1000
0001
1001
0000
,
0001
0100
1000
0100
,
0001
0100
1000
0100
,
0001
0000
1000
0000
,
0010
0010
0010
0010
,
1000
0100
0001
0100
,
1000
0001
1000
0000
,
0001
0001
1000
1000
,
0001
1000
1001
0000
,
0001
0100
1000
0100
,
0001
1000
0001
0000
,
1000
1000
0001
0001
,
1001
1001
0110
0000
,
0010
0000
0100
0000
,
0010
0100
1001
0000
,
0100
0000
0010
0000
,
0100
0100
0100
0100
,
1000
0000
0001
0000
,
1000
0001
0110
0000
,
0001
0000
1000
0000
,
0010
0010
0010
0010
,
2000
0000
0000
3000
,
0001
1000
0001
1000
,
0001
0001
1000
1000
,
0001
1000
1001
0000
,
0001
0100
1000
0100
,
0001
0100
1000
0100
,
0001
0001
0001
0001
,
1000
1000
1000
1000
,
0110
0000
0000
0000
;

//---------------dance-single - ----------------
#NOTEDATA:;
#CHARTNAME:;
#STEPSTYPE:dance-single;
#DESCRIPTION:;
#CHARTSTYLE:;
#DIFFICULTY:Medium;
#METER:7;
#RADARVALUES:0.374,0.376,0.339,0.109,0.000,199.000,31.000,10.000,0.000,0.000,0.000,0.000,0.000,0.374,0.376,0.339,0.109,0.000,199.000,31.000,10.000,0.000,0.000,0.000,0.000,0.000;
#CREDIT:;
#NOTES:
0000
0000
0000
0000
,
0000
0000
0000
0000
,
0000
0000
0000
0000
,
0000
0000
0000
0000
,
0000
0000
0000
0000
,
2000
0000
3002
0000
,
1003
0100
0001
0100
,
2000
0000
3002
0000
,
1003
0000
0000
0000
,
1000
0100
1000
0000
0001
0000
0001
0000
,
0100
0001
0010
1000
,
0001
0100
0001
0000
1000
0000
1000
0000
,
0100
1000
0010
0001
,
0100
0001
0100
0000
0010
0000
0010
0000
,
1000
0010
0001
1000
,
0010
0100
0010
0000
1000
0000
0001
0000
,
0100
0010
2002
3003
,
1000
0010
1000
0001
,
2000
0010
3001
0000
,
0001
0001
1000
1000
,
0010
1000
0010
1000
0010
0000
0000
0000
,
0001
0010
0001
1000
,
0002
0010
1003
0000
,
1000
1000
0001
0001
,
0010
0001
0010
0001
0010
0000
0100
0000
,
1001
0010
0001
0010
,
1001
0100
1000
0100
,
1001
0100
0001
0010
,
0110
0110
0110
0110
,
0010
1000
0001
1000
,
0001
0100
0001
0100
0001
0000
0000
0000
,
1000
0001
1000
0000
0001
1000
0001
0000
,
1000
0010
1000
0010
1000
0000
0000
0000
,
0001
0010
1000
0001
,
1000
0100
1000
0100
1000
0000
0000
0000
,
0001
0100
0001
0000
1000
0100
1000
0000
,
0010
0100
0010
0100
0010
0000
0000
0000
,
1001
0010
1001
0000
,
0110
0110
1001
0000
,
0011
0001
0101
0100
,
0110
0110
0110
0110
,
1001
0000
1100
0010
,
0101
1000
0110
0000
,
1000
1100
0101
0001
,
0110
0110
0110
0110
,
2000
0000
3002
0000
,
1003
0100
0001
0100
,
1000
0010
1000
0000
0001
0010
0001
0000
,
0100
0010
0100
0010
0100
0000
0000
0000
,
0001
0100
0001
0000
1000
0000
1000
0000
,
0100
1000
0010
0001
,
1000
0100
1000
0000
0001
0000
0001
0000
,
1000
0001
1000
0001
1000
0000
1001
0000
,
0110
0000
0000
0000
;

//---------------dance-single - ----------------
#NOTEDATA:;
#CHARTNAME:;
#STEPSTYPE:dance-single;
#DESCRIPTION:;
#CHARTSTYLE:;
#DIFFICULTY:Hard;
#METER:11;
#RADARVALUES:0.501,0.463,0.197,0.055,0.082,298.000,18.000,5.000,0.000,0.000,0.000,0.000,0.000,0.501,0.463,0.197,0.055,0.082,298.000,18.000,5.000,0.000,0.000,0.000,0.000,0.000;
#CREDIT:;
#NOTES:
0000
0000
0000
0000
,
0000
0000
0000
0000
,
0000
0000
0000
0000
,
0000
0000
0000
0000
,
0000
0000
0000
0000
,
0010
0001
0100
0000
0001
0100
1000
0001
,
0010
1000
0100
0000
1000
0010
0001
1000
,
0010
0001
0001
0000
1000
0100
0100
0010
,
0002
0000
0000
0003
,
0010
0001
0010
0001
1000
0100
1000
0100
,
1000
0010
0100
0000
0001
0010
0100
0000
,
0010
1000
0010
1000
0001
0100
0001
0100
,
0001
0010
0100
1000
0010
0100
0001
0000
,
1000
0000
0010
0000
1000
0000
0010
0000
0100
0000
0000
0100
0000
0000
0010
0000
,
1000
0001
0100
0000
0001
1000
0010
0000
,
0100
0000
0001
0000
0100
0000
0001
0000
0010
0000
0000
0010
0000
0000
0100
0000
,
1000
0100
0010
0001
0100
0000
0110
0000
,
0010
0000
0100
0000
0001
0010
1000
0000
,
0010
0001
1000
0100
0010
0001
0100
0000
,
0100
0000
0100
0000
0100
0000
0000
0000
0010
0000
0001
1000
0000
0000
0000
0000
,
0010
0100
1000
0100
0001
0000
0000
0000
,
0010
0000
0100
0000
1000
0010
0001
0000
,
0010
1000
0001
0100
0010
1000
0100
0000
,
0010
0000
0010
0000
0010
0000
0000
0000
0100
0000
1000
0001
0000
0000
0000
0000
,
0100
0010
0001
0010
1000
0000
1100
0000
,
0001
2002
3003
0101
,
1000
0000
2002
0000
3003
0000
1000
0010
,
0001
0010
0100
1000
0001
0010
0100
1000
,
0001
0101
1010
1001
,
0010
0001
0010
0001
1000
0100
1000
0100
,
1000
0010
0001
0100
0001
0010
1000
0000
,
0001
0000
0010
0000
0100
0000
0000
0000
1000
0000
0100
0010
0000
0000
0000
0000
,
0010
1000
0100
0010
0001
0000
0000
0000
,
1000
0000
0010
0000
1000
0000
0010
0000
0100
0000
0001
1000
0000
0001
1000
0000
,
0010
1000
0100
0001
0010
0001
0100
0000
,
1000
0000
1000
0000
0100
0000
0000
0000
0010
0000
0001
0010
0000
0000
0000
0000
,
0001
0100
0010
1000
0001
0000
1000
0010
,
0001
0000
0100
0010
1000
0000
0001
0010
,
1000
0000
0010
0000
0001
0000
1000
0100
0000
0000
0000
0000
0001
0000
0010
0000
,
0100
0000
1000
0000
0010
0000
0001
1000
0000
0000
0000
0000
0000
0000
0000
0000
,
1010
0000
1010
0000
1010
0000
0001
0100
,
1000
0000
0010
0100
0001
0000
1000
0100
,
0001
0000
0100
0000
1000
0000
0001
0010
0000
0000
0000
0000
1000
0000
0100
0000
,
0010
0000
0001
0000
0100
0000
1000
0001
0000
0000
0000
0000
0000
0000
0000
0000
,
0101
0101
0101
0110
,
1000
0010
1000
0010
0100
0001
0100
0001
,
0100
1000
0010
0100
0001
0010
0100
1000
,
0010
0000
0001
0000
0100
0000
0000
0000
0010
0000
1000
0100
0000
0000
0000
0000
,
0001
0100
1000
0100
0001
0000
1001
0000
,
0001
0000
0100
0000
0001
0000
0100
0000
0010
0000
0000
0010
0000
0000
0100
0000
,
0001
1000
0010
0000
1000
0001
0100
0000
,
0010
0000
1000
0000
0010
0000
1000
0000
0100
0000
0000
0100
0000
0000
0010
0000
,
0001
0010
0100
1000
0010
0000
1001
0000
,
0110
0000
0000
0000
;

//---------------dance-double - ----------------
#NOTEDATA:;
#CHARTNAME:;
#STEPSTYPE:dance-double;
#DESCRIPTION:;
#CHARTSTYLE:;
#DIFFICULTY:Easy;
#METER:5;
#RADARVALUES:0.236,0.231,0.076,0.055,0.000,139.000,7.000,5.000,0.000,0.000,0.000,0.000,0.000,0.236,0.231,0.076,0.055,0.000,139.000,7.000,5.000,0.000,0.000,0.000,0.000,0.000;
#CREDIT:;
#NOTES:
00000000
00000000
00000000
00000000
,
00000000
00000000
00000000
00000000
,
00000000
00000000
00000000
00000000
,
00000000
00000000
00000000
00000000
,
00000000
00000000
00000000
00000000
,
00000200
00000000
00000000
00000300
,
00010000
00001000
00010000
00001000
,
02000000
00000000
00000000
00000000
,
03000000
00000000
00000000
00000000
,
00010000
01000000
10000000
01000000
,
00010000
01000000
10000000
00000000
,
00010000
00000000
00001000
00000000
,
00000001
00000001
00001000
00000000
,
00001000
00000100
00000001
00000100
,
00001000
00000100
00000001
00000000
,
00001000
00000000
00010000
00000000
,
00022000
00000000
00000000
00033000
,
00010000
01000000
10000000
01000000
,
00010000
01000000
10000000
00000000
,
00010000
00000000
00001000
00000000
,
00100000
00010000
00000010
00000000
,
00001000
00000100
00000001
00000100
,
00001000
00000100
00000001
00000000
,
00001000
00000000
00010000
00000000
,
00000010
00001000
00100000
00000000
,
10000000
01100000
00000000
00100000
,
00001000
00011000
00000000
00000100
,
00000010
00000001
00000100
00001000
,
00000001
00000001
00001000
00001000
,
00000001
00000100
00001000
00000010
,
00000100
00010000
00001000
00000100
,
00000010
00000000
00100000
00000000
,
00000010
00001000
00100000
00000000
,
10000000
01000000
00010000
00100000
,
01000000
00001000
00010000
01000000
,
00100000
00000000
00000010
00000000
,
00100000
00010000
00000010
00000000
,
00000001
00000000
00001000
00000000
,
00000001
00001000
00001001
00000000
,
00000100
00000000
00001000
00000000
,
00010000
00010000
00001000
00001000
,
00010000
00000000
10000000
00000000
,
00010000
10000000
10010000
00000000
,
01000000
00000000
00010000
00000000
,
00001000
00001000
00010000
00010000
,
00200000
00000000
00000000
00300000
,
00010000
00001000
00010000
00001000
,
00000010
00000010
00000100
00000100
,
00000010
00000100
00000110
00000000
,
00001000
00000100
00000001
00000100
,
00001000
00000100
00000001
00000000
,
00001000
00000000
00010000
00000000
,
00000010
00001000
00100000
00000000
,
01100000
00000000
00000000
00000000
;

//---------------dance-double - ----------------
#NOTEDATA:;
#CHARTNAME:;
#STEPSTYPE:dance-double;
#DESCRIPTION:;
#CHARTSTYLE:;
#DIFFICULTY:Medium;
#METER:8;
#RADARVALUES:0.384,0.376,0.371,0.087,0.000,204.000,34.000,8.000,0.000,0.000,0.000,0.000,0.000,0.384,0.376,0.371,0.087,0.000,204.000,34.000,8.000,0.000,0.000,0.000,0.000,0.000;
#CREDIT:;
#NOTES:
00000000
00000000
00000000
00000000
,
00000000
00000000
00000000
00000000
,
00000000
00000000
00000000
00000000
,
00000000
00000000
00000000
00000000
,
00000000
00000000
00000000
00000000
,
00020000
00000000
00032000
00000000
,
00013000
01000000
10000000
01000000
,
00020000
00000000
00032000
00000000
,
00013000
00000000
00000000
00001010
,
00010000
00000100
00000010
00000101
,
00000001
00001100
00010000
00000110
,
00001000
00010000
01000000
10100000
,
00010000
01000000
00010000
00000000
10000000
00000000
01000000
00000000
,
00010000
01000000
00100000
11000000
,
10000000
01010000
00001000
01100000
,
00010000
00001000
00000100
00000011
,
00001000
00000100
00001000
00000000
00000001
00000000
00001001
00000000
,
00000100
00000010
00000001
00001000
,
00000200
00000010
00010300
00000000
,
00001000
00010000
10000000
10000000
,
01000000
00100000
01000000
00100000
01000000
00000000
00000000
00000000
,
00100000
01000000
10000000
00010000
,
00200000
01000000
00301000
00000000
,
00010000
00001000
00000001
00000001
,
00000010
00000100
00000010
00000100
00000010
00000000
00000100
00000000
,
00001001
01000000
00010000
00001000
,
00011000
01000000
10000000
01000000
,
00010000
00001000
00000001
00000001
,
00000110
00000110
00000110
00000110
,
00000001
00000100
00001000
00000100
,
00000001
00001000
00000001
00001000
00000001
00000000
00000000
00000000
,
00000100
00001000
00000100
00000000
00010000
00001000
00010000
00000000
,
01000000
00010000
01000000
00010000
01000000
00000000
00000000
00000000
,
10000000
01000000
00010000
01000000
,
10000000
00010000
10000000
00010000
10000000
00000000
00000000
00000000
,
00100000
00010000
00100000
00000000
00001000
00010000
00001000
00000000
,
00000100
00001000
00000100
00001000
00000100
00000000
00000000
00000000
,
00000020
00000001
00001000
00000031
,
00001000
00010000
00001000
00000000
,
00011000
00000000
01000000
00000000
10000000
00010000
10000000
00000000
,
01100000
01100000
01100000
01100000
,
00200000
10000000
00010000
10300000
,
00010000
00001000
00010000
00000000
,
00011000
00000000
00000100
00000000
00000001
00001000
00000001
00000000
,
00000110
00000110
00000110
00001010
,
00010000
00000100
00000010
00000101
,
00000001
00001100
00010000
00000110
,
00000010
00001000
00000010
00000000
00010000
00001000
00010000
00000000
,
00100000
00010000
00100000
00010000
00100000
00000000
10000000
00000000
,
00010000
01000000
00100000
11000000
,
10000000
01010000
00001000
01100000
,
00010000
00001000
00000100
00000011
,
00001000
00000100
00001000
00000000
00000001
00000100
00000001
00000000
,
00000110
00000000
00000000
00000000
;

//---------------dance-double - ----------------
#NOTEDATA:;
#CHARTNAME:;
#STEPSTYPE:dance-double;
#DESCRIPTION:;
#CHARTSTYLE:;
#DIFFICULTY:Hard;
#METER:11;
#RADARVALUES:0.488,0.492,0.207,0.033,0.109,291.000,19.000,3.000,0.000,0.000,0.000,0.000,0.000,0.488,0.492,0.207,0.033,0.109,291.000,19.000,3.000,0.000,0.000,0.000,0.000,0.000;
#CREDIT:;
#NOTES:
00000000
00000000
00000000
00000000
,
00000000
00000000
00000000
00000000
,
00000000
00000000
00000000
00000000
,
00000000
00000000
00000000
00000000
,
00000000
00000000
00000000
00000000
,
00010000
00001000
00010000
00000000
00100000
10000000
01000000
00000000
,
00001000
00010000
00001000
00000000
00000010
00000001
00000100
00000000
,
00001000
00010000
01000000
00000000
00100000
00010000
00001000
00000000
,
00000200
00000000
00000000
00000300
,
00000010
00000000
00000001
00000000
00000010
00000000
00000001
00000000
00000100
00000000
00000000
00000100
00000000
00000000
00000010
00000000
,
00000100
00001000
00010000
00000000
00001000
00100000
01000000
00000000
,
10000000
00000000
00100000
00000000
10000000
00000000
00100000
00000000
01000000
00000000
00000000
01000000
00000000
00000000
00010000
00000000
,
10000000
01000000
00100000
00010000
01000000
00100000
00010000
00000000
,
00001000
00000000
00100000
00000000
00001000
00000000
00100000
00000000
00010000
00000000
00000000
00010000
00000000
00000000
00001000
00000000
,
00000100
00001000
00000001
00000000
00000100
00000001
00000010
00000000
,
00000100
00000000
00001000
00000000
00000100
00000000
00001000
00000000
00000001
00000000
00000000
00000001
00000000
00000000
00000100
00000000
,
00001000
00010000
00100000
01000000
00100000
00000000
01100000
00000000
,
00100000
10000000
00100000
00000000
00100000
00010000
00100000
00000000
,
10000000
00100000
00010000
00100000
10000000
00000000
00010000
00000000
,
10000000
00000000
10000000
00000000
01000000
00000000
00000000
00000000
00010000
00000000
00001000
01000000
00000000
00000000
00000000
00000000
,
00010000
00001000
00000100
00000001
00001000
00000000
00000000
00000000
,
00000100
00000001
00000100
00001000
00000100
00000001
00000100
00001000
,
00000001
00000100
00001000
00000100
00000001
00000000
00001000
00000000
,
00000001
00000000
00000001
00000000
00000001
00000000
00000000
00000000
00000100
00000000
00001000
00010000
00000000
00000000
00000000
00000000
,
00001000
00100000
00010000
10000000
00010000
00000000
11000000
00000000
,
10020000
00030100
00000000
00000101
,
00002001
00000000
01003000
00000000
00000000
00000000
00010000
00001000
,
00010000
00100000
01000000
00010000
00100000
01000000
10000000
00010000
,
01010000
00011000
00001100
00001001
,
00000010
00000000
00000001
00000000
00000010
00000000
00000001
00000000
00001000
00000000
00000100
00010000
00000000
00001000
00010000
00000000
,
00000010
00001000
00000001
00000100
00000010
00000000
00000100
00000000
,
00001000
00000000
00010000
00000000
01000000
00000000
00000000
00000000
00010000
00000000
00001000
00000100
00000000
00000000
00000000
00000000
,
00001000
00010000
01000000
10000000
00100000
00000000
00000000
00000000
,
00100000
00000000
10000000
00000000
00100000
00000000
10000000
00000000
00010000
00000000
01000000
00001000
00000000
00010000
00001000
00000000
,
00100000
00010000
10000000
01000000
00100000
00000000
01000000
00000000
,
00010000
00000000
00001000
00000000
00000100
00000000
00000000
00000000
00001000
00000000
00010000
01000000
00000000
00000000
00000000
00000000
,
00010000
00001000
00000100
00000001
00000010
00000000
00000001
00000010
,
00001000
00000000
00000001
00000100
00001000
00000000
00000001
00000010
,
00000100
00000000
00000010
00000000
00000001
00000000
00001000
00000100
00000000
00000000
00000000
00000000
00001000
00000000
00001000
00000000
,
00000001
00000000
00000100
00000000
00001000
00000000
00010000
00001000
00000000
00000000
00000000
00000000
00000000
00000000
00000000
00000000
,
00001100
00000000
00011000
00000000
01010000
00000000
00010000
01000000
,
10000000
00000000
10000000
00100000
00010000
00000000
00010000
00100000
,
01000000
00000000
00010000
00000000
10000000
00000000
00010000
00100000
00000000
00000000
00000000
00000000
00010000
00000000
00010000
00000000
,
10000000
00000000
01000000
00000000
00010000
00000000
00001000
00010000
00000000
00000000
00000000
00000000
00000000
00000000
00000000
00000000
,
01010000
00011000
00001100
00001001
,
00000100
00000000
00000001
00000000
00000100
00000000
00000001
00000000
00000010
00000000
00000000
00000010
00000000
00000000
00000100
00000000
,
00000010
00001000
00010000
00000000
00001000
00010000
01000000
00000000
,
00010000
00000000
00001000
00000000
00000100
00000000
00000000
00000000
00001000
00000000
00010000
01000000
00000000
00000000
00000000
00000000
,
00010000
00001000
00000100
00000001
00000010
00000000
00000110
00000000
,
00000100
00000000
00010000
00000000
00000100
00000000
00010000
00000000
00001000
00000000
00000000
00001000
00000000
00000000
00010000
00000000
,
00001000
01000000
00100000
00000000
10000000
00010000
01000000
00000000
,
00100000
00000000
10000000
00000000
00100000
00000000
10000000
00000000
00010000
00000000
00000000
00010000
00000000
00000000
00001000
00000000
,
00000100
00000010
00000001
00001000
00000001
00000000
00001001
00000000
,
00000110
00000000
00000000
00000000
;

//---------------dance-single - ----------------
#NOTEDATA:;
#CHARTNAME:;
#STEPSTYPE:dance-single;
#DESCRIPTION:;
#CHARTSTYLE:;
#DIFFICULTY:Challenge;
#METER:14;
#RADARVALUES:0.665,0.682,0.590,0.131,0.464,360.000,54.000,12.000,128.000,0.000,0.000,0.000,0.000,0.665,0.682,0.590,0.131,0.464,360.000,54.000,12.000,128.000,0.000,0.000,0.000,0.000;
#CREDIT:;
#NOTES:
// measure 0
0000
0000
0000
0000
,  // measure 1
0000
0000
0000
0000
,  // measure 2
0000
0000
0000
0000
,  // measure 3
0000
0000
0000
0000
,  // measure 4
0000
0000
0000
0000
,  // measure 5
1000
0000
1000
0000
0001
0100
0000
0001
0000
1000
0000
0010
0100
0000
0000
0100
,  // measure 6
0010
0000
1000
0000
0001
0010
0000
0001
0000
0100
0000
0010
1000
0000
0000
1000
,  // measure 7
0001
0000
0100
0000
0010
1000
0000
0001
0000
0010
0000
0100
1000
0000
0001
0000
,  // measure 8
0210
0000
1000
0000
1300
0010
0000
0000
1000
0000
MMMM
0000
1000
0010
1000
0010
,  // measure 9
0100
0000
0001
0000
0100
0000
1000
0000
0100
0000
0010
0100
0000
0100
0010
0000
,  // measure 10
MMMM
0000
0100
0000
0010
0001
0000
1000
0001
0000
0100
0001
0000
1000
0001
0000
,  // measure 11
MMMM
0000
0010
0000
1000
0000
0010
0000
0001
0000
0010
0100
0000
0100
0010
0000
,  // measure 12
MMMM
0100
0010
0001
0010
0000
1001
0000
,  // measure 13
MMMM
0000
0010
0000
1000
0000
0010
0000
0001
0000
0010
0100
0000
0100
0010
0000
,  // measure 14
MMMM
0000
0100
0000
1000
0010
0000
1000
0001
0000
1000
0100
0000
1000
0010
0000
,  // measure 15
MMMM
0000
0010
0000
1000
0000
0010
0000
0001
0000
0010
1000
0000
0100
0010
0000
,  // measure 16
MMMM
0000
1000
0000
0100
0010
0000
0100
0010
0000
MMMM
0000
1001
0000
MMMM
0000
,  // measure 17
1000
0000
0010
0000
0100
0000
0010
0000
0001
0000
0010
0200
0000
0000
0310
0000
,  // measure 18
1000
0100
0001
0100
1000
0010
0110
0000
,  // measure 19
1001
0000
0010
0000
1001
0000
0000
0000
0110
0000
1000
0100
0000
0000
0010
0000
,  // measure 20
0011
0000
0100
0000
0011
0000
0100
0000
1100
0000
0001
1000
0000
1000
0010
0100
,  // measure 21
0001
0000
0100
0000
0010
0000
0100
2000
0000
0000
3100
0000
0010
0000
0001
0000
,  // measure 22
0010
0000
1000
0000
0010
0000
0100
0000
0010
1000
0100
1000
0001
0000
MMMM
0000
,  // measure 23
0110
0000
0001
0000
0110
0000
0000
0000
1001
0000
0100
0001
0000
0000
0010
0000
,  // measure 24
1010
0100
1010
0100
0101
0000
0010
0010
,  // measure 25
1000
MMMM
0202
0000
0303
MMMM
1000
1000
,  // measure 26
0010
0000
1000
0000
0001
0100
0010
1000
0000
0100
1000
0001
0100
0010
0100
0000
,  // measure 27
0010
0010
1000
1000
MMMM
0100
0010
0001
,  // measure 28
2000
0010
0000
0000
3020
0100
0000
0000
0230
0001
0000
0000
0301
1000
0000
0000
,  // measure 29
1100
0000
0010
0000
0001
0000
0100
0000
0010
0000
1000
0100
1000
0000
0010
0000
,  // measure 30
0100
0000
0001
0000
0010
0000
0001
0000
0100
0010
0000
0100
0000
0010
1000
0001
,  // measure 31
0010
0000
0010
0000
0110
0000
0000
0000
0110
0000
1000
0001
0000
0000
MMMM
0000
,  // measure 32
0110
1000
0110
0001
0110
0000
MMMM
0000
,  // measure 33
0101
0000
1000
0000
0010
0000
0100
0000
0001
0000
0010
0001
1000
0000
0010
0000
,  // measure 34
0100
0000
0001
0000
0010
0000
0100
0000
1000
0010
0000
0100
0000
0001
1000
0010
,  // measure 35
0100
0000
0100
0000
0110
0000
0000
0000
1100
0000
0001
0010
0000
0000
MMMM
0000
,  // measure 36
1100
0001
1100
0010
0011
0000
0001
0100
,  // measure 37
0110
MMMM
0001
1000
1010
MMMM
0100
0001
,  // measure 38
0101
0000
0100
0000
0001
0000
0010
0001
0000
0000
MMMM
0000
0010
0000
1000
0000
,  // measure 39
0101
0000
1000
0000
0010
0000
1000
0200
0000
0000
0300
0000
MMMM
0000
0000
0000
,  // measure 40
1001
0000
0101
0000
0011
0000
0101
0001
,  // measure 41
1001
MMMM
1001
1000
1010
MMMM
0110
0010
,  // measure 42
1010
0000
0100
0000
0001
0000
0010
0100
0000
0000
MMMM
0000
1100
0000
1000
0000
,  // measure 43
1001
0000
0100
0000
0010
0000
0100
0002
0000
0000
0100
0000
0100
0000
0103
0000
,  // measure 44
0110
1001
0110
1001
,  // measure 45
MMMM
0000
0010
0000
0010
0000
0010
0000
0100
0000
0001
0100
0000
1000
0100
0000
,  // measure 46
MMMM
0000
1000
0000
0100
0010
0000
0001
0010
0000
0100
1000
0000
0001
0100
0000
,  // measure 47
MMMM
0000
1000
0000
1000
0000
1000
0000
0010
0000
0100
0001
0000
0001
1000
0000
,  // measure 48
MMMM
0100
0100
0100
0110
0000
1001
0000
,  // measure 49
MMMM
0000
0001
0000
0001
0000
0001
0000
0010
0000
0001
0100
0000
1000
0100
0000
,  // measure 50
MMMM
0000
1000
0000
0100
0010
0000
0010
1000
0000
0001
0100
0000
0100
0010
0000
,  // measure 51
MMMM
0000
1000
0000
1000
0000
1000
0000
0010
0000
0000
0100
0000
0000
0110
0000
,  // measure 52
MMMM
0000
0010
0000
0000
0100
0000
0000
1001
0000
0000
0000
0110
0000
0000
0000
,  // measure 53
2002
0000
0000
0000
,  // measure 54
0000
0000
0000
0000
,  // measure 55
0000
0000
0000
0000
,  // measure 56
0000
0000
0000
3003
;
