#TITLE:Material;
#SUBTITLE:;
#ARTIST:Tatsh;
#TITLETRANSLIT:;
#SUBTITLETRANSLIT:;
#ARTISTTRANSLIT:;
#GENRE:Symphonic Metal;
#CREDIT:DvF;
#BANNER:tatsh_material - banner.png;
#BACKGROUND:tatsh_material - BG.png;
#LYRICSPATH:;
#CDTITLE:;
#MUSIC:tatsh_image_material.mp3;
#OFFSET:0.000000;
#SAMPLESTART:100.045609;
#SAMPLELENGTH:12.000000;
#SELECTABLE:YES;
#BPMS:0.000000=130.000000
,49.000000=260.000000
;
#STOPS:
;
#BGCHANGES:;
#KEYSOUNDS:;
#ATTACKS:;

//---------------dance-single - ----------------
#NOTES:
     dance-single:
     :
     Beginner:
     5:
     0.345836,0.372571,0.163107,0.291876,0.000000,229.000000,19.000000,34.000000,0.000000,4.000000,0.000000,0.345836,0.372571,0.163107,0.291876,0.000000,229.000000,19.000000,34.000000,0.000000,4.000000,0.000000:
0000
0000
0000
0000
,
0000
2002
0000
0000
,
0000
3023
0000
0000
,
0000
0230
0000
0000
,
0000
2302
0000
0000
,
0000
3223
0000
0000
,
0000
0000
0000
0000
,
0000
0332
0000
0000
,
0000
2003
0000
0000
,
0000
3200
0000
0000
,
0000
0320
0000
0000
,
0000
0000
0030
1001
,
1001
0000
1000
0100
,
0000
0010
0001
1000
,
0000
0000
0100
1000
,
0010
0000
0001
0100
,
0000
0000
1000
0010
,
0100
0000
0001
2000
,
0000
0000
3010
0001
,
0100
0010
0010
0020
,
0000
0000
0000
1000
,
0000
0000
0100
1000
,
0100
0100
0000
1000
,
0100
1000
0100
1000
,
0000
0031
0000
0100
,
0010
0001
0011
0000
,
1000
0010
0000
0100
,
0010
0001
1000
0000
,
0000
0100
0010
0001
,
1000
0100
0010
0001
,
1000
0100
0010
0001
,
0000
1000
0100
1000
,
0010
0000
1000
0010
,
1000
0001
0010
0100
,
0010
1000
0000
0010
,
1000
0100
0001
0010
,
1000
0100
0000
0010
,
0001
1000
0100
0010
,
0001
0000
1000
1000
,
0000
1000
1000
1000
,
0001
0001
0001
0000
,
0000
1000
0000
0000
,
0010
0100
0000
0000
,
0000
0001
0001
0001
,
0000
0000
1000
1000
,
1000
0010
0000
0100
,
0000
0010
0000
0001
,
0000
1000
0000
1000
,
0000
0010
0000
0100
,
0001
0010
0000
0100
,
0000
0010
0000
0001
,
0010
0100
0000
0001
,
1000
0100
0000
0010
,
0000
0220
0000
0000
,
0000
0000
0330
0000
,
0000
0001
1000
0010
,
0000
0100
0000
0010
,
0000
1000
0000
0100
,
0000
0010
0000
0001
,
1000
0010
0000
0100
,
0000
0010
0000
0002
,
0000
0000
0000
0000
,
0000
0003
1000
0100
,
0000
0020
0000
0000
,
0030
0200
0000
0000
,
0000
0000
0000
0300
,
1000
0100
0000
0010
,
0021
0000
0000
0000
,
0230
0000
0000
0000
,
2300
0000
0000
0002
,
3000
0000
0000
0000
,
0003
2002
0000
0000
,
0000
0000
0000
0000
,
3003
0021
0030
0100
,
0000
0010
0000
0100
,
1000
0100
0000
0010
,
0000
0100
0000
0010
,
0000
0001
0000
1000
,
0100
0010
0000
0001
,
1000
0000
0000
1001
,
0000
1001
0010
0000
,
0100
0010
0000
0001
,
1000
0100
0000
0010
,
0100
1000
0000
0100
,
0010
0000
0001
0000
,
0000
2000
0000
0000
,
0000
3010
0100
0010
,
0001
0100
0000
0010
,
0000
0002
0000
2003
,
3000
0200
0300
0010
,
0001
0010
0100
0010
,
1000
0000
0110
0000
,
0000
0001
0000
1000
,
0000
0110
0000
0110
,
0000
0001
1000
0010
,
0100
0010
0000
0001
,
0000
1100
0010
0000
,
0100
0010
0000
0001
,
0000
1000
0000
0100
,
0000
0010
0000
0001
,
0000
1000
0000
0010
,
0000
0220
0000
0000
,
0000
0000
0000
0000
,
0330
1001
0000
0010
,
0000
0100
0000
0010
,
0000
0100
0000
0010
,
0000
0001
0000
1000
,
0000
2002
0000
0000
,
0000
0000
3003
0000
;

//---------------dance-single - ----------------
#NOTES:
     dance-single:
     :
     Easy:
     7:
     0.502811,0.828626,0.248953,0.472152,0.000000,326.000000,29.000000,55.000000,0.000000,4.000000,0.000000,0.502811,0.828626,0.248953,0.472152,0.000000,326.000000,29.000000,55.000000,0.000000,4.000000,0.000000:
0000
0000
0000
0000
,
0000
2020
0000
0000
,
0000
3230
0002
0000
0000
0000
0000
0000
,
0303
2020
0000
0000
,
0030
3200
0000
0000
0000
0000
0302
0000
,
2000
0003
0020
0000
0000
0000
0000
0000
,
0000
0030
0200
0000
0000
0000
0320
0000
,
0000
3032
0000
0000
0000
0000
0020
0000
,
0000
0233
0000
2000
,
0000
3300
0220
0000
0000
0000
0000
0000
,
0000
0000
0000
0000
,
0000
0330
1000
0001
1001
0000
1001
0000
,
1001
0000
0110
0000
0000
0110
0000
0110
,
0000
0110
0110
0000
0110
0110
0000
0110
,
0110
0110
0000
0001
0000
0001
0000
0001
,
0001
0001
0000
0001
0000
0000
1000
0000
,
0000
0000
0000
1000
0000
1000
1000
1000
,
0000
1000
1000
1000
0000
0000
0000
0010
,
0000
0000
0000
0100
0000
0000
0100
0000
,
0100
0000
0100
0100
0010
0000
0000
0001
,
0000
0000
0000
1000
0000
0001
0000
1000
,
0010
0000
1000
0000
0100
0000
1000
0010
,
0000
1000
0000
0001
0000
1000
0000
0010
,
0000
0100
1000
0000
0010
0000
1000
0000
,
0001
0000
0010
0100
0000
0010
0000
0001
,
0000
0010
0100
0000
0010
0000
0001
0000
,
0100
0010
0000
1000
0000
0100
0000
1000
,
0000
0100
0000
0010
0000
0000
0001
0010
,
0000
0000
0110
0000
0000
0000
0001
1000
,
0000
0001
1000
0000
0001
1000
0001
0000
,
1000
0000
0010
0100
0000
0010
0000
0100
,
0010
0100
0000
0010
0100
0010
0100
0001
,
0000
0000
1000
0000
0100
0100
0000
0100
,
0000
0010
0000
0000
0010
0000
0000
0100
,
0000
0000
0001
0000
0010
0100
0000
0010
,
0001
0000
0110
0000
0000
1000
0100
0000
,
1000
0000
0100
0010
0000
0001
0000
1000
,
0000
0000
0100
0000
0010
0001
0000
1000
,
0000
0100
0000
0000
0010
0000
0001
0000
,
0000
0020
0000
0000
0000
1000
0000
1000
,
0000
1000
0000
1000
0000
1000
0000
1000
,
0000
1000
0000
0230
0000
1000
0000
1000
,
0000
1000
0000
1000
1000
0000
1000
0300
,
0000
0001
0000
0010
0000
0100
0000
0001
,
0000
0010
0000
0000
0001
0000
0100
0000
,
0010
0001
0000
1000
,
0000
0000
0200
0000
0000
0320
0000
0000
,
0000
0030
0000
0002
0000
0000
2003
0000
,
0000
0200
3000
0320
,
0000
0032
0000
0000
0000
2000
0003
0000
,
0000
0200
3000
0000
0000
0000
0020
0300
,
0000
0000
0002
0030
0000
0000
2000
0003
,
0000
0000
0200
3000
0000
0000
0020
0300
,
0000
0000
0030
0220
0000
0000
0000
0000
,
0000
0000
0000
0000
0030
0300
0000
0000
,
0000
1000
0000
0001
0000
1000
0000
0000
,
0010
0000
0100
0000
0000
1000
0000
0000
,
0000
0100
0000
0000
0000
0010
0000
0001
,
0000
1000
0000
0000
0000
0000
0100
0000
,
1000
0100
0000
0010
,
0000
0000
0001
0010
0000
0001
0000
0010
,
0000
0001
0000
0000
0100
1000
0000
0010
,
0000
0001
0000
0000
0000
0000
1000
0000
,
0100
0000
1000
0000
0100
1000
0000
0010
,
0000
0100
0000
0000
0110
0000
0000
0001
,
0000
0010
0000
0001
0000
0010
0001
0000
,
0010
0000
0100
0000
1000
0000
0000
0100
,
1000
0020
0000
0000
,
0000
0000
2030
0000
,
0000
3200
0000
0000
,
0000
0320
0000
0000
0000
0000
0000
0000
,
0030
2002
0000
0000
0000
0000
0000
0000
,
0000
0000
0000
0000
,
3003
0000
0110
0110
0000
0110
0000
0110
,
0000
0000
0001
1000
0000
0001
0000
1000
,
0000
0001
0000
1000
0000
0010
0000
0100
,
0000
1000
0000
0010
0000
1000
0000
0001
,
0000
0010
0100
0000
0000
0001
0010
0000
,
0100
0000
0010
0001
0000
1000
0000
0100
,
0000
1000
0000
0000
0010
0000
0001
0100
,
0000
0010
0000
0001
0000
0100
0000
0010
,
0000
0001
1000
0000
0000
1000
0000
0100
,
0000
1000
0000
0100
0000
1000
0000
0100
,
0000
1000
0000
0010
0000
0100
0000
0010
,
0000
0100
0000
0010
0000
0001
0000
0010
,
0000
0001
0010
0000
0001
0000
0010
0001
,
0000
0010
0001
0000
0000
0001
1000
0001
,
1001
1000
0000
0000
0000
0010
0000
0000
,
0000
0100
0000
0000
0000
0000
0010
0000
,
0000
2002
0000
0000
0000
0000
0000
0000
,
3003
0010
0100
0000
0000
0000
0010
0000
,
0000
0100
0010
0000
0001
0000
1000
0000
,
0100
0000
0010
0001
0000
1000
0000
0100
,
0000
0020
0000
0000
,
0130
0000
1000
0000
0100
1000
0000
0100
,
0000
1000
0000
0010
0001
0000
0010
0000
,
0100
0001
1000
0001
,
0001
0020
0000
0000
,
0030
0100
0000
1000
0100
0000
1000
0001
,
0000
0020
0000
0000
0000
0230
0000
0000
,
0000
0000
0002
0300
0000
0000
2003
0000
,
0000
3200
0000
0000
,
0000
0000
0000
0300
,
0220
0000
0000
0000
,
0000
0000
0000
0000
0000
0000
0000
0330
,
0002
2000
0000
0000
0000
0000
0000
0000
,
0000
0000
0000
0000
,
0000
3003
0110
0000
0000
0000
0000
0000
;

//---------------dance-single - ----------------
#NOTES:
     dance-single:
     :
     Medium:
     9:
     0.562903,0.796729,0.257537,0.266122,0.828412,398.000000,30.000000,31.000000,0.000000,2.000000,0.000000,0.562903,0.796729,0.257537,0.266122,0.828412,398.000000,30.000000,31.000000,0.000000,2.000000,0.000000:
0000
0000
0000
0000
,
0000
2000
0000
0020
,
0000
0000
0000
0000
0000
0000
0000
0230
0000
0000
0000
0000
0000
0000
0000
0000
,
0000
0000
0000
0302
0000
0000
0000
0000
0000
0000
0000
0000
0000
0000
0000
0000
,
0000
0000
0000
0000
0000
0000
0000
0000
0000
0000
0000
3000
0003
2002
0000
0000
,
0000
0000
0000
0000
3003
0220
0000
0000
0000
0000
0000
0000
0000
0000
0000
0000
,
0000
0000
0000
0000
0000
0000
0000
0000
0000
0000
0330
0000
2000
0200
0000
0000
,
0000
0000
0000
0000
,
0000
3300
0000
0022
0000
0000
0000
0000
0000
0000
0000
0000
0000
0000
0000
0000
,
0000
0033
0022
0000
0000
0000
0000
0000
,
0000
0000
0003
0030
0220
0000
0000
0330
0000
0220
0000
0000
0000
0000
0000
0000
,
0330
0220
0000
0000
0000
0000
0000
0000
,
0000
0000
0000
0000
0000
0000
0000
0000
0330
0000
1000
0001
0000
0000
0000
1000
,
0000
0001
0000
1000
0001
1000
0001
1000
,
0001
0000
1000
0000
0001
0000
1000
0000
0000
0000
0000
0001
0000
1000
0000
0000
,
0001
0000
0000
1000
0000
0001
1000
0000
0001
0000
1000
0000
0000
0000
0110
0000
,
0000
0000
0000
0000
0000
0000
0000
0110
0000
0000
0000
0000
0000
0110
0000
0000
,
0000
0000
0110
0000
0000
0001
0000
1000
0000
0000
0000
0000
0000
0001
0000
0000
,
1000
0000
0000
0000
0000
0000
0000
0110
0000
0000
0000
0000
0000
0001
0000
0000
,
0000
0010
0000
0000
1000
0000
0000
0100
0000
0000
0000
0000
0000
0000
0000
0000
,
0000
0000
0000
0000
0000
0000
1001
0000
0000
0001
1000
0000
0000
0001
1000
0000
,
0001
1000
0000
0000
1001
0000
0000
1001
0000
0000
0001
0000
1000
0000
0000
0000
,
0001
0000
0000
0000
1000
0000
0000
0001
0000
0000
0000
1000
0000
0000
0000
0001
,
0000
0000
1000
0000
0000
0000
0001
0000
0000
0000
0000
1000
0000
0000
0000
0001
,
0000
0000
1000
0000
0000
0000
0010
0000
0000
0000
0100
0000
0000
0000
0000
0010
,
0000
0100
0000
0010
0000
0100
0000
0010
,
0000
0100
0000
0010
0000
0000
0000
0001
0000
0000
0000
0010
0000
0000
0010
0000
,
0000
0000
1000
0000
0010
0000
0000
1000
0010
0000
1000
0000
0010
1000
0000
0010
,
0000
0000
0000
0001
0000
0000
0000
0001
0000
0000
0001
0000
0000
0001
0000
0001
,
0000
0000
0001
0000
0000
0001
0000
0001
0000
0000
0001
0000
0001
0000
0000
0001
,
0000
0000
0000
1000
0000
0000
0000
1000
0000
1000
0000
1000
0000
1000
0000
0000
,
1000
0000
0000
1000
0000
1000
0000
0000
1000
0000
1000
0000
1000
0000
0000
0000
,
0100
0000
0000
0100
0000
0100
0000
0000
0100
0000
0100
0000
0100
0000
0000
0100
,
0000
0100
0000
0000
0100
0000
0000
0100
0000
0000
0000
0010
0000
0000
0000
0010
,
0000
0010
0000
0000
0010
0000
0010
0000
0000
0010
0000
0000
0010
0000
0010
0000
,
0000
0000
0001
0000
0000
0000
1000
0000
0000
0001
0000
1000
0001
0000
1000
0000
,
0000
0010
0000
0000
0100
0000
0000
0000
0010
0000
0000
0000
0100
0000
0000
0001
,
0000
0000
0000
0000
1000
0000
0000
0000
0000
0001
0000
0000
1000
0000
0000
0000
,
0010
0000
1000
0000
0000
0100
0000
0000
0100
0000
0000
0000
0100
0000
0000
0000
,
0000
0100
0000
0000
0010
0000
0000
0000
0000
0001
0000
0000
1000
0000
0000
0001
,
0000
0000
1000
0000
0000
0010
0000
0000
0100
0000
0000
1000
0000
0000
0000
0001
,
0000
0000
0000
1000
0000
0000
0010
0000
0000
0000
0000
0000
0100
0000
1000
0000
,
0000
0000
0100
0000
1000
0000
0000
0010
0000
0000
0000
0110
0000
0000
0000
0010
,
0000
0000
0100
0000
0000
0010
0000
0000
0100
0000
0000
0010
0100
0000
0000
0001
,
0000
0000
1000
0000
0010
0000
0100
0000
0000
1000
0000
0000
0100
0000
0000
1000
,
0000
0000
0000
0100
0000
0000
0000
0000
0000
0000
0001
0000
0000
0000
0000
0000
,
0000
0000
0010
0000
0000
0000
0000
0000
0000
0100
0000
0000
0000
0000
1000
0000
,
0100
0000
0000
1000
0100
0000
0000
0000
0000
0000
0010
0000
0000
0000
0001
0000
,
0000
0010
0000
0000
0000
0010
0000
0000
0010
0000
0000
0001
0000
0000
0000
0010
,
0000
0000
0010
0000
1000
0000
0000
0000
0000
0100
0000
1000
0000
0100
0000
1000
,
0100
0000
1000
0000
0000
0000
0000
0000
0010
0000
0000
0010
0000
0000
0010
0000
,
0000
0000
0100
0000
0000
0100
0000
0000
0100
0000
0000
0100
0000
0001
0000
0000
,
0000
1000
0000
0000
0001
1000
0000
0001
1000
0000
0001
1000
0000
0000
0000
0010
,
0000
0000
0100
0000
0000
0010
0100
0000
0100
0000
0010
0100
0000
0010
0100
0010
,
0000
0002
0000
0000
0000
0000
0000
0000
,
0000
0000
0003
1000
0000
0000
0000
0100
0000
0000
1000
0000
0100
0000
0000
0000
,
0000
0000
0010
0000
0000
0000
0000
0001
0000
0000
0000
0000
0010
0000
0000
0000
,
0010
0000
0010
0000
0000
0001
0000
1000
,
0000
0000
0100
0000
0000
0000
0010
0000
0000
0001
0000
0000
0000
0100
0000
0000
,
1000
2000
0000
0000
,
3000
0000
0000
0200
0000
0000
0000
0000
0000
0000
0000
0000
0000
0000
0000
0000
,
0000
0000
0000
0300
0000
0000
0000
0010
0000
0000
0001
0000
0000
0000
0010
0000
,
1000
0000
0010
0000
1000
0000
0000
0000
0000
0000
0000
0001
0000
0000
0000
0010
,
0000
0200
0000
0000
0000
0000
0000
0320
,
0000
0000
0000
0000
,
0030
0000
0001
0000
0000
1000
0001
0000
1001
0000
1000
0001
1000
0000
0000
0000
,
0000
0000
0000
0000
0010
0000
0000
0000
0000
0000
0000
0100
0000
0000
0000
0000
,
0010
0000
0000
0000
1000
0000
0000
0000
0000
0000
0000
0010
0000
0000
0000
0000
,
0000
0000
0000
0100
0000
0000
0000
0000
0000
0000
0000
0001
0000
0000
0000
0000
,
0000
0000
0000
0200
0000
0000
0000
0000
0000
0000
0000
0000
0000
0000
0000
0000
,
0000
0000
2000
0300
0000
0000
0000
0000
0000
0000
0000
0000
0000
0000
0000
0000
,
0000
3000
0010
0000
0000
0000
0000
0000
0000
0010
0000
0000
0000
0000
0000
0000
,
0010
0000
0000
0010
0000
0000
0000
0010
0000
0000
0010
0000
0000
0010
0000
0000
,
0010
0000
0000
0010
0000
0010
0000
0000
0010
0000
0010
0000
0000
1000
0000
0000
,
0001
0000
0000
0000
1000
0000
0000
0001
0000
0000
1000
0000
0000
0000
0100
0000
,
0000
0000
0010
0000
0000
0100
0000
0000
0010
0100
0000
0000
0000
0010
0100
0000
,
0000
0110
0000
0000
0000
0000
0100
0000
0010
0000
0000
0000
0001
0000
0000
1000
,
0000
0000
0000
0110
0000
0000
0110
0000
0000
0000
0000
0001
0000
0000
1000
0000
,
0000
0000
1000
0000
0000
0000
0000
0001
0000
0000
0001
0000
0000
0001
0000
0000
,
0000
0000
0000
0011
0000
0000
0000
0000
0000
0100
1000
0000
0000
0000
0000
0000
,
0000
0011
0000
0000
0000
0000
0000
0010
0000
0100
0000
0000
0000
0000
0010
0000
,
0100
0010
0100
0000
0001
0000
1000
0000
,
0100
0000
0000
1000
0000
0010
0000
0000
0000
0001
0000
0000
0000
0110
0000
0100
,
0000
0000
0000
1000
0000
0000
0000
0000
0000
0001
0000
0000
0001
0000
0000
0100
,
0000
0000
0000
0010
0000
0000
0000
0001
0000
0000
0100
0000
0000
0010
0000
0000
,
0000
0001
0000
0100
0000
0000
0000
0010
0000
0000
1000
0000
0000
0100
0000
0000
,
1000
0000
0000
0000
0100
0000
0000
1000
0000
0010
0000
0000
0000
0001
0000
0000
,
0010
0000
0000
0000
0010
0000
0000
0000
0000
0000
0000
0010
0000
0000
0000
0000
,
0000
0000
0000
0010
0000
0000
0000
0000
0000
0000
0000
0010
0000
0000
0000
0000
,
0000
0000
0000
0011
0000
0000
0000
0000
0000
0000
0000
0100
0000
0000
0000
0000
,
0000
0000
0100
0000
0000
1000
0000
0000
0000
0100
0000
1000
0000
0000
0000
0000
,
0000
0000
0100
1000
0000
0000
0000
0000
0000
0000
0010
0000
0000
0000
0000
0000
,
0000
0010
0000
0000
0000
0001
0000
0000
,
0000
0000
0100
1000
0000
0000
0000
0000
0000
0000
0010
0000
0000
0000
0000
0000
,
0000
0000
0000
0001
0010
0000
0000
0000
0000
0000
0000
0000
0000
0000
0000
0000
,
0000
0000
0000
1100
0000
0000
0000
0000
0000
0000
0000
0010
0001
0000
0000
0000
,
0000
0000
1100
0000
0000
0000
0000
0000
0000
0000
0000
0010
0000
0000
0000
0000
,
0110
0000
0000
0110
0000
0000
0000
0000
0000
0000
0000
0001
0000
0000
0000
1000
,
0000
0000
0000
0001
0000
1000
0000
0000
0000
0001
0000
0000
0000
1000
0000
0000
,
0001
0000
0000
0000
0010
0000
0000
0100
0000
0000
0000
0000
0010
0000
0000
0000
,
0000
0000
0001
0000
0000
1000
0000
0000
0001
0000
1000
0000
0000
0001
0000
0000
,
0000
0000
0000
0200
0000
0000
0000
0000
0000
0000
0000
0000
0000
0000
0000
0000
,
0000
0000
0000
0000
,
0000
0300
0000
0000
0010
0000
0000
0000
0000
0001
0000
0000
0000
1000
0000
0000
,
0100
0000
0000
1000
0000
0010
0000
0000
0000
0000
0001
0000
0000
0000
0110
0000
,
0000
0000
0000
0002
0000
0000
0000
0000
0000
0000
0000
0000
0000
0000
0000
0000
,
0000
0000
0000
0000
,
0003
2002
0000
0000
,
0000
0000
0000
0000
,
0000
0000
0000
3003
0000
0000
0000
0000
0000
0000
0000
0000
0000
0000
0000
0000
;

//---------------dance-single - ----------------
#NOTES:
     dance-single:
     :
     Hard:
     12:
     0.905060,1.000000,0.686766,0.309045,1.000000,621.000000,80.000000,36.000000,0.000000,2.000000,0.000000,0.905060,1.000000,0.686766,0.309045,1.000000,621.000000,80.000000,36.000000,0.000000,2.000000,0.000000:
// measure 0
0000
0000
0000
0000
,  // measure 1
0022
0000
0000
0000
,  // measure 2
0000
0000
0000
0000
0000
0000
0000
0000
0000
0000
0000
0000
0000
0000
0000
0000
0000
0000
0000
0000
0000
0000
0030
1003
,  // measure 3
0000
0000
0000
0000
0100
0000
0000
0000
0000
0000
0010
0000
0000
0000
0000
0000
0001
0000
0000
0000
0000
0010
0000
0000
,  // measure 4
0000
0000
0000
0100
0000
0000
0000
0000
0000
1000
0000
0000
0000
0000
0000
0001
0000
0000
0000
0000
0000
0000
0200
0020
,  // measure 5
0000
0000
0000
0000
0000
0000
0000
0000
0000
0000
0000
0000
0000
0000
0000
0000
0000
0000
0000
0000
0000
0030
0300
1000
,  // measure 6
0000
0000
0000
0100
0000
0000
0010
0000
0001
0000
0010
0000
0000
1000
0000
0000
0100
0000
0000
0000
0000
0000
0000
0000
,  // measure 7
0000
0022
0000
0000
0000
0000
0000
0000
0000
0000
0000
0000
0000
0000
0000
0000
0000
0000
0000
0033
0000
0000
0000
2200
,  // measure 8
0000
0000
0000
0000
0000
0000
0000
0000
0000
0000
0000
0000
0000
0000
0000
0000
0000
0000
0000
3300
0000
0000
0000
2000
,  // measure 9
0000
0000
0010
0000
0000
0000
0001
0000
0000
0000
0000
0100
0000
0000
0000
0000
0000
0010
0000
0000
0000
0000
0000
0001
,  // measure 10
0000
0000
0000
0000
0000
0100
0000
0000
0000
0000
0010
0000
0000
0000
3000
0000
0000
0000
0000
0000
0000
0000
0020
0000
,  // measure 11
0000
0000
0000
0000
0000
0000
0000
0000
0000
0000
0030
0000
,  // measure 12
1001
0000
0000
0000
0000
0000
0000
0000
1001
0000
0000
0000
0000
0001
1000
0000
0000
0001
0000
0000
0000
0000
0001
0000
,  // measure 13
1000
0000
0000
0001
0000
0000
1000
0000
0000
0001
0000
0000
0000
0000
1000
0000
0000
0000
0000
0010
0000
0000
0000
0000
,  // measure 14
0000
0100
0000
0000
0000
0000
0010
0000
0100
0000
0000
0010
0000
0100
0000
0010
0000
0100
0000
0000
0010
0100
0000
0000
,  // measure 15
0010
0100
0000
0000
0000
0000
0001
0000
0000
0000
0000
1000
,  // measure 16
0000
0000
0000
0000
0001
0000
0000
1000
0000
0000
0001
0000
1000
0000
0001
0000
0000
1000
0000
0001
0000
1000
0000
0001
,  // measure 17
0000
1000
0000
0001
0000
1000
0000
0000
0000
0000
0000
0000
0200
0000
0000
0000
0000
0000
0000
0000
0000
0000
0000
0000
,  // measure 18
0000
0300
0000
0000
0000
0010
0000
0000
0000
0010
0000
0000
0000
0001
0000
0000
0000
0000
0000
1000
0000
0010
0000
0000
,  // measure 19
0000
1000
0000
0010
1000
0000
0000
0000
0000
0000
0000
0000
0000
0000
0000
0000
0000
0000
0000
0000
0000
0000
0000
0002
,  // measure 20
0000
0000
0000
0000
0000
0000
0000
0000
0000
0000
0000
1000
,  // measure 21
0000
0000
0000
0000
0100
0000
0000
0000
0000
0010
0000
0000
0000
0000
0000
0100
0000
0000
0000
0000
1000
0000
0000
0000
,  // measure 22
0000
0000
0100
0000
0000
0000
0010
0000
0000
0000
0000
0000
0100
0000
0000
0000
0000
1000
0000
0000
0000
0000
0100
0000
,  // measure 23
0000
0000
0000
0010
0000
0000
0000
0000
0000
0000
0000
1000
0000
0000
0000
0000
0100
0000
0000
0000
0000
0010
0000
0000
,  // measure 24
0000
0000
0000
0100
0000
0000
0000
0000
1000
0000
0000
0000
0000
0100
0000
0000
0000
0000
0010
0000
0000
0000
0100
0000
,  // measure 25
0000
0000
1000
0000
0000
0000
0100
0000
0000
0000
0010
0000
0000
0000
0100
0000
0000
1000
0000
0000
0100
0000
1000
0000
,  // measure 26
0000
0100
0000
1000
0000
0100
0000
1000
0000
0000
0100
0000
1000
0000
0000
0100
0000
1000
0000
0000
0100
0000
1000
0000
,  // measure 27
0100
0000
0000
0000
0000
2003
0000
0000
0000
0000
0010
0000
0000
0000
0000
0000
0000
0000
0010
0000
0000
0000
0001
0000
,  // measure 28
0000
0000
0010
0000
0000
0000
0010
0000
0000
0000
0001
0000
0010
0000
0000
0001
0000
0010
0000
0001
0000
0010
0000
0000
,  // measure 29
0001
0010
0000
0000
0001
0000
0010
0000
0001
0000
0000
0010
0000
0001
0000
0000
0010
0000
0001
0010
0000
0000
0001
0000
,  // measure 30
0010
0000
0001
0000
0000
0010
0000
0001
0000
0010
0000
0000
0001
0010
0000
0000
0001
0000
0010
0000
0000
0001
0010
0000
,  // measure 31
0000
0001
0000
0010
0000
0001
0000
0000
0010
0000
0000
0000
0100
0000
0000
0010
0000
0000
0100
0000
0000
0010
0000
0100
,  // measure 32
0000
0010
0000
0100
0000
0000
0010
0000
0100
0000
0010
0000
0100
0000
0000
0010
0000
0100
0000
0000
0010
0000
0100
0000
,  // measure 33
0010
0000
0100
0000
0000
0010
0000
0100
0000
0010
0000
0000
0000
0000
0100
3000
0000
0000
0000
0100
0000
0000
1000
0000
,  // measure 34
0000
0100
1000
0000
0100
0000
1000
0000
0100
0000
1000
0000
0100
0000
1000
0000
0100
1000
0000
0000
0100
1000
0000
0000
,  // measure 35
1100
0000
0000
0000
1100
0000
0000
1000
0000
0002
0000
0000
0000
0000
0000
0000
0000
0000
0000
0000
0000
0000
0000
0000
,  // measure 36
0000
1000
0000
0000
0100
0000
0000
1000
0000
0100
0000
1000
0000
0000
0000
0100
0000
1000
0000
0000
0100
0000
1000
0000
,  // measure 37
0000
0100
0000
1000
0000
0000
0000
0100
0000
1000
0000
0000
0100
0000
1000
0000
0000
0000
1000
0000
0000
0100
0000
1000
,  // measure 38
0000
0000
0100
0000
1000
0000
0000
1000
0000
0000
0200
0000
0000
0000
0000
0000
0000
0003
0300
0000
0010
0000
0000
0000
,  // measure 39
0000
0000
0000
0000
0000
0000
0000
0010
0000
0000
0100
0000
,  // measure 40
0001
0000
1000
0000
0000
0101
0000
0000
0000
1000
0000
0000
0001
0100
0000
0000
1000
0000
0000
0000
0101
0000
0000
1000
,  // measure 41
0000
0000
0010
0000
0100
0000
1000
0000
0100
0001
0000
0000
0000
1000
0000
0000
0101
0000
0000
1000
0000
0000
0101
0000
,  // measure 42
0000
0000
0000
0010
0000
0000
0101
0000
0000
0000
1000
0000
0000
0110
0000
0000
0000
1000
0000
0110
0000
0000
0000
0010
,  // measure 43
0000
0000
0000
0101
0000
0000
0000
0000
1010
0000
0000
0000
0000
0000
0110
0000
0000
0000
0000
0000
0000
0101
0000
0000
,  // measure 44
0000
0000
0001
0000
0010
0000
0000
0000
0000
0000
0110
0000
0000
0000
0000
0000
1000
0000
0000
0000
0100
0010
0000
0000
,  // measure 45
0010
0000
0000
0000
0000
0101
0000
0000
0000
0001
0100
0000
0000
0000
0010
0000
0000
0000
0000
1000
0000
0100
0000
0000
,  // measure 46
0000
0000
1000
0000
0000
0100
0000
0000
1000
0000
0000
0010
0000
0000
0000
0000
0001
0000
0000
0000
0000
0010
0000
0000
,  // measure 47
0000
1000
0000
0000
0100
0000
0000
1000
0000
0100
0000
0000
1000
0100
0000
0000
1000
0000
0100
0000
0000
0010
0000
0000
,  // measure 48
0000
0000
0001
0000
0000
0000
0000
0010
0000
0000
0000
0100
0000
0000
0010
0000
0000
0100
0000
0010
0000
0000
0100
0001
,  // measure 49
0000
0000
0000
0000
0010
0000
0000
0001
0000
0000
0010
0000
0001
0000
0000
0010
0000
0001
0000
0000
0000
0000
1000
0000
,  // measure 50
0000
0100
0000
0000
0000
1000
0000
0100
0000
0000
1000
0000
0100
0000
0000
1000
0000
0000
0100
0000
0000
0010
0000
0000
,  // measure 51
0000
0000
0110
0000
0000
0000
0110
0000
0000
0100
0010
0000
0000
0110
0000
0000
0000
1001
0000
0000
0000
0000
1000
0001
,  // measure 52
0000
0000
1000
0000
0001
0000
1000
0010
0000
0000
0000
0000
0110
0000
0000
0000
0110
0000
0000
0000
0000
1000
0000
0000
,  // measure 53
0001
0000
1000
0000
0000
0001
0000
1000
0000
0000
0100
0000
0010
0000
0101
0000
0010
0000
0000
0000
0101
0000
0010
0000
,  // measure 54
0000
0000
0000
0000
0000
0000
0000
0000
0000
0001
1000
0000
0000
0000
0000
0000
0000
0000
0000
0000
0110
0000
0000
0100
,  // measure 55
0010
0000
0000
0000
0110
0000
0000
0000
0110
0000
0000
0000
0110
0000
0000
0000
0001
0000
0000
1000
0000
0000
0000
0001
,  // measure 56
0000
2000
0000
0000
0000
0002
0000
0000
0000
0000
0000
0000
0000
0000
0000
0000
0000
0000
0000
0000
0000
0003
0000
0000
,  // measure 57
0000
0000
0000
0000
3000
0010
0000
0000
0000
0000
0010
0000
0000
0000
1000
0000
0100
0000
0000
0000
1000
0000
0100
0000
,  // measure 58
0000
1000
0000
0000
0000
0001
0000
0000
0000
0000
0000
0000
0010
0000
0000
0000
0000
0010
0000
0000
0100
0000
0000
0000
,  // measure 59
0200
0000
0000
0000
0000
0000
0000
0000
0000
0000
0010
0000
0000
0000
0000
0000
0000
0000
0000
0000
0000
0001
0000
0000
,  // measure 60
0000
0000
0000
0000
1000
0000
0000
0000
0010
0000
1000
0000
0000
0010
0000
1000
0000
0010
0000
0000
1000
0000
0000
0010
,  // measure 61
0000
0000
0000
0000
0000
0000
0001
0000
0000
0000
0000
1000
0000
0000
0000
0001
0000
0000
0000
1000
0000
0000
0000
0001
,  // measure 62
0000
0000
0000
0000
0000
0000
0000
0000
0020
0300
0000
0000
0000
0000
0000
0000
0000
0000
0000
0000
0000
0000
0100
0000
,  // measure 63
0000
0000
0000
0000
0000
1000
0000
0000
0000
0001
0000
0000
0000
1000
0000
0000
0001
0000
0000
0000
0100
0000
0000
0001
,  // measure 64
0000
0000
0100
0000
0000
0001
0000
0100
0000
0000
0000
0000
0000
0000
0000
0000
0000
1000
0000
0000
0000
0000
0000
1000
,  // measure 65
0000
0000
0000
0000
0000
0000
0000
0000
0000
0030
2000
0000
0000
0000
0000
0000
0000
0100
0000
0000
0000
3000
0000
0100
,  // measure 66
0000
0000
0000
0000
0001
0000
0000
0000
0000
0000
0010
0000
0000
0000
0001
0000
0000
0000
0000
0101
0000
0000
0000
0000
,  // measure 67
0002
0000
0000
0000
0000
0000
0000
0000
0000
0000
0003
0000
2000
0000
0000
0000
0000
0000
0000
0000
0000
0000
0200
3000
,  // measure 68
0000
0000
0000
0000
0000
0000
0000
0020
0300
0000
0000
0000
0000
0000
0000
0000
0000
0032
0000
0000
0000
0000
0000
0000
,  // measure 69
0000
0000
0000
0000
0000
2000
0000
0000
0003
0000
0000
0000
0000
0000
0000
0000
0100
0000
0000
0000
0000
3000
0020
0000
,  // measure 70
0000
0000
0000
0000
0000
0000
0000
0000
0000
0002
0030
0000
0000
0000
0000
0000
0000
0000
0000
0000
2000
0003
0000
0000
,  // measure 71
0000
0000
0000
0000
0000
0000
0000
0000
0200
0000
0000
0000
0000
3020
0000
0000
0000
0000
0000
0000
0000
0000
0000
0000
,  // measure 72
0000
0000
0000
0000
,  // measure 73
0000
0000
0000
0030
0300
0000
0000
0000
1001
0000
0000
0000
0000
0110
0000
1000
0000
0000
0110
0000
0000
1000
0000
0110
,  // measure 74
0000
0000
0000
1000
0000
0001
0000
0000
1000
0000
0000
0000
0101
0000
0000
1000
0000
0101
0010
0000
0000
1000
0000
0000
,  // measure 75
0111
0000
0000
0000
1000
0000
0101
0000
0000
0010
0000
0000
0000
0010
0000
0000
1000
0000
0000
0000
0100
0000
0000
0000
,  // measure 76
1000
0000
0000
0101
0000
0000
0000
0010
0000
0001
0000
0000
0000
1000
0010
0000
0000
0000
0100
0000
0000
0000
1000
0000
,  // measure 77
0000
0000
0001
0000
0100
0000
1000
0000
0100
0000
0000
0000
0000
0100
0000
0010
0000
0000
0001
0000
0000
0000
0010
0000
,  // measure 78
0000
0000
0000
0000
0100
0000
0010
0000
0000
0000
0000
0000
0100
0000
0000
0000
1000
0000
0000
0001
0000
0000
0000
0010
,  // measure 79
0000
0000
0100
0000
0000
1000
0000
0000
0010
0000
0000
0000
0000
0000
0100
0000
0000
0010
0000
0001
0000
0000
0000
0000
,  // measure 80
1000
0000
0000
0010
0000
0000
0000
1000
0000
0000
0100
0000
0000
0000
0010
0000
0001
0000
0000
0000
1000
0000
0000
0010
,  // measure 81
0000
0000
0000
0100
0000
0000
0000
0000
0001
0000
0000
0000
0100
0000
0000
0000
0000
0001
0000
0000
0100
0000
0000
0001
,  // measure 82
0000
0100
0000
0000
0000
0000
0010
1000
0000
0000
1100
0000
0000
0000
1010
0000
0000
0000
0100
0000
1000
0010
0000
0000
,  // measure 83
0000
0100
0000
0000
0000
0000
0001
0000
0000
0100
0000
0000
0000
0010
0000
0000
0001
0100
0000
0000
0000
1000
0000
0000
,  // measure 84
0010
0000
0000
0000
0100
0000
0000
0010
0000
0000
0001
0000
0000
0000
1000
0000
0010
0000
0000
0000
0000
0000
0000
0011
,  // measure 85
0000
0000
0000
0000
0000
0000
0000
0000
0000
1100
0000
0000
0000
0000
0000
0000
0000
0000
0000
0000
0011
0000
0000
0000
,  // measure 86
0000
0000
0000
0000
0000
0011
0000
0000
0000
0011
0000
0000
0000
0011
0000
0000
0000
0011
0000
0000
0011
0000
0000
0010
,  // measure 87
0100
0000
0000
1000
0000
0000
0100
0000
1000
0000
0000
0100
0000
1000
0000
0100
0000
1000
0000
0100
0010
0000
1000
0000
,  // measure 88
0110
0000
0000
0000
0110
0000
0000
0110
0000
0000
0000
0110
0000
0000
0100
0010
0000
0000
0001
0000
1000
0000
0000
0001
,  // measure 89
0000
1000
0000
0001
0000
1000
0000
0001
0000
1000
0000
0000
0000
0110
0000
0000
0110
0000
0000
0000
0110
0000
0000
0110
,  // measure 90
0000
0000
0000
0001
0000
1000
0000
0000
0001
0000
0000
1000
0001
0000
0000
1000
0000
0000
0110
0000
0000
0000
0000
0000
,  // measure 91
0110
0000
0000
0110
0000
0000
0000
0001
0000
1000
0000
0000
0001
0000
0000
1000
0000
0000
0001
0000
0000
1000
0000
0110
,  // measure 92
0000
0000
0000
0010
0000
0000
0100
0000
0000
0001
0000
0000
0000
0000
0110
0000
0000
0001
0000
0000
0010
1000
0000
0011
,  // measure 93
0000
0000
0000
0000
0000
0000
1000
0001
0000
0000
0000
0000
1000
0000
0000
0100
0000
1000
0000
0000
0100
0000
0000
1000
,  // measure 94
0000
0010
0000
0000
0000
0000
0000
0000
0001
0000
0100
0000
0000
0000
0000
0000
0000
1000
0000
0000
0100
0000
0000
1000
,  // measure 95
0000
0000
0000
0100
0000
0000
0000
1000
0000
0000
0100
0000
1000
0000
0000
0100
0000
1000
0000
0000
0100
1000
0000
0000
,  // measure 96
0000
0010
0000
0000
0000
0000
0002
0000
0000
0000
0000
0000
0000
0000
0100
0003
0000
0000
0000
0000
0010
0000
0000
0000
,  // measure 97
0000
0000
0001
0100
0000
0000
0000
0000
0100
0000
0000
0000
0000
0000
0010
0000
0000
0000
0100
0000
0000
0000
0001
0000
,  // measure 98
0000
0000
1100
0000
0000
0000
0000
0010
0000
0000
0000
0100
0000
0000
0000
1000
0000
0000
0001
0000
0100
0000
0000
0000
,  // measure 99
0000
0010
0000
0000
0001
0000
0000
0000
1000
0000
0010
0000
0000
0000
0000
0000
0100
0000
0000
0000
0000
0010
0000
0000
,  // measure 100
0001
0000
0000
0000
1000
0000
0000
0100
0000
0000
0000
0010
0100
0000
0000
0000
0000
0001
0000
0000
0000
0000
0010
0000
,  // measure 101
0000
0000
0000
0000
0000
0000
0000
0000
0000
0000
0000
0100
0000
0000
0000
1000
0000
0000
0100
0000
0000
1000
0000
0000
,  // measure 102
0000
0100
0000
0000
0000
0000
0000
0001
0000
0000
0001
0000
0000
0010
0000
0000
0000
0000
0100
0000
0000
0000
0000
0000
,  // measure 103
2002
0000
0000
0000
0000
0000
0000
0000
0000
0000
0000
0000
0000
0000
0000
0000
3003
0000
0110
0000
0000
0000
0000
0110
,  // measure 104
0000
0000
0000
0110
0000
0000
0000
0110
0000
0000
0110
0000
0000
0000
0110
0000
0000
0000
0110
0000
0000
0000
0110
0000
,  // measure 105
0000
0000
0110
0000
0000
0000
0110
0000
0000
0000
0000
0010
0000
0000
0000
0100
0000
0000
0000
0110
0000
0000
0000
0100
,  // measure 106
0000
0000
0010
0000
0100
0000
0010
0000
0000
0100
0000
0000
0001
0100
0000
0000
0001
0000
0000
1000
0000
0000
0000
0000
,  // measure 107
2002
0000
0000
0000
,  // measure 108
0000
0000
0000
0000
,  // measure 109
3003
0000
0000
0000
;
