#TITLE:Marionette;
#SUBTITLE:;
#ARTIST:Stellar;
#TITLETRANSLIT:;
#SUBTITLETRANSLIT:;
#ARTISTTRANSLIT:;
#GENRE:;
#CREDIT:wild_muses;
#BANNER:marionettebn.png;
#BACKGROUND:marionettebg.png;
#LYRICSPATH:;
#CDTITLE:;
#MUSIC:marionette.mp3;
#OFFSET:-0.907000;
#SAMPLESTART:58.599308;
#SAMPLELENGTH:12.000000;
#SELECTABLE:YES;
#BPMS:0.000000=104.000000
;
#STOPS:
;
#BGCHANGES:0.000=marionette.avi=1.000=0=0=0=StretchNoLoop====,
99999=-nosongbg-=1.000=0=0=0 // don't automatically add -songbackground-
;
#KEYSOUNDS:;
#ATTACKS:;

//---------------dance-single - ----------------
#NOTES:
     dance-single:
     :
     Hard:
     9:
     0.578640,0.637915,0.572556,0.771295,0.272082,572.000000,121.000000,163.000000,31.000000,0.000000,0.000000,0.578640,0.637915,0.572556,0.771295,0.272082,572.000000,121.000000,163.000000,31.000000,0.000000,0.000000:
// measure 0
0000
0000
0000
0000
,  // measure 1
0000
0000
0000
0000
,  // measure 2
0010
0010
0010
0010
00M1
0001
1000
1000
,  // measure 3
M200
0000
0000
0000
0300
0000
0M00
0000
0000
0000
0000
0000
0001
1000
0001
1000
,  // measure 4
0100
0100
1000
1000
002M
0000
0031
M200
,  // measure 5
0000
1300
0000
0010
0010
0010
01M0
0100
,  // measure 6
0001
1000
0001
1000
0002
0000
0203
0310
,  // measure 7
0001
1000
0000
0010
1000
0000
0100
1000
0000
0001
1000
0000
1001
0000
0000
0000
,  // measure 8
0010
0000
0010
0000
10M0
0000
1000
0000
M001
0000
0010
0100
0000
0000
0000
0100
,  // measure 9
1000
0000
0000
0100
0000
0000
1000
0000
0000
0100
0000
0000
2000
0000
0000
0000
3000
0000
0000
0000
0000
0001
0000
0000
,  // measure 10
0010
0000
0100
1000
0000
1000
0000
1000
0000
0000
0000
0000
0001
0000
0010
0000
,  // measure 11
0011
0110
1100
0000
0101
1010
0110
0000
,  // measure 12
0100
0000
1000
0000
0001
0000
0010
0000
0001
0000
0010
0100
0000
0000
0000
0001
,  // measure 13
0010
0100
1000
0010
2000
0000
3000
M001
,  // measure 14
0010
0000
1000
1000
0000
0010
0000
0001
0000
0000
0000
0000
0100
0000
0010
0000
,  // measure 15
1001
0110
0110
0000
1100
1100
0001
0001
,  // measure 16
2200
0000
0000
3300
0022
0000
0000
0033
0000
0000
0000
0000
1000
0000
0010
0000
,  // measure 17
0202
0000
0000
0303
2020
0M0M
0000
3030
0000
0000
0000
0000
0000
0000
0001
0000
,  // measure 18
0001
0000
0010
0100
0000
1000
0000
1000
0000
0000
0000
0000
0000
0000
0010
0000
,  // measure 19
0010
0000
0001
0010
0000
1000
0000
0100
0000
0001
0010
0100
0000
0000
0000
0000
,  // measure 20
M2M2
0303
M220
0330
202M
3030
220M
3300
,  // measure 21
0001
0010
0100
1000
0021
0000
0031
0000
,  // measure 22
1001
0000
0220
M00M
0330
0000
2002
0MM0
0000
0000
3003
0000
0000
0000
0010
0000
,  // measure 23
0100
0000
0010
0000
1000
0000
0120
0000
0000
0000
0130
0000
0002
0000
0000
0003
,  // measure 24
2000
0000
0000
3000
0000
0000
0001
0010
0100
0000
0101
0000
0101
0000
0000
0000
,  // measure 25
0001
0010
0100
1000
0001
0000
0010
0000
0101
0000
1100
0000
0202
0000
0000
0303
,  // measure 26
0220
0000
0000
0330
0000
0000
0010
1000
0100
0000
0110
0000
0110
0000
0000
0000
,  // measure 27
0001
0010
0000
1000
0100
0000
0001
0010
0000
1000
0010
0000
1000
0000
0000
0000
,  // measure 28
2020
0000
3030
0000
0000
0000
0001
0001
1000
0000
1000
0000
0001
0000
0100
0000
,  // measure 29
0202
0303
0220
0330
1010
1010
0000
0110
,  // measure 30
1001
0110
0000
0011
0110
1100
0000
0010
,  // measure 31
0010
0100
0000
0001
1000
0000
0010
0100
0000
0001
1000
0000
0020
0000
0030
0000
,  // measure 32
1000
0100
0010
0001
1002
0000
1003
0120
,  // measure 33
0000
0130
0000
0001
1000
0001
0100
0100
,  // measure 34
2000
3100
0020
0031
0120
0000
0130
0110
,  // measure 35
0000
0000
0000
2000
3002
0003
0000
0000
,  // measure 36
1000
0100
0001
0010
2100
0000
3010
0012
,  // measure 37
0000
0013
0000
0010
0100
0010
0100
1001
,  // measure 38
0011
1100
0000
0110
1010
0101
0000
0001
,  // measure 39
0001
0100
0000
1000
0010
0000
0001
0010
0000
1000
0100
0000
0220
0000
0330
0000
,  // measure 40
0001
0000
0010
0000
0100
0000
0100
0000
1000
0000
0100
0010
0000
0000
0000
0100
,  // measure 41
1000
0010
0001
0011
0002
0000
0003
0100
,  // measure 42
0001
0000
0010
0100
0000
0001
0000
0220
0000
0330
0000
0000
0001
0000
0100
0000
,  // measure 43
0110
0010
0220
0330
1001
0001
2002
3003
,  // measure 44
0020
0030
0020
0030
0020
0030
0001
0000
1000
0000
0100
0010
0000
0000
0000
0001
,  // measure 45
0010
0100
1010
0010
0022
0000
0033
0001
,  // measure 46
0010
0000
0100
1000
0000
0020
0000
0130
0000
0000
0000
0000
0001
0000
0010
0000
,  // measure 47
1100
0101
2200
3300
0011
1010
0100
0010
,  // measure 48
0002
0000
2003
0000
3000
0000
0010
0001
,  // measure 49
0002
0000
0203
0000
0300
0000
0000
0001
,  // measure 50
0010
0000
0100
1000
0000
0010
0000
0010
0000
0000
0000
0000
0000
0000
1000
0000
,  // measure 51
0100
0000
0010
0001
0000
0001
0000
0010
0000
0100
1000
0100
0000
0000
0000
0000
,  // measure 52
MM22
0033
M202
0303
2020
3030
220M
3300
,  // measure 53
0110
0000
0110
0000
0010
0000
0100
0000
0220
0000
0000
0330
0220
0000
0330
0000
,  // measure 54
2000
3002
0003
2002
0000
3003
0000
0010
,  // measure 55
0010
0010
0002
0023
0000
0130
2020
3030
,  // measure 56
0202
0000
0303
0000
0000
0000
0001
0010
0100
0000
0010
0000
0100
0000
0000
0000
,  // measure 57
1000
0100
1000
0100
0001
0000
0010
0000
2200
3300
2200
3300
2200
0000
3300
0000
,  // measure 58
0220
0000
0330
0000
0000
0000
0001
0100
0010
0000
1000
0000
1000
0000
0000
0000
,  // measure 59
0001
1000
0000
1000
0001
0000
0001
1000
0000
1000
0001
0000
0001
0000
0000
0000
,  // measure 60
0110
0000
0000
0000
0000
0000
0100
0010
0001
0000
0010
0000
0001
0000
0010
0000
,  // measure 61
2002
0000
0000
3003
0200
0000
0000
0300
2002
3003
2002
3003
0000
0000
0020
0030
,  // measure 62
0220
0330
0200
0300
0000
0000
0002
0003
2002
3003
2000
3000
0000
0000
0010
0000
,  // measure 63
0001
0010
0000
0001
0100
0000
0001
1000
0000
0100
0010
0000
0022
0000
0033
0000
,  // measure 64
2000
0000
0000
0000
0000
3000
1000
0100
0000
0000
0010
0000
0100
0000
2000
0000
,  // measure 65
0000
0000
0000
3000
0000
0000
0000
0001
0010
0000
0100
0000
1000
0000
0100
0000
,  // measure 66
0020
0000
0000
0031
0000
0000
0000
0000
,  // measure 67
M2M2
0000
0000
0303
22M0
0000
0000
3300
02M2
0000
0000
0303
22M0
0000
3300
0000
,  // measure 68
0001
0000
0010
1000
0001
0000
0010
0010
0000
0100
0100
0000
0100
0000
0000
0000
,  // measure 69
0100
0010
0000
0001
1100
0000
1100
0010
0000
0001
0001
0000
0010
0000
0000
0000
,  // measure 70
1000
0001
0000
1000
0001
0000
0000
0010
0000
0100
0010
0000
0100
0000
0000
0000
,  // measure 71
1000
0100
0000
1000
0010
0000
1000
0001
0000
1000
0100
0000
0220
0000
0330
0000
,  // measure 72
0002
0000
0000
0000
0023
0000
0000
0000
0230
0000
0000
0000
2300
0000
0000
3000
,  // measure 73
0110
0000
0000
0000
0000
0000
0001
0010
0100
0000
1100
0000
1100
0000
0000
0000
,  // measure 74
0010
0001
0010
0001
0020
0000
0031
0000
2000
0000
3200
0000
0320
0000
0030
0000
,  // measure 75
0022
0000
0033
0000
0000
0000
1000
0100
0010
0000
0101
0000
0101
0000
0000
0000
,  // measure 76
0001
0100
0000
0010
0100
0000
0010
1000
0000
0001
1000
0000
0220
0000
0000
0330
,  // measure 77
0002
0000
0003
0000
0000
0000
0001
0010
0100
0000
1000
0000
0100
0000
0100
0000
,  // measure 78
0012
0000
0013
0000
2100
3100
0000
0101
,  // measure 79
0010
0101
0000
1010
0100
1010
0000
0010
,  // measure 80
0010
0100
0000
0010
1000
0000
0010
0001
0000
0010
1000
0000
0220
0000
0330
0000
,  // measure 81
0001
0010
0100
1000
0210
0000
0310
0012
,  // measure 82
0000
0000
0013
0000
0000
0000
1000
0100
1000
0000
0001
0010
0001
0000
0001
0000
,  // measure 83
2000
3100
0020
0130
0002
0000
0103
0020
,  // measure 84
0000
0030
0000
0002
2003
3000
0000
0000
,  // measure 85
1000
0100
0010
0001
0020
0000
0130
0002
,  // measure 86
0000
1003
0000
0010
0010
0010
0010
0011
,  // measure 87
1000
0011
0000
1100
0001
1100
0000
0100
,  // measure 88
0100
1000
0000
0100
0010
0000
0100
0001
0000
0100
1000
0000
0220
0000
0330
0000
,  // measure 89
0001
1000
0000
0001
1000
0000
0001
1000
0000
0001
1000
0000
M22M
0000
0330
0000
;
