#TITLE:マジLOVE1000%;
#SUBTITLE:;
#ARTIST:♪♪♪♪♪;
#TITLETRANSLIT:Maji LOVE 1000%;
#SUBTITLETRANSLIT:;
#ARTISTTRANSLIT:;
#GENRE:;
#CREDIT:;
#BANNER:Maji LOVE 1000%.png;
#BACKGROUND:Maji LOVE 1000%-bg.png;
#LYRICSPATH:;
#CDTITLE:./CDTitles/DanceDanceRevolution 2013.png;
#MUSIC:Maji LOVE 1000%.ogg;
#OFFSET:0.000000;
#SAMPLESTART:22.709999;
#SAMPLELENGTH:15.000000;
#LASTBEATHINT:118.000008;
#SELECTABLE:YES;
#BPMS:0.000000=129.000000
;
#STOPS:
;
#BGCHANGES:;
#KEYSOUNDS:;
#ATTACKS:;

//---------------dance-single - ----------------
#NOTES:
     dance-single:
     :
     Beginner:
     1:
     0.096332,0.106523,0.039091,0.000000,0.000000,65.000000,4.000000,0.000000,0.000000,0.000000,0.000000,0.096332,0.106523,0.039091,0.000000,0.000000,65.000000,4.000000,0.000000,0.000000,0.000000,0.000000:
0000
0000
0000
0000
,
0000
0000
0000
0000
,
0000
0000
0000
0000
,
0100
0000
0000
0000
,
0001
0000
0000
0000
,
1000
0000
0000
0000
,
0001
0000
1000
0000
,
0010
0000
0000
0000
,
0100
0000
0000
0000
,
0001
0000
0000
0000
,
1000
0000
0001
0000
,
0100
0000
0000
0000
,
0000
0000
0000
0000
,
0010
0000
0000
0100
,
0100
0000
0000
0001
,
0001
0000
0000
1000
,
1000
0000
0000
0000
,
0100
0000
0000
0010
,
0010
0000
0000
0001
,
0001
0000
0000
0000
,
1000
0000
0000
0000
,
0010
0000
0000
0000
,
0100
0000
0000
0000
,
0010
0000
0000
0000
,
1001
0000
0000
0000
,
0010
0000
0000
0000
,
0100
0000
0000
0000
,
0001
0000
1000
0000
,
1000
0000
0000
0000
,
0001
0000
0000
0000
,
0010
0000
0000
0000
,
0100
0000
0000
0000
,
0010
0000
0010
0000
,
0001
0000
0000
0000
,
0100
0000
0100
0000
,
0010
0000
0000
0000
,
1000
0000
1000
0000
,
0010
0000
0000
0000
,
0100
0000
0000
0000
,
0001
0000
0000
0000
,
1001
0000
0000
0000
,
0010
0000
0000
0000
,
0100
0000
0000
0000
,
0001
0000
0000
0000
,
1000
0000
0000
0000
,
0010
0000
0010
0000
,
1000
0000
0000
0000
,
0001
0000
0000
0000
,
0100
0000
0000
0000
,
0010
0000
0000
0000
,
0100
0000
0000
0000
,
1001
0000
0000
0000
,
0010
0000
0000
0000
,
0100
0000
0100
0000
,
0010
0000
1001
0000
;

//---------------dance-single - ----------------
#NOTES:
     dance-single:
     :
     Easy:
     4:
     0.226170,0.239678,0.078182,0.263865,0.000000,127.000000,8.000000,27.000000,0.000000,0.000000,0.000000,0.226170,0.239678,0.078182,0.263865,0.000000,127.000000,8.000000,27.000000,0.000000,0.000000,0.000000:
0000
0000
0000
0000
,
0000
0000
0000
0000
,
0000
0000
0000
0000
,
0020
0000
0000
0030
,
0200
0000
0000
0300
,
0002
0000
0000
0003
,
1000
1000
0001
0001
,
2000
0000
0000
3000
,
0002
0000
0000
0003
,
0200
0000
0000
0300
,
0010
0010
0100
0200
,
0000
0000
0000
0300
,
0000
0010
0100
1000
,
0002
0003
0010
0001
,
2000
3000
0010
1000
,
0010
0100
0001
1000
,
0020
0030
0100
1001
,
0002
0003
0010
0001
,
2000
3000
0010
1000
,
0010
0100
0001
0000
,
0010
0100
1000
0000
,
0010
0000
0100
0000
0010
0000
0000
0200
,
0000
0000
0000
0300
,
0010
0000
0000
1001
0000
0000
0000
0000
,
0100
0100
0000
0000
0000
0000
0000
0000
,
0001
1000
0100
0000
,
0010
0100
0001
0000
,
1000
0000
0001
0000
,
1000
0001
0100
0000
,
0001
1000
0010
0000
,
1000
0000
0001
0000
,
0010
0100
1001
0000
,
2000
0000
0000
3000
,
0010
0100
0001
0000
,
0002
0000
0000
0003
,
0010
0100
1000
0000
,
0010
0000
0100
0100
,
0001
0000
1000
1000
,
0200
0300
0020
0030
,
0002
0003
2000
3000
,
2002
0000
0000
0000
,
3003
0010
0100
1001
,
2000
3000
0010
1000
,
0002
0003
0010
0001
,
0010
0100
1000
0001
,
0020
0030
0100
1001
,
2000
3000
0010
1000
,
0002
0003
0010
0001
,
0010
0100
1000
0000
,
0010
0100
0001
0000
,
0010
0000
0100
0000
0010
0000
0000
0200
,
0000
0000
0000
0300
,
0010
0000
0000
1001
0000
0000
0000
0000
,
0010
0000
0100
0000
,
0010
0100
1001
0000
;

//---------------dance-single - ----------------
#NOTES:
     dance-single:
     :
     Medium:
     7:
     0.315521,0.319570,0.215001,0.244320,0.019546,179.000000,22.000000,25.000000,0.000000,0.000000,0.000000,0.315521,0.319570,0.215001,0.244320,0.019546,179.000000,22.000000,25.000000,0.000000,0.000000,0.000000:
0000
0000
0000
0000
,
0000
0000
0000
0000
,
0000
0000
0000
0000
,
0010
0000
1000
0001
,
0100
0000
0001
1000
,
0100
0000
0010
0100
,
1000
0100
1000
0000
0001
0100
0001
0000
,
0010
0000
1000
0010
,
0100
0000
0001
0010
,
0100
0000
1000
0001
,
1000
0001
1000
0000
0001
2000
0002
0000
,
0000
0000
0000
3003
,
0000
0011
1001
1100
,
0020
0000
0000
0000
0000
1030
0100
0000
,
0020
0000
0000
0000
0000
0031
0100
0000
,
0001
1000
0100
0000
1000
0010
0100
0000
,
0001
1000
1001
0110
,
0020
0000
0000
0000
0000
1030
0100
0000
,
0020
0000
0000
0000
0000
0031
0100
0010
,
0000
0100
0010
0000
1001
0000
0000
1000
,
0000
0100
0010
0000
1001
0000
0000
0001
,
0000
0100
0010
0000
0100
0000
0000
2002
,
0000
0000
0000
3003
,
0010
0000
0000
0100
0000
0000
1001
0000
0000
0000
0000
0000
0000
0000
0000
0000
,
0100
0100
0000
0000
0000
0000
1001
0000
,
0001
0010
0100
0000
0010
0000
0100
0000
,
1000
0010
0100
0000
0010
0000
0100
0000
,
0001
0001
1000
1000
,
0001
0100
0010
0000
0100
0000
0010
0000
,
1000
0100
0010
0000
0100
0000
0010
0000
,
0001
0001
1000
1000
,
0020
0030
1001
0000
,
0020
0000
0000
0030
,
1000
0100
0010
0001
0000
0000
0110
0000
,
2000
0000
3002
0000
,
0013
0000
0000
0100
0000
0000
1001
0000
0000
0000
0000
0000
0000
0000
0000
0000
,
0010
0000
0010
0000
0001
0100
0001
0000
,
0010
0000
0010
0000
1000
0100
1000
0000
,
0020
0000
2030
0000
,
3002
0000
0203
0000
,
0320
0000
0000
0000
,
0030
1010
1001
0101
,
0020
0000
0000
0000
0000
0031
0100
0000
,
0020
0000
0000
0000
0000
1030
0100
0000
,
1000
0001
0100
0000
0001
0010
0100
0000
,
1000
0001
1001
0110
,
0020
0000
0000
0000
0000
0031
0100
0000
,
0020
0000
0000
0000
0000
1030
0100
0010
,
0000
0100
0010
0000
1001
0000
0000
0001
,
0000
0100
0010
0000
1001
0000
0000
1000
,
0000
0100
0010
0000
0100
0000
0000
2002
,
0000
0000
0000
3003
,
0100
0000
0000
0010
0000
0000
1001
0000
0000
0000
0000
0000
0001
0000
0010
0000
,
0200
0000
0320
0000
,
0031
0000
0000
1000
0000
0000
0010
0000
0100
0000
0000
0000
0000
0000
0000
0000
;

//---------------dance-single - ----------------
#NOTES:
     dance-single:
     :
     Hard:
     9:
     0.411853,0.399463,0.283411,0.136819,0.068409,252.000000,29.000000,14.000000,0.000000,0.000000,0.000000,0.411853,0.399463,0.283411,0.136819,0.068409,252.000000,29.000000,14.000000,0.000000,0.000000,0.000000:
0000
0000
0000
0000
,
0000
0000
0000
0000
,
0000
0000
0000
0000
,
0010
0000
0000
0000
0000
0000
0000
0000
0000
0000
0100
0000
0000
0100
0000
0000
,
0100
0000
0000
0000
0000
0000
0000
0000
0000
0000
0100
0000
0000
0100
0000
0000
,
0100
0000
0000
0000
0000
0000
0000
0000
0000
0000
0100
0000
0000
0100
0000
0000
,
0010
1100
0101
0110
,
2002
0000
0000
0000
0000
0000
0000
0000
3003
0000
0100
0000
0000
0010
0000
0000
,
0002
0000
0000
0000
0000
0000
0000
0000
0000
0000
1003
0000
0000
0100
0000
0000
,
0020
0000
0000
0000
0000
0000
0000
0000
0000
0000
0031
0000
0000
0010
0000
0000
,
0100
1100
0101
2002
,
0000
0000
0000
0000
,
3003
0010
0100
1001
,
1000
0100
1000
0010
0100
0000
1001
0000
,
0001
0100
0001
0010
0100
0000
1001
0000
,
1000
0100
1000
0000
0001
0100
0001
0000
,
0100
0010
1000
0001
0000
0100
0010
0000
,
1000
0100
1000
0001
0100
0000
1001
0000
,
0001
0100
0001
0100
0010
1000
0010
1000
,
0000
1000
0100
0000
0110
0000
0010
0001
,
0000
0001
0100
0000
0110
0000
0010
1000
,
0000
1000
0100
0000
0010
0000
0010
0200
,
0000
0000
0300
0110
,
0001
0000
0000
1000
0000
0000
1001
0000
0000
0000
0000
0000
0000
0000
0000
0000
,
0100
0001
0100
0000
0010
0000
1000
0000
,
0001
0100
0001
1000
0100
0000
1000
0000
,
0100
1000
0100
0000
0010
0000
0001
0000
,
1000
0000
0000
0100
0000
0000
0010
0000
0011
0000
0000
0000
1100
0000
0000
0000
,
0001
0100
0001
0000
1000
0000
0100
0000
,
0010
0001
0010
0001
0100
0000
1000
0100
,
0010
0100
1000
0000
0001
0100
0001
0000
,
1000
0000
0000
0001
0000
0000
0100
0000
0010
0000
0000
0000
0000
0000
0000
0000
,
2001
0100
3001
0100
,
1002
0000
0100
0000
1003
0000
0100
1000
,
0100
0000
0100
0001
0100
0000
0100
0010
,
0001
0000
0000
0110
0000
0000
1001
0000
0000
0000
0000
0000
0010
0000
0000
0000
,
1000
0100
0010
0001
0010
0001
0100
0000
,
0001
0100
0010
1000
0010
1000
0100
0000
,
2000
3100
0002
0103
,
1000
0000
0000
1000
0000
0000
0001
0000
0100
0000
0000
0100
0000
0000
0010
0000
,
1000
0100
0010
0001
1000
0100
0010
0001
,
0000
0010
0100
1001
,
1000
0100
1000
0010
0100
0000
1001
0000
,
0001
0100
0001
0010
0100
0000
1001
0000
,
1000
0100
1000
0000
0001
0100
0001
0000
,
0100
0010
1000
0001
0000
0100
0010
0000
,
1000
0100
1000
0001
0100
0000
1001
0000
,
0001
0100
0001
0100
0010
1000
0010
1000
,
0000
1000
0100
0000
0110
0000
0010
0001
,
0000
0001
0100
0000
0110
0000
0010
1000
,
0000
1000
0100
0000
0010
0000
0010
0200
,
0000
0000
0300
0110
,
0001
0000
0000
1000
0000
0000
1001
0000
0000
0000
0000
0000
1000
0000
0100
0000
,
0020
0000
0031
0100
0020
0000
1030
0100
,
0010
0000
0000
0001
0000
0000
0010
0000
0100
0000
0000
0000
0000
0000
0000
0000
;

//---------------dance-single - ----------------
#NOTES:
     dance-single:
     :
     Challenge:
     7:
     0.308541,0.372832,0.322502,0.635231,0.019546,123.000000,33.000000,65.000000,168.000000,0.000000,0.000000,0.308541,0.372832,0.322502,0.635231,0.019546,123.000000,33.000000,65.000000,168.000000,0.000000,0.000000:
0000
0000
0000
0000
,
0000
0000
0000
0000
,
0000
0000
0000
0000
,
2002
0000
0000
3003
,
2000
0000
0000
3000
,
0002
0000
0000
0003
,
2000
0000
0002
3003
,
0020
0000
0000
0030
,
MMMM
MMMM
MMMM
MMMM
,
2000
0002
0000
3003
,
1000
0001
1000
MMMM
,
0000
0000
0020
0000
,
0000
0130
0100
MMMM
,
0001
1000
0001
MMMM
,
2002
0000
3003
MMMM
,
0020
0030
0200
0310
,
0100
0000
0001
1000
0000
0001
1000
0000
,
MMMM
2002
3003
MMMM
,
0001
0001
1000
1000
,
0010
MMMM
0010
MMMM
1001
MMMM
1001
MMMM
,
0001
MMMM
0001
MMMM
1000
MMMM
1000
0020
,
0000
0000
0030
MMMM
2002
0000
3003
2002
,
0000
0000
3003
0000
,
0001
0000
0000
1000
0000
0000
1001
0000
0000
0000
0000
0000
0000
0000
0000
0000
,
2002
0003
0100
3001
,
2002
3000
0100
1003
,
2002
0000
0000
3003
,
0020
2030
3001
MMMM
,
0001
1000
0001
1000
,
2002
3003
0020
0030
,
0110
MMMM
1001
MMMM
,
2002
3003
1001
0000
,
0001
1000
0002
0003
,
2002
3000
0200
0303
,
2000
3000
0002
0003
,
MMMM
0000
0000
0001
0000
0000
MMMM
0000
0000
0000
0000
0000
0000
0000
0000
0000
,
0001
0000
1000
0000
0001
0000
1000
MMMM
,
2002
0000
3003
MMMM
2002
0000
3003
0000
,
0011
MMMM
2002
3003
,
1010
MMMM
2002
3003
,
2002
0000
0000
3003
,
0000
0100
0100
MMMM
,
0001
1000
0001
MMMM
,
2002
0000
3003
MMMM
,
0020
0030
0200
0310
,
0100
0000
0001
1000
0000
0001
1000
0000
,
MMMM
2002
3003
MMMM
,
0001
0001
1000
1000
,
0010
MMMM
0010
MMMM
1001
MMMM
1001
MMMM
,
0001
MMMM
0001
MMMM
1000
MMMM
1000
0020
,
0000
0000
0030
MMMM
2002
0000
3003
2002
,
0000
0000
3003
0000
,
0001
0000
0000
1000
0000
0000
1001
0000
0000
0000
0000
0000
0000
0000
0000
0000
,
2002
0000
3003
MMMM
2002
0000
3003
MMMM
,
1000
0000
0000
0001
0000
0000
1000
0000
0001
0000
0000
0000
0000
0000
0000
0000
;

//---------------dance-double - ----------------
#NOTES:
     dance-double:
     :
     Easy:
     5:
     0.242923,0.266308,0.205228,0.205228,0.004886,132.000000,21.000000,21.000000,0.000000,0.000000,0.000000,0.242923,0.266308,0.205228,0.205228,0.004886,132.000000,21.000000,21.000000,0.000000,0.000000,0.000000:
00000000
00000000
00000000
00000000
,
00000000
00000000
00000000
00000000
,
00000000
00000000
00000000
00000000
,
00002000
00000000
00000000
00000000
,
00003200
00000000
00000000
00000000
,
00000320
00000000
00000000
00000000
,
00001030
00000100
00010000
00001000
,
00020000
00000000
00000000
00000000
,
02030000
00000000
00000000
00000000
,
03200000
00000000
00000000
00000000
,
00310000
01000000
00001000
00200000
,
00000000
00000000
00000000
00000000
,
00300000
00100000
01000000
10010000
,
02000000
00000000
03001000
01001000
,
00200000
00000000
00301000
00101000
,
00001000
00010000
00001000
00000000
,
00000100
00000000
00000010
00001001
,
00000020
00000000
00010030
00010010
,
00000200
00000000
00010300
00010100
,
00001000
00100000
01000000
00000000
,
00100000
01000000
00100000
00000000
,
00001000
00000000
00010000
00000000
00001000
00000000
00000000
00020000
,
00000000
00000000
00000000
00030000
,
00001000
00000000
00000000
00011000
00000000
00000000
00000000
00000000
,
00100000
00100000
00000000
00000000
00000000
00000000
00000000
00000000
,
00001000
01000000
00100000
00000000
,
10000000
01000000
00010000
00000000
,
00001000
00000000
00010000
00000000
,
00001000
00000100
00000001
00000010
,
00000100
00001000
00000100
00000000
,
00000100
00000000
00010000
00000000
,
00001000
00010000
00011000
00000000
,
00002000
00000000
00000000
00000000
,
00103000
01000000
10000000
00100000
,
02000000
00000000
00000000
00000000
,
03001000
00000000
00000000
00010000
00000000
00000000
00001000
00000000
00000000
00000000
00000000
00000000
00000000
00000000
00000000
00000000
,
00001000
00010000
00001000
00000000
,
00010000
00000100
00000010
00000000
,
00000010
00000010
00000001
00000001
,
00000100
00000100
00001000
00001000
,
00010000
00022000
00000000
00000000
,
00033000
00000010
00000100
00001001
,
00000200
00000000
00010300
00010100
,
00000020
00000000
00010030
00010010
,
00010000
00001000
00010000
00000000
,
01000000
00000000
00100000
10010000
,
00200000
00000000
00301000
00101000
,
02000000
00000000
03001000
01001000
,
00010000
00000010
00000100
00000000
,
00000010
00000100
00000010
00000000
,
00010000
00000000
00001000
00000000
00010000
00000000
00000000
00002000
,
00000000
00000000
00000000
00003000
,
00010000
00000000
00000000
00011000
00000000
00000000
00000000
00000000
,
01100000
00000000
10010000
00000000
,
01100000
10010000
00011000
00000000
;

//---------------dance-double - ----------------
#NOTES:
     dance-double:
     :
     Medium:
     7:
     0.323898,0.319570,0.263865,0.166137,0.014659,188.000000,27.000000,17.000000,0.000000,0.000000,0.000000,0.323898,0.319570,0.263865,0.166137,0.014659,188.000000,27.000000,17.000000,0.000000,0.000000,0.000000:
00000000
00000000
00000000
00000000
,
00000000
00000000
00000000
00000000
,
00000000
00000000
00000000
00000000
,
00000010
00000000
00000100
00001000
,
00000010
00000000
00010000
00001000
,
00100000
00000000
00010000
10000000
,
01000000
00100000
01000000
00000000
00100000
00001000
00010000
00000000
,
00011000
00000000
00001000
00000100
,
00000010
00000000
00001000
00000001
,
00000010
00000000
00000100
00010000
,
00001000
00000100
00000010
00000000
00000001
00000200
00000020
00000000
,
00000000
00000000
00000000
00000000
00000000
00000000
00000000
00000330
,
00000000
00001010
00010010
00011000
,
00001000
01000000
00100000
00000000
01000000
00000000
00100000
00000000
,
10000000
01000000
00010000
00000000
00100000
00000000
00001000
00000000
,
00010000
00001000
00010000
00000000
00001000
00010000
00001000
00000000
,
00010000
00000100
00000010
00001001
,
00000001
00000100
00000010
00000000
00001000
00000000
00000001
00000000
,
00001000
00000010
00000100
00000000
00000001
00000000
00001000
00000000
,
00000100
00000100
00010100
00000000
,
00001000
00001000
01001000
00000000
,
00100000
00000000
00100000
00000000
00101000
00000000
00000000
00022000
,
00000000
00000000
00000000
00000000
00000000
00000000
00000000
00033000
,
00010000
00000000
00000000
00001000
00000000
00000000
00011000
00000000
00000000
00000000
00000000
00000000
00000000
00000000
00000000
00000000
,
00100000
01000000
00000000
00000000
00000000
00000000
10000000
00000000
,
00100000
01000000
00010000
00000000
00100000
00000000
00001000
00000000
,
00010000
00001000
00000100
00000000
00000010
00000000
00000100
00000000
,
00000002
00000000
00002003
00000000
,
00003100
00000010
00000001
00000000
00000010
00000000
00000100
00000000
,
00000001
00000100
00001000
00000000
00010000
00000000
00001000
00000000
,
00010000
01000000
10000000
00000000
01000000
10000000
01000000
00000000
,
00100000
01000000
10010000
00000000
,
00200000
00000000
20300000
00000000
,
31000000
00010000
00001000
00000100
00000000
00000000
00000110
00000000
,
00000020
00000000
00000230
00000000
,
00000301
00000000
00000000
00000010
00000000
00000000
00001001
00000000
00000000
00000000
00000000
00000000
00000000
00000000
00000000
00000000
,
00000010
00000000
00001000
00000000
00000100
00010000
00000100
00000000
,
00001000
00000000
00010000
00000000
00001000
00010000
00001000
00000000
,
00200000
00000000
00302000
00000000
,
00023000
00000000
00230000
00000000
,
02300000
00000000
00000000
00000000
,
03000000
00110000
00101000
00011000
,
00010000
00000100
00000010
00000000
00000100
00000000
00000010
00000000
,
00000001
00000100
00001000
00000000
00000010
00000000
00010000
00000000
,
00001000
00010000
00001000
00000000
00010000
00001000
00010000
00000000
,
00001000
01000000
00100000
10010000
,
10000000
01000000
00100000
00000000
00010000
00000000
10000000
00000000
,
00010000
00100000
01000000
00000000
10000000
00000000
00010000
00000000
,
01000000
01000000
01001000
00000000
,
00010000
00010000
00010100
00000000
,
00000010
00000000
00000010
00000000
00010010
00000000
00000000
00022000
,
00000000
00000000
00000000
00000000
00000000
00000000
00000000
00033000
,
00001000
00000000
00000000
00010000
00000000
00000000
00011000
00000000
00000000
00000000
00000000
00000000
00000000
00000000
00000000
00000000
,
00000110
00000000
00011000
00000000
,
01100000
10010000
01100000
00000000
;

//---------------dance-double - ----------------
#NOTES:
     dance-double:
     :
     Hard:
     9:
     0.392307,0.399463,0.254092,0.048864,0.073296,250.000000,26.000000,5.000000,0.000000,0.000000,0.000000,0.392307,0.399463,0.254092,0.048864,0.073296,250.000000,26.000000,5.000000,0.000000,0.000000,0.000000:
00000000
00000000
00000000
00000000
,
00000000
00000000
00000000
00000000
,
00000000
00000000
00000000
00000000
,
00000200
00000000
00000000
00000000
00000000
00000000
00000000
00000000
00000000
00000000
00001300
00000000
00000000
00000100
00000000
00000000
,
00020000
00000000
00000000
00000000
00000000
00000000
00000000
00000000
00000000
00000000
00031000
00000000
00000000
01000000
00000000
00000000
,
00200000
00000000
00000000
00000000
00000000
00000000
00000000
00000000
00000000
00000000
10300000
00000000
00000000
01000000
00000000
00000000
,
00100000
00010000
00100000
00000000
01010000
00000000
00101000
00000000
,
00010000
00000000
00000000
00000000
00010000
00000000
00001000
00000000
00010000
00000000
00001000
00000000
00000000
00000100
00000000
00000000
,
00000001
00000000
00000000
00000000
00000100
00000000
00000010
00000000
00000100
00000000
00000010
00000000
00000000
00010000
00000000
00000000
,
00001000
00000000
00000000
00000000
00010000
00000000
01000000
00000000
10000000
00000000
01000000
00000000
00000000
00100000
00000000
00000000
,
00110000
00101000
00011000
00010010
,
00000000
00000000
00000000
00000000
,
00000000
00011000
01000000
10000000
,
00010000
00100000
01000000
00100000
00010000
00000000
01010000
00000000
,
00001000
00010000
00001000
00100000
00010000
00000000
00101000
00000000
,
00001000
00010000
00001000
00000100
00000001
00000100
00000001
00000100
,
00000010
00001000
00000100
00001000
00000000
00000100
00000100
00000000
,
00001000
00000100
00000010
00000100
00001000
00000000
00001100
00000000
,
00010000
00001000
00000100
00001000
00010000
00000000
00001000
00010000
,
00000000
01000000
00100000
00000000
00010000
00000000
00010000
00001000
,
00000000
00000100
00000010
00000000
00001000
00000000
00001000
00010000
,
00000000
01000000
10000000
00000000
00010000
00000000
10000000
02000000
,
00000000
00000000
00000000
00000000
00000000
00000000
00000000
00000000
03100000
00000000
00000000
00001000
00000000
00000000
01000000
00000000
,
00001000
00000000
00000000
00010000
00000000
00000000
00011000
00000000
00000000
00000000
00000000
00000000
00000000
00000000
00000000
00000000
,
00010000
01000000
00000000
00000000
00000000
00000000
00000000
00000000
,
10000000
01000000
00010000
00001000
00010000
00000100
00000010
00000001
,
00001000
00000100
00000000
00000000
00000000
00000000
00000000
00000000
,
00000001
00000100
00001000
00010000
00001000
01000000
00100000
10000000
,
01000000
00100000
00000000
00000000
00000000
00000000
00010000
00100000
,
01000000
10000000
01000000
00010000
00001000
00000000
00010000
00001000
,
00000100
00000000
00000011
00000000
,
00001000
00000000
00000000
00000100
00000000
00000000
00010000
00000000
00001000
00000000
00000000
00000000
00010000
00000000
01000000
00000000
,
10000000
00000000
10000000
01000000
00010000
00000000
00001000
00000000
,
00010000
00001000
00010000
00000100
00001000
00000000
00000001
00000100
,
00001000
00000000
00001000
00000100
00000001
00000000
00001000
00000000
,
00010100
00000000
00000000
00011000
00000000
00000000
01001000
00000000
00000000
00000000
00000000
00000000
00000000
00000000
00000000
00000000
,
10000000
00000000
01000000
00000000
00100000
00010000
00010000
00000000
,
00100000
00000000
00001000
00000000
00000100
00000010
00000010
00000000
,
00001000
00001100
00010000
00011000
,
00001000
00000000
00000000
01000000
00000000
00000000
00100000
00000000
10000000
00000000
00000000
01000000
00000000
00000000
00100000
00000000
,
00010000
00000000
00000000
00000000
00100000
00000000
00000000
00000000
00001000
00000000
00000000
00010000
00000000
00000000
00001000
00000000
,
00000000
00011000
01000000
10000000
,
00010000
00100000
01000000
00100000
00010000
00000000
01010000
00000000
,
00001000
00010000
00001000
00100000
00010000
00000000
00101000
00000000
,
00001000
00010000
00001000
00000100
00000001
00000100
00000001
00000100
,
00000010
00001000
00000100
00001000
00000000
00000100
00000100
00000000
,
00001000
00000100
00000010
00000100
00001000
00000000
00001100
00000000
,
00010000
00001000
00000100
00001000
00010000
00000000
00001000
00010000
,
00000000
01000000
00100000
00000000
00010000
00000000
00010000
00001000
,
00000000
00000100
00000010
00000000
00001000
00000000
00001000
00010000
,
00000000
01000000
10000000
00000000
00010000
00000000
10000000
02000000
,
00000000
00000000
00000000
00000000
00000000
00000000
00000000
00000000
03100000
00000000
00000000
00001000
00000000
00000000
01000000
00000000
,
00001000
00000000
00000000
00010000
00000000
00000000
00011000
00000000
00000000
00000000
00000000
00000000
00000000
00000000
00000000
00000000
,
00000110
00000000
01100000
00000000
,
10010000
00000000
00001001
00000000
;

//---------------dance-double - ----------------
#NOTES:
     dance-double:
     :
     Challenge:
     7:
     0.308541,0.372832,0.322502,0.635231,0.019546,123.000000,33.000000,65.000000,336.000000,0.000000,0.000000,0.308541,0.372832,0.322502,0.635231,0.019546,123.000000,33.000000,65.000000,336.000000,0.000000,0.000000:
00000000
00000000
00000000
00000000
,
00000000
00000000
00000000
00000000
,
00000000
00000000
00000000
00000000
,
00002002
00000000
00000000
00003003
,
00000200
00000000
00000000
00000300
,
00020000
00000000
00000000
00030000
,
00200000
00300000
00000020
00000030
,
00200000
00000000
00000000
00300000
,
MMMMMMMM
MMMMMMMM
MMMMMMMM
MMMMMMMM
,
00020000
00000000
00000000
00002000
00000000
00000000
00033000
00000000
,
10000000
00010000
10000000
MMMMMMMM
,
00000000
00000000
00200000
00000000
,
00000000
01300000
01000000
MMMMMMMM
,
00001000
00010000
00001000
MMMMMMMM
,
00002002
00000000
00003003
MMMMMMMM
,
00020000
00030000
00002000
00013000
,
01000000
00000000
10000000
00010000
00000000
10000000
00010000
00000000
,
MMMMMMMM
00022000
00033000
MMMMMMMM
,
00000001
00000001
00001000
00001000
,
00000010
MMMMMMMM
00000010
MMMMMMMM
00011000
MMMMMMMM
00011000
MMMMMMMM
,
00010000
MMMMMMMM
00010000
MMMMMMMM
00100000
MMMMMMMM
00100000
02000000
,
00000000
00000000
03000000
MMMMMMMM
20020000
00000000
30030000
00022000
,
00000000
00000000
00033000
00000000
,
00001000
00000000
00000000
00010000
00000000
00000000
00011000
00000000
00000000
00000000
00000000
00000000
00000000
00000000
00000000
00000000
,
00022000
00030000
00003100
00000001
,
00002002
00003000
00000103
00001000
,
00022000
00000000
00000000
00033000
,
00200000
20300000
30010000
MMMMMMMM
,
00010000
00100000
00001000
00010000
,
00022000
00033000
00000020
00000030
,
00000110
MMMMMMMM
00011000
MMMMMMMM
,
02200000
03300000
10010000
00000000
,
00010000
10000000
00002000
00003000
,
02002000
03000000
00000200
00003300
,
00000002
00000003
00002000
00003000
,
MMMMMMMM
00000000
00000000
00000001
00000000
00000000
MMMMMMMM
00000000
00000000
00000000
00000000
00000000
00000000
00000000
00000000
00000000
,
00000001
00000000
00001000
00000000
00000100
00000000
00010000
MMMMMMMM
,
00022000
00000000
00033000
MMMMMMMM
20020000
00000000
30030000
00000000
,
00101000
MMMMMMMM
00022000
00033000
,
00010010
MMMMMMMM
00002002
00003003
,
00002002
00000000
00000000
00000000
,
00003003
00000100
00000100
MMMMMMMM
,
00010000
00001000
00010000
MMMMMMMM
,
20020000
00000000
30030000
MMMMMMMM
,
00002000
00003000
00020000
00031000
,
00000100
00000000
00000001
00001000
00000000
00000001
00001000
00000000
,
MMMMMMMM
00022000
00033000
MMMMMMMM
,
10000000
10000000
00010000
00010000
,
00100000
MMMMMMMM
00100000
MMMMMMMM
00011000
MMMMMMMM
00011000
MMMMMMMM
,
00001000
MMMMMMMM
00001000
MMMMMMMM
00000010
MMMMMMMM
00000010
00000200
,
00000000
00000000
00000300
MMMMMMMM
00002002
00000000
00003003
00022000
,
00000000
00000000
00033000
00000000
,
00010000
00000000
00000000
00001000
00000000
00000000
00011000
00000000
00000000
00000000
00000000
00000000
00000000
00000000
00000000
00000000
,
00202000
00000000
00303000
MMMMMMMM
00020020
00000000
00030030
MMMMMMMM
,
00000010
00000000
00000000
00010000
00000000
00000000
00001000
00000000
00100000
00000000
00000000
00000000
00000000
00000000
00000000
00000000
;

//---------------dance-single - Vocals----------------
#NOTES:
     dance-single:
     :
     Edit:
     12:
     0.638023,0.639140,0.742732,0.400684,0.332275,340.000000,76.000000,41.000000,68.000000,0.000000,0.000000,0.638023,0.639140,0.742732,0.400684,0.332275,340.000000,76.000000,41.000000,68.000000,0.000000,0.000000:
// measure 0
0000
0000
0000
0000
,  // measure 1
1001
MMMM
0110
MMMM
,  // measure 2
0010
0000
0000
1000
0000
0000
0001
0000
0100
0000
0000
0000
0002
0000
0000
0000
,  // measure 3
0013
0000
0000
0000
MMMM
0000
0100
1000
0001
1000
0010
0000
0000
0100
0000
0000
,  // measure 4
0110
0000
0000
0000
1000
0000
0010
0000
0100
0001
0010
0000
0000
0100
0000
0000
,  // measure 5
0110
0000
0000
0000
MMMM
0000
1000
0100
0010
0001
0100
0000
0000
0010
0000
0000
,  // measure 6
0110
0010
1000
1000
1001
0001
0010
0010
,  // measure 7
0110
0000
0000
0000
0100
0000
1000
0000
0001
0100
0010
0000
0000
1000
0000
0000
,  // measure 8
1001
0000
0000
0000
1000
0000
0100
0000
0010
0000
0001
0000
0000
1000
0000
0000
,  // measure 9
1001
0000
0000
0000
MMMM
0000
0001
0010
0100
1000
0001
0000
0000
1000
0000
0000
,  // measure 10
1010
0101
0011
1001
,  // measure 11
MMMM
MMMM
MMMM
MMMM
,  // measure 12
MMMM
1001
0110
1001
,  // measure 13
1000
0100
1000
0000
0001
0000
0100
0020
0000
0000
0100
0000
0130
0000
0000
0000
,  // measure 14
0001
0100
0001
0000
1000
0000
0100
0020
0000
0000
0100
0000
0130
0000
0000
0000
,  // measure 15
1000
0001
1000
0001
1000
0000
0001
0200
0000
0000
0310
0000
1000
0000
0100
0000
,  // measure 16
0010
0001
0100
0110
0000
0010
1001
0000
,  // measure 17
0001
0100
0000
0100
0010
0000
1000
0002
0000
0000
1000
0000
1003
0000
0000
0000
,  // measure 18
0100
0010
0100
0010
0100
0000
1000
0002
0000
0000
0103
0000
0010
0000
1020
0000
,  // measure 19
0000
1030
1100
0000
0012
1000
1003
0201
,  // measure 20
0000
0310
1010
0000
2100
0001
3001
0210
,  // measure 21
0000
1300
0101
0000
0011
0000
1010
2001
,  // measure 22
0000
0000
3010
0000
0100
0001
0000
0001
0010
0000
0000
0100
0000
0000
1000
0000
,  // measure 23
1001
0000
0000
1100
0000
0000
0022
0000
0000
0000
0033
0000
MMMM
0000
0000
0000
,  // measure 24
MMMM
0000
MMMM
0000
0001
0100
0000
0020
0000
0000
1030
0000
0100
0000
1000
0000
,  // measure 25
0011
0010
0100
2100
0000
3001
0010
0100
,  // measure 26
1000
0000
0000
0000
0001
0100
0000
0020
0000
0000
1030
0000
0100
0000
1000
0000
,  // measure 27
1100
0000
0000
0010
0000
0000
0001
0000
1001
0000
0000
0000
0110
0000
0000
0000
,  // measure 28
0101
0001
1000
1100
0000
0100
0010
0001
,  // measure 29
1100
0010
0001
0200
0000
1300
0100
0001
,  // measure 30
0011
0100
1000
0010
0101
0010
1000
0100
,  // measure 31
0110
0000
0000
0100
0000
0000
1000
0000
1001
0000
0000
0000
1000
0100
0000
0000
,  // measure 32
0020
0000
0000
0000
0031
0100
0000
0000
0020
0000
0000
0000
0000
0000
0130
0000
,  // measure 33
0001
0010
1000
0020
0000
0130
2000
0000
,  // measure 34
3002
0000
0000
0000
0103
0010
0000
0000
2000
0000
0000
0000
0000
0000
3000
0010
,  // measure 35
0100
0000
0000
0101
0000
0000
0011
0000
MMMM
0000
0000
0000
0100
0000
2000
0000
,  // measure 36
0000
0000
3010
0000
0100
0000
0001
0000
0100
0000
1000
0200
0000
0000
0320
0000
,  // measure 37
0000
0000
1030
0000
0100
0000
1000
0000
0001
0000
0010
0100
0000
0000
0000
0000
,  // measure 38
1001
0000
0001
0100
0000
0000
MMMM
0000
0110
0000
0010
1000
0000
0000
MMMM
0000
,  // measure 39
1100
0000
0100
0010
0000
0000
0011
0000
1001
0000
0000
0101
0000
0000
0100
0000
,  // measure 40
1010
0000
0010
2000
0000
0000
0000
0000
0100
0000
0000
0100
3000
0000
0020
0000
,  // measure 41
0000
0031
1000
1001
,  // measure 42
0001
0100
0010
0000
1000
0000
0100
2000
0000
0000
0001
0000
3001
0000
0000
0000
,  // measure 43
1000
0100
0010
0001
0100
0000
0100
0002
0000
0000
1000
0000
1003
0000
0000
0000
,  // measure 44
0010
1000
0100
1000
0010
0000
0100
0002
0000
0000
0013
0000
0100
0000
1000
0000
,  // measure 45
1010
0100
0001
0011
0000
0100
1001
0000
,  // measure 46
1100
0000
1100
0000
0010
0000
0001
0200
0000
0000
1000
0000
0301
0000
0000
0000
,  // measure 47
0001
0100
0001
0100
0010
0000
1000
0200
0000
0000
0001
0000
1300
0000
1200
0000
,  // measure 48
0000
0310
0011
0000
0201
1000
0301
2001
,  // measure 49
0000
3100
0110
0000
1020
0001
1030
1200
,  // measure 50
0000
0310
1001
0000
0102
0000
0013
2001
,  // measure 51
0000
0000
3010
0000
0100
0001
0000
1000
0001
0000
0000
0010
0000
0000
0100
0000
,  // measure 52
1100
0000
0000
0011
0000
0000
1001
0000
MMMM
0000
0000
0000
1000
0000
0100
0000
,  // measure 53
0011
0100
1000
0010
0101
0010
1000
0100
,  // measure 54
0110
0000
0000
0001
0000
0000
0100
0000
1001
0000
0000
0000
0000
0000
0000
0000
;
