#TITLE:MAXX UNLIMITED;
#SUBTITLE:;
#ARTIST:ITG Edition;
#TITLETRANSLIT:;
#SUBTITLETRANSLIT:;
#ARTISTTRANSLIT:;
#CREDIT:;
#BANNER:MAXX UNLIMITED.png;
#BACKGROUND:MAXX UNLIMITED-bg.png;
#LYRICSPATH:;
#CDTITLE:215edit.png;
#MUSIC:MAXX UNLIMITED.ogg;
#OFFSET:0.000;
#SAMPLESTART:65.620;
#SAMPLELENGTH:15.000;
#SELECTABLE:YES;
#DISPLAYBPM:140.000:320.000;
#BPMS:0.000=300.000,4.000=300.000,164.000=279.883,196.000=300.000,228.000=150.000,244.000=300.000,276.000=140.078,284.000=125.000,285.000=48.387,286.000=319.985;
#STOPS:286.000=1.500
;
#BGCHANGES:;

//---------------dance-single - itgedition----------------
#NOTES:
     dance-single:
     itgedition:
     Challenge:
     18:
     1.000,1.000,0.479,0.240,0.105: // measure 1
0000
0000
0000
0000
,  // measure 2
0000
0000
0000
0000
,  // measure 3
0000
0000
0000
0000
,  // measure 4
0000
0000
0000
0000
,  // measure 5
0000
0000
0000
0000
,  // measure 6
0000
0000
0000
0000
,  // measure 7
0000
0000
0000
0000
,  // measure 8
0000
0000
0000
0000
,  // measure 9
0000
0000
0000
0000
,  // measure 10
0001
0100
0010
0100
0001
1000
0100
0010
,  // measure 11
0001
0010
0100
1000
0010
0100
0001
0100
,  // measure 12
0001
0010
0100
1000
0100
0010
0001
0100
,  // measure 13
0010
0100
0001
0010
0100
0001
0100
0010
,  // measure 14
0100
0010
0001
1000
0010
0100
1000
0100
,  // measure 15
0010
1000
0100
0010
0100
0001
0100
1000
,  // measure 16
0010
1000
0100
1000
0010
1000
0100
0010
,  // measure 17
0MM1
1MM0
0MM1
1MM0
0MM1
1MM0
0MM1
1MM0
,  // measure 18
0001
0010
MM01
0010
0100
1000
01MM
1000
,  // measure 19
0010
0100
M0M1
0100
0010
0100
0M1M
1000
,  // measure 20
0001
0100
M01M
1000
0100
1000
01MM
0010
,  // measure 21
0002
MM00
MM00
MM00
,  // measure 22
0013
0100
10MM
0010
M10M
0010
M1M0
0001
,  // measure 23
0M1M
0100
1MM0
0010
M1M0
0001
1M0M
0010
,  // measure 24
01MM
0001
M10M
0010
10MM
0100
10MM
0100
,  // measure 25
0020
0000
M00M
0000
M00M
0000
M00M
0030
,  // measure 26
0010
0100
1000
0100
0010
0001
0010
0001
,  // measure 27
0100
0010
1000
0100
1000
0010
0100
0001
,  // measure 28
1000
0010
0100
0001
0010
0100
0001
1000
,  // measure 29
0100
0100
0101
MMMM
0100
0100
1100
MMMM
,  // measure 30
1000
0100
1000
0010
0100
0001
0010
1000
,  // measure 31
0010
0001
0100
0010
0100
0001
0100
1000
,  // measure 32
0100
0001
0010
1000
0010
0001
1000
0010
,  // measure 33
0100
0100
0101
MMMM
0100
0100
1100
MMMM
,  // measure 34
0001
0100
0010
1000
0100
0001
0100
1000
,  // measure 35
0100
0010
0001
0100
0010
1000
0100
0010
,  // measure 36
0001
0010
1000
0010
0001
0100
0010
1000
,  // measure 37
0100
0100
0101
MMMM
0100
0100
1100
MMMM
,  // measure 38
0010
0001
0010
0001
0100
0010
0100
1000
,  // measure 39
0001
0100
0010
1000
0001
0010
0100
1000
,  // measure 40
0010
0010
1010
MMMM
0100
0100
0101
MMMM
,  // measure 41
0100
0010
0001
0010
0100
0001
0010
0100
,  // measure 42
0001
0100
MMMM
0010
1000
MMMM
1000
0001
,  // measure 43
MMMM
1000
0010
0100
0010
0100
1000
0100
,  // measure 44
0001
1000
MMMM
1000
0010
MMMM
0100
0001
,  // measure 45
MMMM
0100
0010
0100
0001
0010
1000
0010
,  // measure 46
0001
1000
MMMM
0010
0100
MMMM
1000
0001
,  // measure 47
MMMM
1000
0010
0001
0010
1000
0010
0100
,  // measure 48
1000
0010
MMMM
0100
0001
MMMM
0010
0001
,  // measure 49
MMMM
1000
0001
MMMM
0010
0001
0010
0100
,  // measure 50
1M0M
0010
1M0M
0010
M1M0
0001
M1M0
0001
,  // measure 51
M1M0
0010
1M0M
0100
1MM0
0001
MM10
0100
,  // measure 52
10MM
0100
1M0M
0010
M10M
0001
MM10
1000
,  // measure 53
0M1M
0001
M1M0
1000
M10M
0010
1MM0
0001
,  // measure 54
MM10
0001
M01M
0100
10MM
0100
1M0M
0010
,  // measure 55
M10M
0010
M10M
0001
M1M0
0010
1M0M
0100
,  // measure 56
0M1M
0100
1MM0
0001
M1M0
0010
MM01
0010
,  // measure 57
01MM
1000
M10M
0010
1M0M
0100
MM10
0100
,  // measure 58
1001
0100
0010
0100
0010
1000
0100
1000
,  // measure 59
0011
0100
0010
0100
0001
1000
0010
0100
,  // measure 60
1100
0010
0100
0010
0001
1000
0001
0100
,  // measure 61
0010
1000
0001
0100
0010
1000
0100
0010
0100
1000
0010
0100
0001
0010
0100
0010
,  // measure 62
0001
1M00
00M1
001M
01M0
1M00
001M
M100
,  // measure 63
00M1
0M10
01M0
1M00
010M
M010
0M01
01M0
,  // measure 64
0M10
100M
01M0
1M00
001M
M100
001M
01M0
,  // measure 65
0M01
10M0
0M01
M010
010M
10M0
M010
010M
,  // measure 66
0M01
01M0
00M1
1M00
010M
100M
01M0
001M
,  // measure 67
01M0
1M00
M001
01M0
0M10
1M00
00M1
01M0
,  // measure 68
1000
1000
1100
MMMM
0001
0001
0101
MMMM
,  // measure 69
1MMM
M1MM
MM1M
MMM1
MM11
MMM1
MM1M
M1MM
,  // measure 70
1MM1
0000
0100
0010
0001
0010
0100
1000
0100
0010
0100
1000
0001
0100
0010
0100
,  // measure 71
1001
0000
1000
0010
0100
0001
0010
0001
0100
0010
1000
0100
0010
0100
1001
0000
,  // measure 72
2M22
0000
0000
0000
0000
0000
0000
0000
0000
0000
0000
0000
0000
0000
0000
0000
0000
3033
0000
0000
MMMM
0000
0000
0000
0110
0000
0000
0000
0100
0000
0000
0000
,  // measure 73
0001
1000
0100
1000
0100
0010
0001
0100
,  // measure 74
0001
1000
0001
0100
0010
1000
0100
1000
,  // measure 75
0001
0100
0010
1000
0001
0010
0100
1000
,  // measure 76
0100
0001
0100
0010
1MM2
0MM0
1MM3
0100
,  // measure 77
0010
0100
0010
0100
1000
0100
0010
0100
,  // measure 78
1000
0010
0100
1000
0100
0010
1000
0100
,  // measure 79
0010
0001
0010
0100
0010
0001
0100
0010
,  // measure 80
0001
0010
0100
1000
0100
MMMM
0001
0100
,  // measure 81
0010
1000
0001
0010
0100
1000
0010
1000
,  // measure 82
0100
0010
0001
1000
0010
0100
0001
1000
,  // measure 83
0001
0010
0100
1000
0001
0100
0010
1000
,  // measure 84
0100
0010
0001
0100
0001
0100
1010
MMMM
,  // measure 85
0101
MMMM
0011
MMMM
1001
MMMM
1010
MMMM
,  // measure 86
0110
MMMM
1100
MMMM
0011
MMMM
0001
0001
,  // measure 87
0012
MMM3
1000
1000
1200
M3MM
0001
0010
,  // measure 88
0100
1000
0010
0100
0001
0010
1010
1000
,  // measure 89
0200
0020
0000
0330
1001
0000
0001
0001
,  // measure 90
0020
0200
0000
0330
1MM1
0000
0100
0100
,  // measure 91
0020
2000
0000
3M3M
1000
0100
0010
0001
,  // measure 92
2MM2
0MM0
0MM0
0MM0
0MM0
3MM3
0100
0010
,  // measure 93
0020
0200
0000
M33M
1010
0000
0001
0200
,  // measure 94
1000
2000
0000
33MM
1001
0000
1000
0020
,  // measure 95
0001
0002
0033
MMMM
00M1
01M0
10M0
01M0
,  // measure 96
00M1
01M0
10M0
01M0
00M1
01M0
0010
1000
,  // measure 97
0100
0010
0001
0100
0010
0000
0100
0010
,  // measure 98
1000
0001
0100
0010
1000
MMMM
1000
0100
,  // measure 99
0010
M001
0010
0100
100M
0100
0010
M001
,  // measure 100
0100
0010
1000
0100
M011
0000
0100
0010
,  // measure 101
0001
0100
001M
1000
0100
0000
0010
M001
,  // measure 102
0010
0100
1000
0010
0100
0000
0100
0010
,  // measure 103
1000
M001
M100
M010
M100
M001
M010
M100
,  // measure 104
M010
M001
M100
M010
1001
M000
M001
M100
,  // measure 105
M010
M001
M010
M100
M001
M010
M100
M001
,  // measure 106
M100
M010
M001
M100
M010
100M
110M
010M
,  // measure 107
001M
010M
100M
001M
010M
100M
010M
001M
,  // measure 108
100M
010M
001M
010M
100M
001M
010M
100M
,  // measure 109
100M
0100
0001
0010
1000
0001
0100
0010
,  // measure 110
0001
1000
0010
0100
0001
1000
0110
MMMM
,  // measure 111
1001
0000
MMMM
0000
0101
MMMM
1100
MMMM
,  // measure 112
0000
0101
0000
0000
1010
MMMM
0101
0000
,  // measure 113
0000
0010
1001
0000
0000
M10M
0010
M10M
,  // measure 114
0010
0MM1
0010
1MM0
0010
0001
2MM2
0000
,  // measure 115
0MM0
0000
0MM0
0000
0MM0
3003
MMMM
0000
;
