#VERSION:0.81;
#TITLE:MAD HEAD LOVE;
#SUBTITLE:;
#ARTIST:Kenshi Yonezu;
#TITLETRANSLIT:;
#SUBTITLETRANSLIT:;
#ARTISTTRANSLIT:;
#GENRE:LOVE ROCK;
#ORIGIN:;
#CREDIT:;
#BANNER:MAD HEAD LOVE.png;
#BACKGROUND:MAD HEAD LOVE-bg.png;
#PREVIEWVID:;
#JACKET:MAD HEAD LOVE-jacket.png;
#CDIMAGE:;
#DISCIMAGE:;
#LYRICSPATH:;
#CDTITLE:;
#MUSIC:MAD HEAD LOVE.mp3;
#OFFSET:1.000;
#SAMPLESTART:0.960;
#SAMPLELENGTH:12.000;
#SELECTABLE:YES;
#BPMS:0.000=212.200;
#STOPS:;
#DELAYS:;
#WARPS:;
#TIMESIGNATURES:0.000=4=4;
#TICKCOUNTS:0.000=4;
#COMBOS:0.000=1;
#SPEEDS:0.000=1.000=0.000=0;
#SCROLLS:0.000=1.000;
#FAKES:;
#LABELS:0.000=Song Start;
#BGCHANGES:;
#KEYSOUNDS:;
#ATTACKS:
;

//---------------dance-single - ----------------
#NOTEDATA:;
#CHARTNAME:;
#STEPSTYPE:dance-single;
#DESCRIPTION:;
#CHARTSTYLE:;
#DIFFICULTY:Challenge;
#METER:7;
#RADARVALUES:0.839,0.850,0.808,0.699,0.109,362.000,67.000,58.000,0.000,1.000,0.000,0.000,0.000,0.839,0.850,0.808,0.699,0.109,362.000,67.000,58.000,0.000,1.000,0.000,0.000,0.000;
#CREDIT:;
#NOTES:
// measure 0
0000
0000
0000
0000
,  // measure 1
0000
0000
0000
0000
,  // measure 2
0000
0000
0000
0000
,  // measure 3
0000
0000
0000
0000
,  // measure 4
0000
0000
0000
0000
,  // measure 5
0001
0000
0001
0010
0001
0010
0100
1000
,  // measure 6
0101
1010
0101
1010
,  // measure 7
0001
0010
0100
1000
,  // measure 8
0001
0010
0001
0010
0001
0000
1100
0010
,  // measure 9
1001
0000
0010
0100
0010
0000
0010
1001
,  // measure 10
0100
0010
0100
1000
0011
0000
0011
0000
,  // measure 11
0200
0010
0001
1000
,  // measure 12
0321
1000
0100
0001
,  // measure 13
1030
0000
0100
0010
0100
0001
0010
0100
,  // measure 14
0010
1000
0200
0000
0310
0000
0001
0000
,  // measure 15
0010
0100
0001
0100
0010
1000
0010
0100
,  // measure 16
0001
0100
1000
0100
1001
0000
1001
0000
,  // measure 17
1001
0000
0010
0100
0010
0000
0010
0100
,  // measure 18
1001
0010
0100
1000
0011
0000
0022
0033
,  // measure 19
0001
0001
0001
0001
1000
0100
1000
0100
,  // measure 20
0001
0010
0100
0010
2002
0000
3003
0000
,  // measure 21
0020
0031
0010
0100
0010
0100
0001
0100
,  // measure 22
1000
0010
0200
0310
0002
0103
2000
3010
,  // measure 23
0001
0000
0010
0100
0010
0000
0001
0000
0010
0000
0001
0000
1000
0000
0100
0000
,  // measure 24
0010
0100
0010
0100
2002
3003
0110
0000
,  // measure 25
0001
0000
0001
0010
0001
0000
0010
0002
,  // measure 26
0003
0000
0100
0000
0010
0000
0100
0000
1000
0000
0010
0000
0100
0000
1000
0100
,  // measure 27
0020
0000
0230
0000
0320
0230
0320
0032
,  // measure 28
1003
0110
2002
3003
,  // measure 29
0001
0000
0010
0000
0100
0000
0010
0000
1000
0000
0100
0000
,  // measure 30
0010
0000
0001
0000
0010
0000
0200
0000
0000
0310
0000
0000
,  // measure 31
1001
0000
0110
0000
1001
0000
0010
0100
,  // measure 32
1000
0100
0010
0000
0011
0000
0022
0000
,  // measure 33
0033
0000
0001
0100
0002
0000
0103
0010
,  // measure 34
0100
1000
0101
0000
0101
0000
0010
0100
,  // measure 35
1000
0000
0100
0000
0010
0000
0100
0000
1000
0000
0100
0000
,  // measure 36
0020
0000
0130
0001
,  // measure 37
0000
0000
0010
0000
0100
0000
0010
0000
1000
0000
0100
0000
,  // measure 38
0001
0000
0100
0000
1000
0000
0100
0000
0000
0010
0000
0000
,  // measure 39
2002
0000
3003
0000
0010
0000
0100
1000
,  // measure 40
0100
1000
0000
0000
0001
0000
0010
0000
,  // measure 41
0000
0000
0001
0010
0200
0000
1300
0010
,  // measure 42
1000
0010
0001
0000
0000
0000
1000
0100
,  // measure 43
0020
0230
0302
2003
,  // measure 44
3010
0110
0110
0110
,  // measure 45
1001
0000
1001
0000
,  // measure 46
1001
1001
1001
1001
,  // measure 47
0010
0000
0100
0000
0010
0000
0100
0100
,  // measure 48
0010
1000
0010
1000
0010
0000
0010
0100
,  // measure 49
2002
0000
3003
0010
0100
0010
0100
1000
,  // measure 50
0011
0011
0022
0033
,  // measure 51
1000
0000
0100
0000
0010
0000
0100
1000
,  // measure 52
0110
0000
0110
0000
1001
0000
0010
0100
,  // measure 53
0002
0000
0003
0010
0200
0300
0010
0001
,  // measure 54
1010
0101
1010
0000
,  // measure 55
0001
0100
0001
0100
0001
0100
0001
0100
,  // measure 56
1000
0010
1000
0010
1000
0010
1000
0010
,  // measure 57
1000
0100
0010
0001
1000
0100
0001
0010
,  // measure 58
1001
0110
2002
3003
,  // measure 59
0001
0010
0001
0100
0001
0010
0100
1000
,  // measure 60
0010
0100
0010
0100
1000
0100
0010
0001
,  // measure 61
0110
0000
0110
0000
1001
0010
1001
0010
,  // measure 62
0100
0100
0010
0100
0022
0000
0033
0000
,  // measure 63
1010
0000
0110
0000
0101
0000
1000
1000
,  // measure 64
0200
0000
0320
0000
2030
0000
3010
0010
,  // measure 65
0020
0000
0030
0100
0010
1000
0001
0010
,  // measure 66
1100
1100
2200
3300
,  // measure 67
0001
0010
0001
0010
0200
0000
0310
0010
,  // measure 68
0200
0000
0320
0000
2030
0000
3100
0100
,  // measure 69
0202
0000
0303
1000
0220
0330
1000
1000
,  // measure 70
0101
0101
0101
0000
;
