#TITLE:Light Up My Love!;
#SUBTITLE:;
#ARTIST:Ani feat. Moco;
#TITLETRANSLIT:;
#SUBTITLETRANSLIT:;
#ARTISTTRANSLIT:;
#GENRE:;
#CREDIT:;
#BANNER:Light Up My Love!-banner.png;
#BACKGROUND:Light Up My Love!-bg.png;
#LYRICSPATH:;
#CDTITLE:;
#MUSIC:Light Up My Love!.mp3;
#OFFSET:0.000000;
#SAMPLESTART:100.000000;
#SAMPLELENGTH:12.000000;
#SELECTABLE:YES;
#BPMS:0.000000=90.000000
,24.000000=120.000000
;
#STOPS:0.000000=0.060000,
160.000000=0.050000
;
#BGCHANGES:;
#KEYSOUNDS:;
#ATTACKS:;

//---------------dance-single - ----------------
#NOTES:
     dance-single:
     :
     Beginner:
     3:
     0.199906,0.209902,0.016367,0.049100,0.000000,163.000000,2.000000,6.000000,0.000000,0.000000,0.000000,0.199906,0.209902,0.016367,0.049100,0.000000,163.000000,2.000000,6.000000,0.000000,0.000000,0.000000:
// measure 0
0000
0000
0000
0000
,  // measure 1
1000
1000
1000
1000
,  // measure 2
1000
0001
0001
0001
,  // measure 3
0001
0001
1000
1000
,  // measure 4
1000
1000
1000
0001
,  // measure 5
0002
0000
0000
0000
,  // measure 6
0003
0100
0100
0100
,  // measure 7
1000
1000
1000
0001
,  // measure 8
0001
0001
1000
1000
,  // measure 9
1000
0100
0100
0100
,  // measure 10
0001
0001
0001
1000
,  // measure 11
0100
0010
0100
2000
,  // measure 12
3000
0100
0100
0100
,  // measure 13
0000
0000
0000
1000
,  // measure 14
1000
1000
0000
0000
,  // measure 15
0001
0001
0001
0000
,  // measure 16
0000
0000
1000
1000
,  // measure 17
0100
0200
0300
1000
,  // measure 18
1000
0001
0001
1000
,  // measure 19
1000
0001
0001
1000
,  // measure 20
1000
0001
0001
0010
,  // measure 21
0010
0100
0100
0010
,  // measure 22
0010
0100
0100
0010
,  // measure 23
0010
0000
1000
0000
,  // measure 24
0001
0000
1000
0000
,  // measure 25
1000
0100
0100
0100
,  // measure 26
0001
0000
1000
0000
,  // measure 27
0001
0000
0100
0100
,  // measure 28
0100
0100
0100
0000
,  // measure 29
0002
0000
0000
0000
,  // measure 30
0000
0000
0000
0000
,  // measure 31
0000
0000
0000
0000
,  // measure 32
0000
0000
0000
0000
,  // measure 33
0000
0000
0000
0000
,  // measure 34
0000
0000
0003
2000
,  // measure 35
0000
0000
0000
0000
,  // measure 36
0000
0000
0000
3000
,  // measure 37
0001
1000
1000
1000
,  // measure 38
0001
0001
0001
1000
,  // measure 39
1000
1000
0002
0003
,  // measure 40
1001
1000
1000
1000
,  // measure 41
1000
0000
0000
0001
,  // measure 42
0001
0001
0000
0000
,  // measure 43
1000
1000
1000
1000
,  // measure 44
0000
0000
0000
0001
,  // measure 45
0001
0001
0001
0000
,  // measure 46
1000
1000
0100
0100
,  // measure 47
0010
0010
0001
0001
,  // measure 48
0010
0010
0100
0100
,  // measure 49
1000
1000
0100
0100
,  // measure 50
0001
0001
0001
1000
,  // measure 51
1000
1000
0000
0001
,  // measure 52
0001
1000
1000
0001
,  // measure 53
0001
1000
1000
0000
,  // measure 54
0000
1000
1000
0001
,  // measure 55
0001
1000
1000
0001
,  // measure 56
0001
0000
1000
0000
1000
0001
0001
0001
,  // measure 57
1001
0000
0000
0000
;

//---------------dance-single - ----------------
#NOTES:
     dance-single:
     :
     Easy:
     7:
     0.333177,0.375614,0.196399,0.147300,0.000000,243.000000,24.000000,18.000000,0.000000,0.000000,0.000000,0.333177,0.375614,0.196399,0.147300,0.000000,243.000000,24.000000,18.000000,0.000000,0.000000,0.000000:
0000
0000
0000
0000
,
0000
0000
1000
1000
1000
1000
0001
0001
,
0001
0001
1000
1000
1000
1000
0001
0001
,
0001
0001
0001
1000
1000
1000
1000
0001
,
0001
0001
0001
1000
0001
1000
1000
2002
,
0000
0000
0000
0000
,
3003
1001
1001
1001
,
1001
1001
1000
0100
,
0110
0110
0110
1000
,
0001
1000
1001
1001
,
1001
0010
0100
0100
,
0100
0010
1000
0002
,
0003
0110
0110
0110
,
1000
0100
1000
0110
,
0110
0110
1000
0100
,
1000
0110
0110
0110
,
1000
1000
0100
0010
,
0002
0000
0003
1000
,
1000
1000
1000
1000
,
1000
1000
1000
1000
,
1000
0000
0001
0001
0001
0001
0000
0000
,
0100
0100
0100
0100
,
0100
0100
0100
0100
,
0001
0001
0001
0001
2000
0000
0000
0000
,
3200
0000
0000
0000
,
0300
0000
0010
0010
0010
0010
0010
0002
,
0000
0000
0000
0000
0000
0000
0000
0003
,
2000
0000
3100
0010
,
0001
0010
0100
0000
,
2000
0100
0000
0100
,
0000
0100
0000
0100
,
0000
0100
0000
0100
,
3020
0100
0000
0100
,
0000
0100
0000
0100
,
0030
0200
0010
0000
0000
0000
0010
0000
,
0000
0310
0002
0010
,
0000
0010
0000
0013
,
1000
1000
0001
0001
,
0001
0001
1000
1000
,
2002
0000
0000
3003
,
1001
1000
1000
1000
,
0001
0001
0001
0001
0001
0000
1000
0000
,
1000
0000
1000
0000
1000
0001
0001
0001
,
0001
0001
1000
0000
1000
0000
1000
0000
,
1000
0001
0001
0001
0001
0001
0000
1000
,
0100
1000
0200
0000
0000
0000
0300
1000
,
1000
0100
0100
0010
0010
0001
0001
0010
,
0010
0100
0100
1000
1000
0100
0100
1000
,
1000
0100
0100
0010
0010
0001
0001
0010
,
0010
0100
0100
1000
1000
0100
0100
0010
,
0010
0001
0001
0010
0010
0100
0100
0100
,
0200
0000
0000
0300
0000
0000
1000
0000
,
1000
1000
1000
1000
,
1000
0000
1000
0000
1000
0000
0000
0001
,
0010
0001
0010
0001
1000
0000
1000
0000
,
1000
0000
1000
0000
1000
0000
0100
0010
,
0001
0010
0100
1000
0100
0010
0001
0022
,
0000
0000
0000
0033
0000
0000
0000
0000
;

//---------------dance-single - ----------------
#NOTES:
     dance-single:
     :
     Medium:
     10:
     0.574000,0.752864,0.720131,0.286416,0.556465,368.000000,88.000000,35.000000,0.000000,0.000000,0.000000,0.574000,0.752864,0.720131,0.286416,0.556465,368.000000,88.000000,35.000000,0.000000,0.000000,0.000000:
0000
0000
0000
0000
,
0000
0000
0000
1100
0000
0000
1100
0000
0000
1100
0000
0000
1100
0000
0000
1100
0000
0000
0000
0000
0000
0000
0010
0000
,
0001
0000
0010
0000
0001
0000
0010
0000
0000
1100
0000
0000
1100
0000
0000
1100
0000
0000
1100
0000
0000
0000
0010
0000
,
0001
0000
0010
0000
0001
0000
0010
0000
0000
1100
0000
0000
1100
0000
0000
1100
0000
0000
1100
0000
0010
0000
0001
0000
,
0010
0001
0010
0100
1000
0100
0000
0010
0010
1000
0001
0200
,
0000
0000
0000
0000
0000
0000
0000
0000
0000
0000
0000
0300
,
0000
0000
1001
1000
1000
1000
1000
1000
,
1000
0000
0000
1001
0000
0000
0000
0000
0000
0000
0000
0000
0010
0000
0100
0000
0010
0000
0100
0000
0010
0000
0100
0000
,
0010
0000
0000
1000
0000
0000
1000
0000
0000
1000
0000
0000
1000
0000
0000
1000
0000
0000
1100
0000
0000
0000
0100
0000
,
1000
0000
0100
0000
0010
0000
0001
0000
0010
0000
0100
0000
0010
0000
0000
1100
0000
0000
1100
0000
0000
1100
0000
0000
,
1100
0000
0000
1100
0000
0000
0000
0000
0000
0000
0010
0000
0001
0000
0010
0000
0001
0000
0010
0000
0001
0000
0000
0000
,
1100
0000
0011
0000
1000
0100
2000
0000
,
0000
0000
3000
0000
0000
0000
0011
0000
0000
0011
0000
0000
0011
0000
0000
0011
0000
0000
1100
0000
0000
0000
0000
0000
,
0010
0000
0001
0000
0010
0000
0001
0000
0010
0000
0001
0000
0010
0000
0000
0000
0000
0000
1100
0000
0000
1100
0000
0000
,
1100
0000
0000
1100
0000
0000
0011
0000
0000
0000
0000
0000
1000
0000
0100
0000
0010
0000
0001
0000
0010
0000
0100
0000
,
1000
0000
0000
0000
0000
0000
0110
0000
0000
1001
0000
0000
0110
0000
0000
1001
0000
0000
1100
0000
0000
0000
0010
0000
,
0001
0000
0010
0000
0100
0000
1000
0000
0000
0100
0000
0000
0010
0000
0000
0002
0000
0000
0023
0000
0000
0000
0000
0000
,
0200
0030
0000
2300
0000
0000
3000
0000
,
0001
0010
0001
1000
0100
1000
0000
0001
0010
0001
0000
1000
,
0100
1000
0000
0001
0010
0001
0000
1000
0100
1000
0000
0000
,
0000
0001
0001
0001
0001
0001
0000
0000
1000
0100
1000
0000
,
0001
0010
0001
0000
1000
0100
1000
0000
0001
0010
0001
0000
,
1000
0100
1000
0000
0001
0010
0001
0000
1000
0100
1000
0001
,
0001
0000
0001
0000
0001
0000
0001
0000
0000
2200
0000
0000
0000
0000
0000
0000
0000
0000
3300
0000
0000
0011
0000
0000
,
2200
0000
0000
0000
3300
0011
0000
1000
,
0100
0010
0100
1000
0100
0010
0001
2200
,
0000
0000
3300
0011
2200
0000
0000
0000
,
3300
0011
2000
3100
0010
0001
0010
0000
,
2000
3200
0320
0230
0300
0000
2000
0000
,
0000
0000
0000
0200
0000
0000
0000
0000
,
3000
0020
0000
0300
,
0002
0000
0000
0030
0000
0000
2000
0000
,
0003
0000
0000
0000
0020
0000
0000
3000
,
0000
0200
0030
0000
,
0300
0000
1001
1001
0000
2000
0000
0000
,
0000
0200
3000
0000
0020
0300
0000
0002
,
0030
0000
0000
0013
0100
2000
0000
0000
,
0000
0000
0000
3100
0000
0000
0010
0000
0000
0000
0000
0000
1000
0000
0100
0000
1000
0000
0100
0000
0001
0000
0010
0000
,
0001
0010
0001
1000
0100
0010
0001
0010
0100
0000
1000
0100
,
0010
0001
0010
2000
0000
0000
0000
0000
0000
0000
0000
3000
,
1001
0000
1000
1000
1000
1000
1000
0000
,
0000
0000
0000
0000
0001
0000
0010
0000
0001
0000
0010
0000
0001
0000
0000
0000
0000
0000
1000
0000
0000
1000
0000
0000
,
1000
0000
0000
1000
0000
0000
1000
0000
0000
0000
0000
0000
0001
0000
0010
0000
0001
0000
0010
0000
0001
0000
0010
0000
,
0000
0000
1000
1000
1000
1000
1000
0000
,
0001
0000
0000
0000
0010
0000
0000
0000
0001
0000
0000
0000
0010
0000
0000
0000
0100
0000
0000
0000
1000
0000
0000
0000
0100
0000
0000
0010
0000
0000
0001
0000
0000
0010
0000
0000
0000
0000
0000
0100
0000
0000
1000
0000
0000
0000
0000
0000
,
0100
0010
0001
0020
0000
0000
0000
0000
0000
0030
0000
0000
1100
0000
1100
0000
,
0011
0011
1100
1100
0011
0011
1001
1001
,
0110
0110
1001
1001
1100
1100
0011
0011
,
1010
0101
1100
0011
1001
0110
1100
1100
,
0011
0011
1100
0011
1100
1100
0011
1100
,
0011
1100
0110
0000
0011
0110
2000
0000
,
0000
0000
0000
3000
0000
0001
0010
0001
0000
1000
0100
1000
,
0000
0001
0010
0001
0000
0000
1000
0100
1000
0000
0001
0010
,
0001
0000
1000
0100
1000
0000
0001
0010
0001
1000
1000
1000
,
1000
1000
0000
0001
0010
0001
0000
1000
0100
1000
0000
0001
,
0010
0001
0000
0000
1000
0100
1000
0000
0001
0010
0001
0000
,
0000
1000
0100
1000
0000
0001
0010
0001
0000
1000
1000
1000
,
2000
0000
3000
0000
;

//---------------dance-single - ----------------
#NOTES:
     dance-single:
     :
     Hard:
     14:
     0.690905,0.725373,0.057283,0.294599,1.000000,548.000000,7.000000,36.000000,0.000000,0.000000,0.000000,0.690905,0.725373,0.057283,0.294599,1.000000,548.000000,7.000000,36.000000,0.000000,0.000000,0.000000:
0000
0000
0000
0000
,
0000
0000
1000
1000
1000
1000
1000
1000
1000
0000
0001
0000
1000
0100
1000
0100
,
1000
0000
0001
0001
0001
0001
0001
0001
0001
1000
0000
0010
0100
0010
0100
0010
,
0100
0000
0001
0001
0001
0001
0001
0001
0010
0100
0010
0001
0010
0001
0000
0001
,
0001
0010
0010
0100
0100
1000
0001
0000
1000
0001
0010
0100
0000
0020
0000
0000
,
0000
0000
0000
0000
,
0000
0000
0000
0030
0000
0000
1001
0000
0000
0000
0000
0000
0000
0000
1000
0000
0100
0000
1000
0000
0100
0000
1000
0000
,
0100
0000
0000
0000
1000
0000
0000
0000
0100
0000
0000
0000
0000
0000
0000
0000
0000
0000
0000
0000
0000
0001
0000
0000
0010
0000
0000
0001
0000
0000
0010
0000
0000
0001
0000
0000
0010
0000
0000
0001
0000
0000
0010
0000
0000
0001
0000
0000
,
0000
0000
1000
0100
1000
0100
1000
0100
1000
0000
0000
0000
,
0001
0000
0000
0010
0000
0000
0001
0000
0000
0010
0000
0000
0001
0000
0000
0010
0000
0000
0001
0000
0000
0000
0000
0000
0000
0000
0000
0000
1000
0000
0000
0000
0100
0000
0000
0000
1000
0000
0000
0000
0100
0000
0000
0000
1000
0000
0000
0000
,
0100
0000
0000
0000
1000
0000
0000
0000
0000
0000
0000
0000
0000
0000
0000
0010
0000
0000
0001
0000
0000
0010
0000
0000
0001
0000
0000
0010
0000
0000
0001
0000
0000
0010
0000
0000
0000
0000
0000
0000
0000
0000
0000
0000
1000
0000
0000
0000
,
1000
0100
0100
0010
0001
0010
2000
0000
0000
0000
0000
3000
,
0000
0000
0010
0100
0010
0100
0010
0100
0010
0100
0000
0000
,
0000
0000
0000
1000
0000
0000
0001
0000
0000
1000
0000
0000
0001
0000
0000
1000
0000
0000
0001
0000
0000
1000
0000
0000
0001
0000
0000
0000
0000
0000
0000
0000
0000
0000
0000
0000
1000
0000
0000
0000
0010
0000
0000
0000
1000
0000
0000
0000
,
0010
0000
0000
0000
1000
0000
0000
0000
0010
0000
0000
0000
1000
0000
0000
0000
0010
0000
0000
0000
0000
0000
0000
0000
0000
0000
0000
0100
0000
0000
0001
0000
0000
0100
0000
0000
0001
0000
0000
0100
0000
0000
0001
0000
0000
0100
0000
0000
,
0001
0000
0000
1000
0100
1000
0100
1000
0100
1000
0100
0000
,
0000
0010
0001
0010
0001
0010
0001
0001
1000
0100
0010
0001
1000
0100
0001
0010
,
1000
0100
0002
0000
0000
0000
0000
0000
0000
0003
0000
0000
1000
0100
1000
0001
,
0010
0001
1000
0100
1000
0001
0010
0001
1000
0100
1000
0001
0010
0001
1000
0100
,
1000
0000
0001
0010
0001
1000
0100
1000
0001
0010
0001
1000
0100
1000
0001
0010
,
0001
0000
0000
0000
0000
0000
0000
0000
1000
0000
0000
0000
1000
0000
0000
0000
1000
0000
0000
0000
1000
0000
0000
0000
1000
0000
0000
0000
1000
0000
0000
0000
1000
0000
0000
0000
0001
0000
0000
0010
0000
0000
0001
0000
0000
1000
0000
0000
,
0100
1000
0001
0010
0001
1000
0100
1000
0001
0010
0001
1000
0100
1000
0001
0010
,
0001
0000
0000
1000
0000
0000
0100
0000
0000
1000
0000
0000
0000
0000
0000
0001
0000
0000
0010
0000
0000
0001
0000
0000
1000
0000
0000
0100
0000
0000
1000
0000
0000
0000
0000
0000
0001
0000
0000
0000
0001
0000
0000
0000
0001
0000
0000
0000
,
0001
0001
0001
0001
0000
0000
2000
0000
0000
0000
3100
0002
,
0000
0000
0000
0103
0000
2000
0000
0000
0000
3100
0000
0001
,
0010
0001
0010
0001
0000
1100
1100
1100
1100
1100
0000
0002
,
0000
0000
0000
0000
0013
0000
2000
0000
0000
0000
0000
0000
,
3100
0000
0002
0000
0000
0000
0000
0013
0000
2000
0000
0000
,
0000
0000
3100
0000
0001
0010
0001
0010
0100
1000
0000
0000
,
0000
2000
0000
0100
0000
0010
3001
0010
0100
0010
0002
0000
,
0013
0200
0000
0300
2000
0000
0000
3100
0020
0000
0000
0000
,
0030
0000
0100
1000
0010
0200
0000
0001
0001
0320
0000
0000
,
0230
0000
0000
0000
0000
0000
2300
0000
0000
0000
0000
0000
0000
0000
0000
3000
0000
0000
0100
0000
0010
0000
0001
0000
,
0010
0100
2000
0000
3200
0000
0320
0000
0000
0031
0001
1000
,
0200
0000
0000
0000
0000
0300
2000
0000
0000
0100
0100
0010
,
0001
0010
3100
0000
0001
0020
0000
0000
0230
0000
0000
2300
,
0000
0000
3200
0320
0000
0000
0000
0030
0002
0023
0000
0130
,
2000
0000
0000
3000
0000
1000
0100
0010
0001
0000
1000
0100
,
1000
0100
1000
0010
0001
0010
0001
0010
0100
1000
0100
0010
,
0001
0010
0200
0000
0000
0000
0000
0000
0000
0000
0000
0300
,
1001
0000
0000
0000
0000
0000
1000
0100
1000
0100
1000
0100
,
1000
0000
0000
0000
0000
0000
0000
0000
0000
0000
0000
0000
0001
0000
0000
0010
0000
0000
0001
0000
0000
0010
0000
0000
0001
0000
0000
0010
0000
0000
0000
0000
0000
0000
0000
0000
1000
0000
0000
0000
0100
0000
0000
0000
1000
0000
0000
0000
,
0100
0000
0000
0000
1000
0000
0000
0000
0100
0000
0000
0000
1000
0000
0000
0000
0000
0000
0000
0000
0000
0001
0000
0000
0010
0000
0000
0001
0000
0000
0010
0000
0000
0001
0000
0000
0010
0000
0000
0001
0000
0000
0000
0000
0000
0000
0000
0000
,
1000
0000
0000
0000
0100
0000
0000
0000
1000
0000
0000
0000
0100
0000
0000
0000
1000
0000
0000
0000
0100
0000
0000
0000
1000
0000
0000
0000
0100
0000
0000
0000
1000
0000
0000
0000
0001
0000
0000
0000
0000
0000
0010
0000
0000
0001
0000
0000
,
0010
0001
0010
0001
1000
1000
0001
0001
0010
0100
0010
0001
0010
0100
1000
0100
,
0010
0010
0002
0000
0000
0000
0000
0000
0000
0000
0000
0000
0003
0000
0000
0000
,
1000
0100
1000
0100
1000
0100
1000
0100
0010
0100
0010
0100
,
0010
0001
0010
0001
0010
0001
0010
0001
0010
0100
0010
0100
,
0010
0100
1000
0100
1000
0100
1000
0100
0010
0100
0010
0100
,
0010
0001
0010
0001
0010
0001
0010
0001
0010
0100
1000
1000
,
0100
0010
0001
0010
0100
1000
0100
0010
0100
1000
0200
0000
,
0000
0000
0000
0000
0300
0000
0000
1000
0100
1000
0001
0010
0001
1000
0100
1000
,
0001
0010
0001
1000
0100
1000
0001
0010
0001
1000
0100
1000
0001
0010
0001
0000
,
1000
0000
0000
0100
0000
0000
1000
0000
0000
0000
0000
0000
0100
0000
0000
1000
0000
0000
0100
0000
0000
0001
0000
0000
0010
0000
0000
0001
0000
0000
1000
0000
0000
0100
0000
0000
1000
0000
0000
0000
0001
0000
0000
0000
0001
0000
0000
0000
,
0001
0000
0000
0000
0001
0000
0000
0000
0001
0000
0000
0000
0001
0000
0000
0000
0000
0000
1000
0000
0000
0100
0000
0000
1000
0000
0000
0001
0000
0000
0010
0000
0000
0001
0000
0000
1000
0000
0000
0100
0000
0000
1000
0000
0000
0001
0000
0000
,
0010
0001
1000
0100
1000
0000
0001
0010
0001
1000
0100
1000
0001
0010
0001
1000
,
0100
1000
0001
0010
0001
1000
0100
1000
0000
0001
0010
0001
0010
0001
0010
0001
,
0010
0002
0000
0003
0000
0000
0000
0000
0000
0000
0000
0000
0000
0000
0000
0000
;
