#TITLE:Let Them Move;
#SUBTITLE:N.M.R;
#ARTIST:X-Edition;
#TITLETRANSLIT:;
#SUBTITLETRANSLIT:;
#ARTISTTRANSLIT:;
#CREDIT:;
#BANNER:Let Them Move.png;
#BACKGROUND:letthemmove-bg.png;
#LYRICSPATH:LET THEM MOVE.lrc;
#CDTITLE:cdtitle.png;
#MUSIC:LETTHEM.MP3;
#OFFSET:-4.207;
#SAMPLESTART:41.720;
#SAMPLELENGTH:12.000;
#SELECTABLE:YES;
#BPMS:0.000=115.090;
#STOPS:;
#BGCHANGES:;

//---------------dance-single - ----------------
#NOTES:
     dance-single:
     :
     Challenge:
     14:
     0.558,0.622,0.588,0.089,0.262:
0000
0000
0000
0000
,
0000
0000
0000
0000
,
1001
0000
0010
0000
0100
0001
1000
0100
,
0010
0000
0001
0000
0100
0010
1000
0000
,
0100
0000
1000
0001
1000
0001
1000
0000
0010
0100
0010
0100
0010
0000
0000
0000
,
0001
1000
0100
1000
0010
0100
0001
0100
,
0101
0000
0010
1000
0100
0000
0010
0000
,
0101
0000
0001
0100
1000
0100
0001
0000
,
0100
0000
0010
1000
0100
1000
0010
0000
0100
0001
0010
0001
0100
0000
0000
0000
,
0010
0000
1000
0000
1000
0100
0010
0000
0100
0010
0001
0000
1000
0100
0010
0000
,
1002
0000
0010
0000
0100
0100
1000
0000
,
0010
0000
0100
0000
0010
1000
0100
1000
,
0100
0000
0010
0000
1000
0100
1000
0003
,
1010
0000
0101
0000
0010
1000
0001
0000
,
2001
0000
0100
0000
0010
0010
0001
0100
,
0010
0000
0100
0100
0100
0000
0010
0001
,
0100
0100
0001
0100
0001
0000
0001
3100
,
0001
0000
0010
0000
0100
0001
1000
0100
,
1001
0100
1001
0100
1001
0100
1001
0100
,
1001
0100
1001
0100
1001
0100
1001
0100
,
1001
0010
1001
0010
1001
0010
1001
0010
,
1001
0010
1001
0010
1001
0010
1001
0010
,
1001
0100
1001
0100
1001
0100
1001
0100
,
1001
0100
1001
0100
1001
0100
1001
0100
,
1001
0010
1001
0010
1001
0010
1001
0010
,
1001
0010
1001
0010
1001
0010
1001
0010
,
1001
0000
1000
0100
0010
0000
0100
0010
0001
0000
0001
0010
0100
0000
0010
0100
,
1000
0000
0001
1000
0100
0000
1000
0001
0100
0000
1010
0000
0101
0000
1010
0000
,
0101
0000
1000
0100
0001
0010
1000
0000
0001
0100
1000
0010
0002
0000
0000
0000
,
0000
0000
0000
0013
,
0001
0100
1000
0100
0001
0010
1000
0010
0001
0100
1000
0100
0001
0010
1000
0010
,
0001
0100
0000
0000
0001
0100
0000
0000
0010
1000
0000
2200
0000
0000
0000
3300
,
0000
0000
1000
0100
0001
0100
1000
0000
1000
0010
0001
0010
1000
0000
0000
0000
,
0010
1000
0010
0000
0100
0001
0100
0000
0010
1000
0010
0000
0100
0001
0100
0000
,
2002
0000
0000
0000
0000
0000
0000
0000
0000
0000
0000
0000
0000
3003
0000
0000
;
