#TITLE:La Señorita Virtual;
#SUBTITLE:;
#ARTIST:EVOLUTION;
#TITLETRANSLIT:;
#SUBTITLETRANSLIT:;
#ARTISTTRANSLIT:;
#CREDIT:;
#BANNER:La Senorita Virtual.png;
#BACKGROUND:La Senorita Virtual-bg.png;
#LYRICSPATH:La Senorita Virtual.lrc;
#CDTITLE:./CDTITLES/DANCE DANCE REVOLUTION HOME VERSION.PNG;
#MUSIC:La Senorita Virtual.mp3;
#OFFSET:-0.063;
#SAMPLESTART:47.320;
#SAMPLELENGTH:15.000;
#SELECTABLE:YES;
#DISPLAYBPM:182.000;
#BPMS:0.000=182.170;
#STOPS:;
#BGCHANGES:;

//---------------dance-single - ----------------
#NOTES:
     dance-single:
     EVOLUTION:
     Challenge:
     16:
     1.000,1.000,1.000,0.000,0.629: // measure 1
0000
0000
0000
0000
,  // measure 2
0000
0000
0000
0000
,  // measure 3
0000
0000
0000
0000
,  // measure 4
0000
0000
0000
0000
,  // measure 5
0000
0000
0000
0000
,  // measure 6
1000
0010
0101
0001
0100
0010
0100
0010
,  // measure 7
1000
0001
0011
0100
1000
0010
0100
0010
,  // measure 8
1000
0010
1010
0001
0100
0010
1000
0001
,  // measure 9
0100
0001
0011
0100
0010
0001
1000
0010
,  // measure 10
0100
0001
1001
0100
0010
1000
0001
0100
,  // measure 11
0010
1000
1010
0001
0100
0010
1000
0100
,  // measure 12
0010
0001
0011
0100
1000
0010
0100
0001
,  // measure 13
1000
0100
1010
0100
0001
0100
0010
1000
,  // measure 14
0110
0010
1000
1000
0001
0001
0100
0100
,  // measure 15
0010
0110
0110
0110
0011
0011
1010
1010
,  // measure 16
1001
1001
0010
0100
0010
1000
0001
0011
,  // measure 17
0000
0011
0011
0100
0100
1000
0010
0100
,  // measure 18
0010
1000
0010
1000
0010
0100
0001
0100
,  // measure 19
0001
0110
1100
1100
0110
0110
0101
0101
,  // measure 20
0011
0011
0010
0100
1000
0010
0100
0001
,  // measure 21
0010
0001
0010
0100
0010
1000
0100
1000
,  // measure 22
0011
0001
1001
0010
0100
0001
0100
1000
,  // measure 23
0110
0100
0110
0010
0110
0001
0010
0100
,  // measure 24
1100
0100
0001
0110
0110
0001
0011
0010
,  // measure 25
0000
0000
0100
0010
0100
0010
0100
0010
0100
0000
0000
0000
1001
0000
0000
0000
,  // measure 26
0010
0000
0100
0001
0010
0000
0100
0000
1000
0000
0010
0100
0001
0000
0100
0000
,  // measure 27
0010
0000
1000
0010
1000
0000
0001
0100
0001
0000
1000
0010
0100
0000
0001
0000
,  // measure 28
1000
0000
0010
0100
0010
0000
1000
0000
0100
0000
0010
0001
0010
0000
0100
0000
,  // measure 29
1000
0000
0010
0100
0010
0000
1000
0001
0010
0000
0001
0010
0001
0000
0011
0000
,  // measure 30
0010
1000
0100
1000
0010
0000
0100
0010
0100
0001
1000
0000
0001
0010
0100
1000
,  // measure 31
0010
0100
0010
0100
0001
0010
0100
0010
0001
0100
0010
1000
0100
1000
0010
0100
,  // measure 32
0010
1000
0001
0000
0010
0100
1000
0100
0010
0000
0001
0100
1000
0100
0001
0010
,  // measure 33
1000
0010
0001
0100
0010
1000
0001
0100
0010
0100
0010
0100
0001
0010
0100
0000
,  // measure 34
1001
0100
0010
0100
0001
0010
0100
1000
,  // measure 35
1100
0001
0010
0001
1000
0010
0100
0001
,  // measure 36
0011
0010
0100
1000
0100
1000
0010
0100
,  // measure 37
1010
0100
0001
1000
0010
0100
0001
1000
,  // measure 38
0010
0100
0101
0010
1000
0100
1000
0001
,  // measure 39
0010
0001
0011
0100
1000
0010
0100
0100
,  // measure 40
1100
0010
0010
0101
0101
0010
0101
1001
,  // measure 41
0000
0000
0010
0100
0010
0100
0010
0100
0010
0000
0000
0000
1001
0000
0000
0000
,  // measure 42
0010
0100
1000
0100
0010
0000
0100
0001
1000
0010
0100
0000
0001
0010
1000
0010
,  // measure 43
0001
0100
0010
1000
0010
0100
0001
0010
0100
1000
0001
0100
0010
0000
1010
0000
,  // measure 44
0100
0010
0100
0001
0100
0000
0010
1000
0010
0100
0010
0000
1000
0001
1000
0001
,  // measure 45
0100
0010
1000
0100
1000
0010
0100
0001
0010
0100
1000
0100
0010
0000
0011
0000
,  // measure 46
0001
0010
0001
0010
0001
0000
1000
0010
1000
0010
1000
0000
0100
0010
0100
0001
,  // measure 47
0010
0100
1000
0100
1000
0010
0100
0001
0100
0010
1000
0100
1000
0100
0010
0001
,  // measure 48
0010
0100
1000
0100
0010
0000
0001
0100
0010
1000
0100
0000
0001
0010
1000
0010
,  // measure 49
0001
0000
0010
0000
0001
0000
0010
0000
0001
0000
1000
0000
0001
0000
1000
0000
0001
0000
1000
0000
0001
1000
0001
0000
0000
0000
0000
0000
0000
0000
0000
0000
,  // measure 50
0010
1000
0010
1000
0010
1000
0010
1000
,  // measure 51
0001
0100
0001
0100
0001
0100
0001
0100
,  // measure 52
1000
0100
1000
0100
1000
0100
1000
0100
,  // measure 53
0001
0100
0001
0100
0001
0100
0001
0100
,  // measure 54
0010
1000
1010
0000
0001
0010
1100
0000
,  // measure 55
0010
0100
0101
0000
0010
1000
1100
0000
,  // measure 56
0010
0100
1001
0000
0001
0010
1010
0000
,  // measure 57
1000
0010
0011
0000
0001
0100
1001
0000
,  // measure 58
0011
0010
1100
1100
1001
0100
0011
0011
,  // measure 59
1001
0010
0110
0110
1001
0100
1001
0100
,  // measure 60
1010
0100
0101
0101
1001
0010
1100
1100
,  // measure 61
1001
0010
0110
0110
0101
1000
1010
0100
,  // measure 62
1001
0100
0001
0100
0001
1000
0010
1000
,  // measure 63
0010
0011
0110
0110
1100
1100
0011
0011
,  // measure 64
1001
1001
0100
0010
1000
0100
1000
1001
,  // measure 65
0000
1001
0000
1001
0100
0010
0100
0010
,  // measure 66
0100
0001
0100
0010
1000
0000
0010
0100
0001
0100
0010
0000
1000
0100
0001
0100
,  // measure 67
1000
0010
0100
0001
0100
0010
1000
0100
1000
0010
0100
0001
0100
0010
1000
0000
,  // measure 68
0001
0010
0001
0010
0100
1000
0100
1000
0010
0100
0001
0010
0100
1000
0010
0100
,  // measure 69
0001
0100
0010
1000
0001
0100
0010
1000
0100
0010
0001
0010
0100
0000
0000
0000
;
