#VERSION:0.83;
#TITLE:LOVE THIS FEELIN';
#SUBTITLE:;
#ARTIST:PlusStopEDIT;
#TITLETRANSLIT:;
#SUBTITLETRANSLIT:;
#ARTISTTRANSLIT:;
#GENRE:;
#ORIGIN:;
#CREDIT:;
#BANNER:LOVE THIS FEELIN'.png;
#BACKGROUND:LOVE THIS FEELIN'-bg.png;
#PREVIEWVID:;
#JACKET:jacket.png;
#CDIMAGE:;
#DISCIMAGE:;
#LYRICSPATH:;
#CDTITLE:cdtitle.png;
#MUSIC:LOVE THIS FEELIN'.mp3;
#OFFSET:-0.061000;
#SAMPLESTART:60.550007;
#SAMPLELENGTH:16.600000;
#SELECTABLE:YES;
#DISPLAYBPM:95.000000:380.000000;
#BPMS:0.000=95.080,
53.500=380.320;
#STOPS:52.000=0.316,
52.250=0.316,
52.500=0.316,
52.750=0.316,
53.000=0.316,
181.500=0.118,
181.750=0.355,
182.500=0.118,
182.750=0.355,
183.500=0.118,
183.750=0.355,
184.500=0.118,
184.750=0.355,
201.500=0.118,
201.750=0.355,
202.500=0.118,
202.750=0.355,
203.500=0.118,
203.750=0.355,
204.500=0.118,
204.750=0.355,
270.500=0.395,
271.000=0.395,
271.500=0.395,
272.000=0.395,
272.500=0.079,
273.000=0.158,
323.000=0.395,
323.500=0.395,
324.000=0.395,
324.500=0.395,
325.000=0.395,
325.500=0.395,
326.000=0.395,
326.500=0.395,
327.000=0.395,
327.500=0.395,
328.000=0.395;
#DELAYS:;
#WARPS:;
#TIMESIGNATURES:0.000=4=4;
#TICKCOUNTS:0.000=4;
#COMBOS:0.000=1;
#SPEEDS:0.000=1.000=0.000=0;
#SCROLLS:0.000=1.000;
#FAKES:;
#LABELS:0.000=Song Start;
#BGCHANGES:;
#KEYSOUNDS:;
#ATTACKS:
;

//---------------dance-single - ----------------
#NOTEDATA:;
#CHARTNAME:;
#STEPSTYPE:dance-single;
#DESCRIPTION:;
#CHARTSTYLE:;
#DIFFICULTY:Challenge;
#METER:18;
#RADARVALUES:0.994574,1.704520,0.751456,0.044203,0.342576,630.000000,562.000000,68.000000,4.000000,0.000000,0.000000,0.000000,0.000000,0.000000,0.994574,1.704520,0.751456,0.044203,0.342576,630.000000,562.000000,68.000000,4.000000,0.000000,0.000000,0.000000,0.000000,0.000000;
#CREDIT:;
#DISPLAYBPM:95.000000:380.000000;
#NOTES:
0000
0000
0000
0000
,
0000
0000
0000
0000
,
0010
0001
0100
0000
1001
0000
0010
1000
0100
0000
1001
0000
0010
0001
0100
0000
,
1001
0000
0010
1000
0100
0000
1001
0000
1000
0010
1000
0010
1000
0010
1000
0010
,
0100
0001
0010
0000
1001
0000
0100
1000
0010
0000
1001
0000
0100
0001
0010
0000
,
1001
0000
0100
1000
0010
0000
1001
0000
0010
0001
0010
0001
0010
0001
0010
0000
,
1001
1010
1000
1100
1001
1000
1010
1100
,
1000
0000
1001
0000
1100
0000
1000
0000
0100
0010
0100
0010
0100
0010
0100
0010
,
0100
0010
0000
0100
0001
0000
1000
0010
1000
0010
0100
0010
0100
0001
0100
0001
,
0010
0001
1000
0010
1000
0100
1000
0010
1000
0100
0010
0001
0100
0001
0010
0001
,
0101
0000
0000
1010
0000
0000
1001
0000
0000
0000
1000
0000
0100
0000
0001
0000
,
0001
0000
0100
0000
1000
0100
1000
0100
1000
0100
1000
0100
1000
0100
1000
0000
0001
0000
0100
0000
0001
0000
1000
0000
0001
0000
0100
0000
0001
0000
1000
0000
,
0101
0000
0000
1010
0000
0000
0101
0000
0000
0000
0001
0100
1000
0100
0001
0100
,
1010
0101
1100
0110
1001
0000
0010
0000
0000
0000
1000
0000
0000
0000
0100
0000
,
0001
0010
0000
0010
1000
0010
1000
0001
,
0100
0001
0000
1000
0010
1000
0010
0100
,
0001
0100
0001
1000
0010
1000
0010
1000
,
0100
1000
0100
0001
0000
0010
0000
0001
,
0000
0010
0000
0100
0000
1000
0000
0010
,
0000
0100
0000
0001
0100
0010
1000
0100
,
1000
0001
0010
0001
0010
0100
1000
0010
,
1000
0010
1000
0010
0000
1000
0000
0100
,
0000
0010
0000
0001
0100
0001
0100
0001
,
0000
1000
0000
0010
0000
0100
0000
0001
,
0000
0010
0000
0100
1000
0100
1000
0100
,
1000
0100
0000
1000
0000
0100
0000
0001
,
0000
0100
0000
1000
0000
0010
0000
0100
,
0000
0001
0000
0010
0000
1000
0000
0010
,
0000
0001
0000
0100
0000
0010
0000
1000
,
0000
0100
0000
0010
0000
0001
0000
0010
,
0000
0100
0000
1000
0100
1000
0100
1000
,
0000
0010
0000
0100
0001
0100
0001
0100
,
0001
0100
0001
1000
0010
1000
0010
1000
,
0010
1000
0010
0100
0000
0001
0000
1000
,
0010
0100
0010
1000
0010
0100
0010
1000
,
0010
0100
0000
0100
0000
0001
0000
0100
,
0001
0100
0010
0100
0001
0100
0010
0100
,
0001
0100
0010
0100
0000
0010
0000
1000
,
0010
1000
0010
0100
0001
0100
0001
0100
,
0000
0001
0000
1000
0000
0010
0001
0010
,
0001
0010
0001
1000
0100
1000
0100
1000
,
0000
0010
0000
0100
0000
0001
0000
0010
,
0000
1000
0000
0001
0000
0100
0000
1000
,
0000
0001
0000
0010
0000
1000
0000
0001
,
0000
0100
0000
1000
0000
0001
0000
0010
,
0000
0000
1000
0000
0000
0000
1010
0101
0000
0000
1001
0110
0000
0000
0011
1100
,
0000
0000
1010
0101
0000
0000
0001
0000
0010
0000
0001
0000
0010
0000
0100
0000
,
1000
0100
1000
0010
1000
0010
1000
0001
,
0100
0001
0100
0010
1000
0010
1000
0100
,
1000
0100
1000
0001
0010
0001
0010
0100
,
1000
0000
0100
0000
1000
0000
1010
0101
0000
0000
0110
1010
0000
0000
0101
0110
,
0000
0000
1100
0011
0000
0000
1000
0000
0010
0000
1000
0000
0010
0000
1000
0000
,
0001
1000
0001
0100
0010
0100
0010
0100
,
0001
0100
0001
0010
0001
0010
0001
1000
,
0001
1000
0001
0100
0001
0100
0010
1000
,
0010
1000
0010
1000
0100
0010
0100
1000
,
0000
0001
0010
0100
0010
0001
0000
1000
,
0010
0100
0000
0101
0000
0000
0000
1001
,
0000
0000
0000
0010
0000
1000
0000
0100
,
0000
0000
0000
1000
0010
1000
0010
0100
,
0001
0100
0001
1000
0010
1000
0100
0010
,
0001
0100
0010
1000
0001
0010
0100
1000
,
0010
0100
0001
0010
0100
0010
0001
1000
,
0100
0010
0100
1000
0100
0010
0001
0010
,
0000
0010
0100
0010
0001
0010
0001
0010
,
0001
0010
0001
1001
0000
0000
0000
0101
,
0000
0000
0000
0010
0000
0001
0000
1000
,
0000
0000
0000
0100
0000
0101
1010
1100
,
0011
1001
0110
0000
0010
1000
0100
1000
,
0010
0100
0001
0100
0010
1000
0100
1000
,
0001
0010
0100
1000
1000
0000
0000
0000
,
2010
0000
3002
0013
,
0000
0000
1000
0100
0010
0001
0010
0100
,
1000
1000
0100
0010
0001
0010
0100
1000
,
0100
0010
0001
0100
0010
1000
0100
0010
,
0001
0010
0100
1000
0010
0100
0001
0010
,
0100
1000
0100
0010
0001
0100
0001
0100
,
0001
1010
0000
0101
,
0000
0001
0100
1000
0100
0001
0100
0000
,
0000
0010
1000
0100
,
1000
0000
0010
0000
0000
0000
0101
1010
,
0101
0110
1010
0101
1010
0101
0011
1010
,
0110
2002
0000
0000
0000
0000
0000
0000
,
0000
0000
0000
3003
0000
0000
0000
0000
;

//---------------dance-double - ----------------
#NOTEDATA:;
#CHARTNAME:;
#STEPSTYPE:dance-double;
#DESCRIPTION:;
#CHARTSTYLE:;
#DIFFICULTY:Challenge;
#METER:18;
#RADARVALUES:0.992995,1.704520,0.751456,0.044203,0.342576,629.000000,561.000000,68.000000,4.000000,0.000000,0.000000,0.000000,0.000000,0.000000,0.992995,1.704520,0.751456,0.044203,0.342576,629.000000,561.000000,68.000000,4.000000,0.000000,0.000000,0.000000,0.000000,0.000000;
#CREDIT:;
#DISPLAYBPM:95.000000:190.000000;
#NOTES:
00000000
00000000
00000000
00000000
,
00000000
00000000
00000000
00000000
,
00100000
00010000
01000000
00000000
00101000
00000000
00010000
00000100
00001000
00000000
00001001
00000000
00000010
00001000
00000100
00000000
,
00011000
00000000
00010000
10000000
01000000
00000000
00110000
00000000
01000000
00001000
01000000
00001000
01000000
00001000
01000000
00001000
,
01000000
00010000
00100000
00000000
10010000
00000000
01000000
10000000
00010000
00000000
00101000
00000000
00010000
00000100
00001000
00000000
,
00010100
00000000
00000100
00001000
00000001
00000000
00001001
00000000
00000010
00000100
00000010
00000100
00000010
00000100
00000010
00000000
,
00001010
00001100
00001000
00011000
00101000
00001000
00001100
00001010
,
00001000
00000000
00001100
00000000
00011000
00000000
00001000
00000000
00010000
00001000
00010000
00001000
00010000
00001000
00010000
00001000
,
00010000
00001000
00000000
00001000
00100000
00000000
10000000
00010000
10000000
00010000
01000000
00100000
10000000
00010000
10000000
00010000
,
00100000
00010000
10000000
00010000
00100000
00001000
00010000
00000100
00010000
00000100
00001000
00000010
00000100
00000001
00000010
00000100
,
00001001
00000000
00000000
00101000
00000000
00000000
01010000
00000000
00000000
00000000
10000000
00000000
01000000
00000000
00001000
00000000
,
00010000
00000000
01000000
00000000
10000000
01000000
10000000
01000000
10000000
01000000
10000000
01000000
10000000
01000000
10000000
00000000
00001000
00000000
00100000
00000000
00001000
00000000
00010000
00000000
00001000
00000000
00100000
00000000
00001000
00000000
00010000
00000000
,
00010100
00000000
00000000
00101000
00000000
00000000
00010010
00000000
00000000
00000000
00000001
00000100
00001000
00000100
00000001
00000100
,
00010010
00001100
00000011
00001100
00011000
00000000
00010000
00000000
00000000
00000000
00001000
00000000
00000000
00000000
01000000
00000000
,
00010000
00100000
00000000
00001000
00100000
00001000
00100000
00000100
,
00010000
00001000
00000000
01000000
00010000
01000000
00010000
00100000
,
00001000
00100000
00001000
00010000
00000100
00010000
00000100
00000010
,
00000001
00000010
00000001
00000100
00000000
00000010
00000000
00001000
,
00000000
00000100
00000000
00010000
00000000
00001000
00000000
00100000
,
00000000
00100000
00000000
00010000
01000000
00100000
10000000
01000000
,
10000000
00001000
00100000
00001000
00100000
00000100
00000010
00000001
,
00000010
00000001
00000010
00000001
00000000
00000100
00000000
00010000
,
00000000
01000000
00000000
00010000
10000000
00010000
10000000
00010000
,
00000000
10000000
00000000
00100000
00000000
01000000
00000000
00010000
,
00000000
00100000
00000000
01000000
10000000
01000000
10000000
01000000
,
10000000
01000000
00000000
10000000
00000000
01000000
00000000
00010000
,
00000000
00001000
00000000
00000100
00000000
00000010
00000000
00000100
,
00000000
00000001
00000000
00000010
00000000
00000100
00000000
00001000
,
00000000
00000100
00000000
00010000
00000000
00001000
00000000
01000000
,
00000000
00010000
00000000
00100000
00000000
00010000
00000000
00100000
,
00000000
01000000
00000000
00100000
00010000
00100000
00010000
00100000
,
00000000
00100000
00000000
00001000
00010000
00001000
00010000
00001000
,
00010000
00001000
00010000
00000100
00001000
00000100
00001000
00000100
,
00001000
00000100
00000010
00000001
00000000
00000010
00000000
00000001
,
00001000
00000100
00001000
00000001
00001000
00000100
00001000
00000001
,
00001000
00000100
00000000
00000100
00000000
00010000
00000000
00001000
,
01000000
00001000
00100000
00001000
01000000
00001000
00100000
00001000
,
01000000
00001000
00100000
00001000
00000000
00001000
00000000
01000000
,
00010000
01000000
00010000
10000000
00100000
10000000
00100000
10000000
,
00000000
00010000
00000000
00100000
00000000
00100000
00010000
00100000
,
00010000
00100000
00010000
01000000
00010000
01000000
00010000
01000000
,
00000000
00100000
00000000
01000000
00000000
00010000
00000000
00100000
,
00000000
10000000
00000000
00010000
00000000
00100000
00000000
00001000
,
00000000
00010000
00000000
00000100
00000000
00000010
00000000
00000001
,
00000000
00000100
00000000
00000010
00000000
00001000
00000000
00000100
,
00000000
00000000
00001000
00000000
00000000
00000000
00001100
00000011
00000000
00000000
00001001
00000110
00000000
00000000
00001010
00000101
,
00000000
00000000
00000011
00001100
00000000
00000000
00000100
00000000
00001000
00000000
00000100
00000000
00001000
00000000
00000001
00000000
,
00000010
00000001
00000010
00000100
00010000
00000100
00010000
00001000
,
00100000
00001000
00100000
00001000
01000000
00001000
01000000
00010000
,
10000000
00010000
10000000
00100000
01000000
00100000
01000000
00010000
,
10000000
00000000
00010000
00000000
10000000
00000000
10100000
01010000
00000000
00000000
01010000
10100000
00000000
00000000
01100000
10010000
,
00000000
00000000
11000000
00110000
00000000
00000000
10000000
00000000
00100000
00000000
10000000
00000000
00100000
00000000
10000000
00000000
,
00010000
10000000
00010000
01000000
00100000
01000000
00100000
01000000
,
00010000
01000000
00010000
00100000
00000100
00100000
00000100
00010000
,
00000010
00010000
00000010
00000100
00000001
00000100
00000001
00001000
,
00000010
00001000
00000010
00001000
00000100
00000010
00000100
00001000
,
00000000
00000001
00000010
00000100
00000010
00000001
00000000
00010000
,
00000010
00000100
00000000
00010100
00000000
00000000
00000000
01001000
,
00000000
00000000
00000000
00010000
00000000
10000000
00000000
01000000
,
00000000
00000000
00000000
10000000
00100000
10000000
00100000
10000000
,
00010000
10000000
00010000
01000000
00100000
01000000
00010000
00100000
,
00001000
00000100
00000010
00001000
00000001
00000010
00000100
00001000
,
00000010
00000100
00001000
00010000
01000000
00010000
00001000
00000100
,
00000010
00000100
00001000
00000100
00000010
00001000
00000100
00000010
,
00000000
00000010
00000001
00000100
00000010
00001000
00000010
00000000
,
00000010
00001000
00000010
00001001
00000000
00000000
00000000
00011000
,
00000000
00000000
00000000
00100000
00000000
00010000
00000000
10000000
,
00000000
00000000
00000000
01000000
00000000
01010000
00011000
00000011
,
00001100
00011000
01010000
00000000
00100000
00010000
01000000
00010000
,
10000000
01000000
00010000
00001000
00000010
00000001
00000100
00001000
,
00010000
01000000
10000000
00010000
00010000
00000000
00000000
00000000
,
20100000
00000000
30020000
01030000
,
00000000
00000000
10000000
01000000
00010000
01000000
10000000
01000000
,
00010000
00001000
00000010
00000001
00000010
00001000
00000010
00000001
,
00000100
00001000
00010000
01000000
10000000
01000000
00010000
00100000
,
00010000
00100000
00010000
01000000
00010000
01000000
00010000
10000000
,
01000000
00100000
00010000
00001000
00000100
00000010
00000001
00000100
,
00000001
00001010
00000000
00010100
,
00000000
00000100
00010000
00100000
00010000
00000100
00001000
00000000
,
00000000
00001000
00000010
00000100
,
00000001
00000000
00000010
00000000
00000000
00000000
00001100
00110000
,
10100000
00011000
00000110
00000011
00001100
00011000
00100100
10010000
,
01100000
20020000
00000000
00000000
00000000
00000000
00000000
00000000
,
00000000
00000000
00000000
30030000
00000000
00000000
00000000
00000000
;
