#TITLE:LINN 1999;
#SUBTITLE:;
#ARTIST:dj nagureo;
#TITLETRANSLIT:;
#SUBTITLETRANSLIT:;
#ARTISTTRANSLIT:;
#CREDIT:;
#BANNER:L1999.png;
#BACKGROUND:L1999-bg.png;
#LYRICSPATH:;
#CDTITLE:;
#MUSIC:LINN1999.mp3;
#OFFSET:-4.180;
#SAMPLESTART:32.380;
#SAMPLELENGTH:11.900;
#SELECTABLE:YES;
#BPMS:0.000=136.040;
#STOPS:;
#BGCHANGES:0.000=L1999-bg.png=1.000=0=0=1,
8.000=bricks1.avi=1.000=1=0=1,
16.000=countdown1.avi=1.000=0=0=1,
32.000=cube6.avi=1.000=0=0=1,
40.000=cube12b.avi=1.000=0=0=1,
48.000=cube1.avi=1.000=0=0=1,
56.000=cube3.avi=1.000=0=0=1,
64.000=dance3e.avi=1.000=0=0=1,
72.000=dance15.avi=1.000=0=0=1,
80.000=conductor1.avi=1.000=0=0=1,
88.000=computer1.avi=1.000=0=0=1,
96.000=cup1r.avi=1.000=0=0=1,
100.000=cup1.avi=1.000=0=0=1,
104.000=cup1r.avi=1.000=0=0=1,
108.000=cup1.avi=2.000=0=0=1,
112.000=egg1.avi=1.000=0=0=1,
120.000=emi6.avi=1.000=0=0=1,
128.000=emi2.avi=1.000=0=0=1,
136.000=film6.avi=1.000=0=0=1,
144.000=L1999-bg.png=1.000=0=0=1,
99999=-nosongbg-=1.000=0=0=0 // don't automatically add -songbackground-
;

//---------------dance-single - ----------------
#NOTES:
     dance-single:
     :
     Beginner:
     1:
     0.122,0.236,0.097,0.166,0.000:
0000
0000
0000
0000
,
0000
0000
0000
0000
,
1000
0100
0010
0001
,
1000
0100
0010
0001
,
2000
0000
0000
0000
,
3002
0000
0000
0000
,
2003
0000
0000
0000
,
3002
0000
0000
0003
,
0110
0000
0000
0000
,
0000
0000
0000
0000
,
1001
0000
0000
0000
,
0000
0000
0000
0000
,
1001
0000
0000
0000
,
0000
0000
0000
0000
,
0110
0000
0000
0000
,
0110
0000
0000
0000
,
2000
0000
0000
0000
,
3002
0000
0000
0000
,
2003
0000
0000
0000
,
3002
0000
0000
0000
,
2003
0000
0000
0000
,
3002
0000
0000
0000
,
2003
0000
0000
0000
,
3002
0000
0000
0000
,
0003
1000
0000
1000
,
0000
0001
0000
0001
,
0000
1000
0000
0000
,
1000
0000
0000
0000
,
1000
0000
0000
0000
,
1000
0000
0000
0000
,
1000
0000
0000
0000
,
1000
0000
0000
0000
,
1000
0000
0000
0000
,
0001
0000
0000
0000
,
0001
0000
0000
0000
,
0001
0000
0000
0000
,
0010
0000
0000
0000
,
0100
0000
0000
1001
,
1001
0000
0000
0000
;

//---------------dance-single - ----------------
#NOTES:
     dance-single:
     :
     Easy:
     3:
     0.276,0.393,0.235,0.166,0.000: // measure 1
0000
0000
0000
0000
,  // measure 2
0000
0000
0000
0000
,  // measure 3
1001
1001
0110
0110
,  // measure 4
1001
1001
1000
0100
,  // measure 5
0010
0001
1000
0001
,  // measure 6
1000
0100
0010
0001
,  // measure 7
1000
0100
0010
0001
,  // measure 8
1000
0100
0010
0001
,  // measure 9
2002
0000
0000
0000
,  // measure 10
0000
0000
0000
0000
,  // measure 11
3003
0000
0000
0000
,  // measure 12
0110
1001
0110
1001
,  // measure 13
2002
0000
0000
0000
,  // measure 14
0000
0000
0000
0003
,  // measure 15
3000
1100
0010
0000
,  // measure 16
1100
0010
1001
0000
,  // measure 17
1000
0100
0020
0030
,  // measure 18
0001
0010
0200
0300
,  // measure 19
2000
0000
0000
3000
,  // measure 20
0002
0000
0000
0003
,  // measure 21
1000
0100
1000
0000
,  // measure 22
0001
0010
0001
0000
,  // measure 23
2000
0000
0000
3000
,  // measure 24
0010
0100
0001
1000
,  // measure 25
0002
0010
0010
0013
,  // measure 26
2000
0100
0100
3100
,  // measure 27
0020
0100
0100
0130
,  // measure 28
0100
0010
0100
0100
,  // measure 29
0010
0010
0100
0100
,  // measure 30
0010
0010
0100
0010
,  // measure 31
0100
0010
0010
0001
,  // measure 32
1000
0100
0100
0010
,  // measure 33
0001
1000
1000
0100
,  // measure 34
0100
0010
0100
0100
,  // measure 35
0010
0100
0001
0001
,  // measure 36
1000
1000
0100
0100
,  // measure 37
0010
0001
0010
0100
,  // measure 38
0010
0000
0001
0000
0010
0000
0000
1001
,  // measure 39
1001
0000
0000
0000
;

//---------------dance-single - ----------------
#NOTES:
     dance-single:
     :
     Medium:
     5:
     0.365,0.446,0.055,0.331,0.000:
0000
0000
0000
0000
,
0000
0000
0000
0000
,
1000
1000
0001
0001
0010
0010
0100
0100
,
0010
0010
0001
0001
0010
0010
0100
0100
,
2000
0100
0010
3001
,
0002
0010
0100
1003
,
2000
0100
0010
3001
,
0002
0010
0100
1003
,
2000
0000
0100
0000
0010
0000
0001
3000
,
2000
0010
0100
3001
,
1000
1000
0100
0000
0010
0000
0000
0000
,
0001
0001
0010
0000
0100
0000
0000
0000
,
2000
0100
0010
0100
,
0001
0100
0010
3100
,
1000
1000
0100
0100
0020
0000
0030
0000
,
0001
0001
0010
0000
0200
0000
0300
0000
,
1000
0100
1000
0020
,
1030
0100
0010
0001
,
1002
0003
1000
0000
,
2001
3000
0001
0010
,
0100
0010
0100
0010
0100
0100
0000
0010
,
0000
0100
0010
0100
0010
0100
0000
0000
,
0002
1000
1000
1003
,
2000
0001
0001
3001
,
0002
0010
0100
1003
,
2000
0000
0100
0000
0010
0000
0001
3000
,
0002
0010
0100
1003
,
0020
0000
0100
0000
0100
0000
0100
0030
,
0020
0100
0100
0130
,
0200
0000
0010
0000
0010
0000
0010
0300
,
0020
0000
0100
0000
0100
0000
0100
0030
,
0200
0000
0010
0000
0010
0000
0010
0300
,
0002
0000
1000
0000
1000
0000
1000
0003
,
0200
0010
0010
0010
,
0301
1000
0100
0010
,
1000
1000
0100
0000
0010
0000
0001
0000
,
1000
1000
0000
0000
0001
0001
0000
0000
,
1000
1000
0000
0000
0001
0001
0000
1001
,
1001
0000
0000
0000
;

//---------------dance-single - ----------------
#NOTES:
     dance-single:
     :
     Hard:
     8:
     0.481,0.498,0.359,0.221,0.055:
0000
0000
0000
0000
,
0000
0000
0000
0000
,
1000
0010
0000
0000
1000
0000
1000
0000
1000
0010
1000
0000
1000
0000
1000
0000
,
0001
0010
0000
0000
0001
0000
0001
0000
0001
0010
0001
0000
0001
0000
0001
0000
,
0020
0100
0100
0130
,
1100
0110
0011
0110
,
1001
1001
0110
0110
,
1010
0101
1010
0101
,
2000
0000
0100
0000
0010
0000
0100
3000
,
0002
0010
0100
1003
,
1000
0100
1000
0100
1000
0100
1000
0000
,
0001
0010
0001
0010
0001
0010
0001
0010
,
2000
0100
0010
0100
,
0010
0000
0100
0000
0100
0000
0001
3000
,
0002
0000
1000
0000
1000
0000
1000
0003
,
2000
0000
0001
0000
0001
0000
0001
3000
,
0010
0010
0100
0100
0010
0010
0100
0100
,
0010
0010
0100
0100
0010
0010
0100
0100
,
0002
1000
1000
1003
,
1000
0100
1000
0100
1000
0100
1000
0000
,
1000
0100
0100
0100
1000
1000
0000
0200
,
0000
1000
1000
1000
1000
1300
0000
0000
,
0001
0010
0001
0010
0001
0000
0000
0000
1000
0100
1000
0100
1000
0000
0000
0000
,
0001
1000
0001
1000
0010
0100
0010
0100
,
0020
0000
0100
0000
0031
0001
1000
0000
,
0020
0000
0100
0030
0010
0010
0100
0000
,
0020
0000
0100
0030
1000
1000
0002
0000
,
1000
1000
1000
1003
,
0020
0000
0100
0000
0031
0001
1000
0000
,
0020
0000
0130
0000
0100
0010
0100
0000
,
1100
0110
0110
0001
0001
0010
0100
0000
,
1000
0000
1100
0000
0110
0110
0001
0000
,
0010
1000
1100
0110
,
0001
0001
1001
0000
1000
1000
1001
0000
,
0020
0100
0130
0010
,
0100
0100
0010
0000
0100
0000
1001
1001
,
0020
0000
0100
0000
0100
0030
0001
0000
,
1000
0010
0010
0000
0100
0000
1000
1001
,
1001
0000
0000
0000
;
