#TITLE:L'eternita;
#SUBTITLE:;
#ARTIST:Celia;
#TITLETRANSLIT:;
#SUBTITLETRANSLIT:;
#ARTISTTRANSLIT:;
#CREDIT:;
#BANNER:bn.png;
#BACKGROUND:bg.png;
#LYRICSPATH:;
#CDTITLE:;
#MUSIC:L'eternita.mp3;
#OFFSET:0.000;
#SAMPLESTART:57.610;
#SAMPLELENGTH:11.600;
#SELECTABLE:YES;
#BPMS:0.000=216.040;
#STOPS:;
#BGCHANGES:;

//---------------dance-single - ----------------
#NOTES:
     dance-single:
     :
     Beginner:
     2:
     0.284,0.509,0.169,0.266,0.000:
0000
0000
0000
0000
,
0000
0000
0000
0000
,
0000
0000
1000
0000
,
0000
0000
1000
0000
,
0000
0000
0000
0001
,
0000
0000
0000
0000
,
0000
0001
0000
0000
,
0000
0000
0000
1000
,
0000
0100
0010
0000
,
0001
0010
0000
0100
,
2000
0000
0000
0200
,
3000
0000
0020
0300
,
0000
0032
0000
0000
,
1003
0000
0100
0010
,
0000
0001
1001
0000
,
1001
0000
0011
0000
,
0000
1001
1001
1100
,
0000
0000
1001
0000
,
0011
1001
0000
1100
,
1001
0000
0011
1001
,
0000
1100
2000
0000
,
0000
0200
0000
0000
,
3320
0000
0000
0002
,
0000
0000
2033
0000
,
0200
3000
0320
0000
,
0032
0000
0000
0000
,
0003
0000
1000
0000
,
0100
0010
0000
0001
,
0010
0000
0001
0010
,
0000
0100
0010
0000
,
0100
1000
0100
0000
,
0010
0000
0001
0001
,
0010
0000
0010
0000
,
0010
0010
0000
0010
,
1000
0000
1000
0100
,
0100
0000
0100
0000
,
0001
0001
0010
0000
,
0010
0010
0000
0010
,
0000
0010
0010
0000
,
0010
0010
0010
0000
,
0100
0100
0000
0100
,
0000
0100
0001
0001
,
0000
0001
0020
0000
,
2030
0000
0000
0000
,
0000
0000
0200
0000
,
3000
0000
0000
0020
,
0000
0300
0000
0000
,
0000
0002
0000
0000
,
0030
0000
0000
0003
,
2000
3000
0010
0100
,
0000
0010
1000
1000
,
0000
0010
0010
0010
,
0001
0001
0000
0001
,
1000
0000
1000
0000
,
0100
0010
0000
0001
,
0020
0000
0000
0230
,
0000
0000
2300
0000
,
0000
0000
0000
3000
,
1000
0100
0010
0001
,
0000
0000
1000
0000
,
0100
0010
0000
0100
,
1000
0000
1000
1000
,
1000
1000
0010
0010
,
0010
0000
0000
0000
,
1000
1000
0000
0100
,
0100
0000
0010
0010
,
0000
0001
0001
0000
,
1000
0000
0000
0000
,
0100
0000
0000
0000
,
0010
0000
0000
0000
,
0001
0000
0000
0000
,
1000
0000
0100
0000
,
0000
0000
0000
0000
,
1000
0000
0100
0000
,
0000
0000
1000
0100
,
0000
1000
0000
0000
,
0000
1000
0000
1000
,
0000
0000
1000
0000
,
0000
1000
1000
1000
,
1000
0000
0000
1000
,
0000
1000
1000
1000
,
0000
1000
1000
1000
,
1000
0000
0000
2000
,
0000
0000
0200
0000
,
0000
3020
0000
0000
,
0332
0000
0000
0000
,
0000
0003
0001
0010
,
0100
1000
0000
0000
,
1000
0100
0100
0010
,
0010
0001
0001
0001
,
0010
0010
0100
0000
,
0200
0000
0000
2000
,
0000
0300
0020
0000
,
0000
3032
0000
0100
,
0203
0000
0000
2300
,
0000
0000
3200
0000
,
0300
1001
0000
0000
,
0011
0000
0000
1010
,
0000
0000
1100
0000
,
0000
1001
0000
0000
,
0110
0110
0000
0000
,
0000
0000
2000
0000
,
0000
0000
0000
0000
,
0000
0000
0000
0000
,
0000
0000
0000
0000
,
0000
3000
0000
0000
;

//---------------dance-single - ----------------
#NOTES:
     dance-single:
     :
     Easy:
     4:
     0.296,0.500,0.193,0.443,0.000:
0000
0000
0000
0000
,
0000
0000
2002
0000
,
0000
0000
3023
0000
,
0000
0000
0000
0000
,
0230
0000
0001
0001
,
0000
0300
1000
0110
,
0000
0001
0000
0000
,
1000
0110
0001
0110
,
0000
0000
1000
0110
,
0000
0110
0000
1000
,
0100
0000
0110
0110
,
0000
0011
1100
0000
,
1010
0101
0000
1001
,
0110
0000
0001
0010
,
0000
0100
1000
0100
,
0010
0001
0000
0010
,
0100
0000
1000
1000
,
0100
0011
0010
0100
,
1100
0010
0001
0110
,
1000
0100
0011
0010
,
0100
1000
2000
0000
,
0000
0200
0000
0000
,
3020
0300
0000
0002
,
0000
0030
0213
0000
,
0000
0000
0000
0300
,
1000
0100
0000
0010
,
0001
0000
2000
0000
,
3000
0200
0000
0300
,
0210
0000
0000
0300
,
0000
0000
0200
0000
,
0300
0200
0000
0300
,
0200
0000
0000
0000
,
0300
0000
0000
0000
,
0020
0000
0000
0000
,
0030
0000
0000
0000
,
2000
0000
0000
0000
,
3000
0000
0000
0000
,
0002
0000
0000
0003
,
0000
0000
1000
1000
,
0000
0100
0100
0000
,
0010
0010
0000
0001
,
0001
0000
0001
0001
,
0010
0010
0000
0100
,
0000
0100
0000
0000
,
0000
0000
1000
0100
,
1100
0000
0000
0000
,
1000
0100
1000
1100
,
0000
0000
1000
0100
,
1000
0100
0000
0000
,
1000
0100
1000
0100
,
0000
0000
1000
0100
,
1100
0000
0001
0010
,
0100
0000
1000
0100
,
0000
0000
0010
0000
,
0000
0001
0000
0010
,
0200
0000
0000
0000
,
0000
0300
1000
0000
,
0100
0010
0001
0000
,
0001
0000
0000
0000
,
0000
0000
0010
0000
,
0100
1000
0000
0100
,
0020
0000
0000
0000
,
0000
0000
0032
0000
,
0000
1000
0003
0010
,
0010
0000
0010
0010
,
0010
0000
0100
0000
,
0100
0001
0001
0000
,
0020
0000
0000
0230
,
0000
0000
0302
0000
,
0000
2003
0000
3000
,
0020
0000
0000
0000
,
0030
0000
0200
0000
,
0000
0302
0000
0000
,
2003
0000
0000
0000
,
0000
0000
0000
0000
,
0000
3000
0000
0000
,
2000
0000
0000
0000
,
0000
0000
0000
3020
,
0000
0000
0000
0030
,
0002
0000
0000
0203
,
0000
0000
2300
0000
,
0000
3100
0000
2000
,
0000
3200
0320
0000
,
0032
0023
0130
1000
,
0200
0320
0031
0020
,
0130
1000
0200
0020
,
0300
0032
0023
1030
,
0000
1000
0001
1000
,
0002
0000
0000
0000
,
0000
0000
0003
0000
,
0000
0020
0000
0000
,
0000
0000
0000
2030
,
0000
0000
3200
0000
,
0000
0320
0000
0000
,
0230
0000
0000
0020
,
0000
0000
0332
0000
,
0000
2000
0000
0000
,
0000
0000
0000
0000
,
0000
0000
0000
0000
,
0000
0000
0000
0000
,
0000
0000
0000
0000
,
0000
0000
0000
0000
,
0000
0000
3003
1100
,
0010
0001
0010
0000
;

//---------------dance-single - ----------------
#NOTES:
     dance-single:
     :
     Medium:
     5:
     0.365,0.460,0.048,0.733,0.524:
0000
0000
0000
0000
,
0000
0000
0000
0000
0000
0000
0000
0000
0000
0000
0000
2000
,
0000
0000
0000
0000
0000
0000
0000
3000
0000
0000
0010
0000
,
0000
0000
0000
0000
0010
0000
0000
0000
0000
0000
0000
0000
,
0000
0100
0000
0000
0000
0000
0000
0000
0000
0000
0000
0000
,
0000
0100
0000
0000
0000
0000
0000
0000
0000
0000
0000
0000
,
0100
0000
0000
0000
,
0010
0000
0000
0000
,
1000
0000
0000
0000
0000
0000
0000
0000
0000
0000
0001
0000
,
0000
0000
0000
0001
0000
0000
0000
0001
0000
0000
0000
0000
,
0000
0001
0000
0001
0000
0001
0000
0000
0000
0000
0001
0000
,
0001
0000
0001
0000
0000
0000
0000
1000
0000
1000
0000
1000
,
0000
0000
0000
0000
1000
0000
1000
0000
1000
0000
0000
0000
,
0000
0010
0000
0010
0010
0000
0000
0000
0000
0010
0010
0010
,
0000
0000
0000
0000
0000
0000
0000
0010
0010
0000
0000
0000
,
0000
1000
0000
0000
,
0000
0000
0100
0000
0000
0100
0000
0000
0000
0100
0000
0000
,
0000
0000
0100
0000
0000
0000
0000
0100
0000
0100
0000
0100
,
0000
0000
0000
0000
0000
0100
0000
0100
0000
0100
0000
0000
,
0000
0001
0000
0001
0000
0001
0000
0000
0000
0000
0000
0000
,
0000
0000
0000
0000
0000
0000
0000
1000
1000
0000
0000
0000
,
0100
0000
0100
0000
0000
0000
0000
0010
0000
0010
0000
0000
,
0000
0000
0001
0000
0001
0000
0000
0000
0000
0000
0000
0000
,
0000
0000
0000
0000
0000
0000
1000
0000
1000
0000
1000
0000
,
0000
0000
0000
0100
0000
0100
0000
0100
0000
0000
0000
0000
,
0010
0010
0000
0010
0000
0000
0000
0000
0002
0000
0000
0000
,
0000
0000
0000
0000
0000
2000
0003
0000
0000
0000
0200
3000
,
0000
0000
0000
0020
0300
0000
0000
0000
0032
0000
0000
0000
,
0023
0000
0000
0000
0230
0000
0000
0000
2300
0000
0000
0000
,
0000
0200
3000
0000
0000
0000
2300
0000
0000
0000
3200
0000
,
0000
0000
0020
0300
0000
0000
0000
0032
0000
0000
0000
0020
,
0003
0000
0000
0000
0230
0000
0000
0000
0320
0000
0000
0000
,
0000
0230
0000
0000
0000
0000
0320
0000
0000
0000
0000
0000
,
0000
0032
0000
0000
,
0200
0003
0000
0000
0000
0000
0000
0000
2000
0300
0000
0000
,
0000
0000
0000
0000
0000
3000
0000
2000
0000
0000
0000
3200
,
0000
0000
0000
0320
0000
0000
0000
0000
0032
0000
0000
0000
,
0023
0000
0000
0000
0200
0030
0000
0000
0000
2300
0000
0000
,
0000
0000
3200
0000
0000
0000
0320
0000
0000
0000
0032
0000
,
0000
0000
0023
0000
0000
0000
0000
0032
0000
0000
0000
0023
,
0000
0000
0000
0000
0230
0000
0000
0300
0000
0020
0000
0000
,
0000
0230
0000
0000
0000
0020
0300
0000
0000
0000
0032
0000
,
0000
0000
0000
0203
0000
0000
0000
0000
2300
0000
0000
0000
,
3200
0000
0000
0000
0000
2300
0000
0000
0000
3020
0000
0000
,
0000
0000
0230
0000
0000
0000
0302
0000
0000
0000
0023
0000
,
0000
0000
0000
0230
0000
0000
0000
2300
0000
0000
0000
0200
,
3000
0000
0000
0000
0020
0300
0000
0000
0002
0030
0000
0000
,
0000
0003
2002
0000
,
0000
0000
0000
3020
0000
0000
0000
0000
0000
0000
0000
0030
,
0200
0000
0000
0000
0003
0000
0000
0000
0000
2300
0000
0000
,
0000
3000
2100
0000
,
0010
0000
0000
3001
0000
0000
0000
0010
0000
0010
0000
0000
,
0000
0100
0000
0000
0000
0100
0000
0000
0000
0010
0000
0000
,
0000
0000
1000
0000
,
0000
0000
0000
0000
1000
0000
0000
0100
0000
0000
0000
0000
,
0002
0000
0000
0000
0000
0000
0000
0000
0003
0010
0000
0000
,
0000
0000
0000
0000
0000
0000
1000
0000
0000
0000
0100
0000
,
0000
0010
0000
0000
,
1000
0000
0000
0000
0000
0000
0000
0000
0000
0000
0100
0000
,
0000
0000
0000
0000
0000
0000
0000
0010
0000
0000
0000
0001
,
0000
0000
0000
0010
0000
0000
0000
0000
0100
0000
0000
0000
,
2000
0000
0000
0000
,
0000
0000
0000
0000
,
0000
0000
3000
0000
0000
0000
0000
0000
0000
0000
0000
0000
,
0000
1001
0000
0000
0000
0000
0000
0000
0000
0000
0010
0000
,
0000
0000
0010
0000
0000
0000
0000
0100
0000
0000
0000
0100
,
0000
0000
0000
0000
0010
0000
0000
0010
0000
0010
0000
0000
,
0000
0200
0000
0000
0000
0000
0000
0000
0000
0002
0000
0000
,
0300
0000
0000
0000
0000
0000
0020
0000
0000
0000
0000
0003
,
0000
0000
0200
0030
0000
0000
0000
0000
0000
0000
0000
0000
,
2300
0000
0000
0000
,
0000
0000
3002
0000
,
0000
0000
0000
0000
,
0023
0000
0000
0000
,
0000
0000
0030
0000
0000
2000
0000
0000
0000
3200
0000
0000
,
0000
0020
0300
0000
0000
0000
0032
0000
0000
0013
0000
0000
,
2000
0000
3200
0000
,
0000
0320
0000
0000
,
0000
0000
0002
0030
0000
0000
0000
0000
0000
0000
0000
0000
,
0000
0000
0000
0000
,
0000
0000
0003
0000
0000
0000
2000
0000
0000
0000
3200
0000
,
0000
0000
0010
0000
0020
0300
0000
0000
0000
0000
0000
0032
,
0000
0000
0000
0000
0003
0000
0000
0000
0000
2000
0000
0000
,
0010
0010
0000
0010
,
0010
0000
0010
0010
,
0000
0000
0000
0000
0010
0000
0010
0000
0000
0000
0000
0000
,
0010
0000
0010
0000
0000
0000
0000
0000
0000
0010
0000
0010
,
0000
0000
0000
0000
0000
0000
0010
0000
0010
0000
0000
0000
,
3000
2000
0000
0000
0200
3000
0000
0000
0320
0000
0000
0000
,
0000
0000
0000
0000
0000
0000
0030
1000
0000
0000
0100
0000
,
0000
0020
0000
0030
,
0000
1000
0000
0001
0000
0000
0010
0000
0000
0000
0100
0000
,
0000
0010
0000
0000
0000
0000
1000
0000
1000
0000
0100
0000
,
0000
0000
0000
0000
,
0000
1000
0000
0100
0000
0000
0010
0000
0000
0001
0000
0010
,
0000
0000
0100
0000
0000
1000
0000
0000
0100
0000
0010
0000
,
0000
0001
0000
0000
0010
0000
0100
1000
0000
0000
0100
0000
,
0000
0020
0000
0000
0000
0000
0000
0000
0000
0200
0000
0000
,
0000
0000
0332
0000
,
0000
0000
0000
2000
0000
0000
0000
0000
0000
0000
3003
0000
,
0000
0000
2002
0000
0000
0000
0000
0000
0000
0000
0000
0000
,
0000
0000
0000
0000
,
0000
0000
0000
0000
0000
0000
0000
0000
0000
0000
0000
3003
,
0000
0000
0000
0000
0000
0000
0000
1001
0000
1001
0000
0000
;

//---------------dance-single - ----------------
#NOTES:
     dance-single:
     :
     Hard:
     9:
     0.452,0.668,0.217,0.830,0.717: // measure 1
0000
0000
0000
0000
,  // measure 2
0000
0000
0000
0000
0000
0000
0000
0000
0000
0000
0000
2000
0000
0000
0000
0000
0000
0000
0000
0000
0000
0000
0000
0000
,  // measure 3
0000
0000
0000
0000
0000
0200
3000
0000
0000
0000
0000
0000
0000
0000
0000
0000
0000
0000
0000
0000
0000
0000
0000
0000
,  // measure 4
0000
0000
0000
0000
0000
0000
0000
0302
0000
0000
0000
0000
0000
0000
0000
0000
0000
0000
0000
0000
0000
0000
0000
0000
,  // measure 5
0000
0020
0003
0000
0000
0000
0000
0000
0000
0000
0000
0030
0000
0000
0000
0000
0000
0000
0000
0000
1000
0000
0000
0000
,  // measure 6
0100
0000
0000
0000
0010
0000
0000
0000
0001
0000
0000
0000
0000
2100
0000
0000
0000
0000
0000
0000
0000
0000
0000
0000
,  // measure 7
0000
0000
0000
0000
0000
0000
0200
3000
0000
0000
0000
0000
0000
0000
0000
0000
0000
0000
0000
0000
0000
0000
0300
0000
,  // measure 8
0000
1000
0000
0000
0000
0000
0000
0000
0000
0000
0000
0000
0000
0000
0000
0000
0000
0000
0000
0000
1000
0000
0000
0000
,  // measure 9
0100
0000
0000
0000
0010
0000
0000
0000
0001
0000
0000
0000
0000
2000
0000
0000
0000
0000
0000
0000
0000
0000
0000
0000
,  // measure 10
0000
0000
0000
0000
0000
0000
0000
0020
3000
0000
0000
0000
0000
0000
0000
0000
0000
0000
0000
0000
0000
0000
0000
0000
,  // measure 11
0000
0230
0000
0000
0000
0000
0000
0000
0000
0000
0302
0000
0000
0000
0000
0000
0000
0000
0000
2003
0000
0000
0000
0000
,  // measure 12
0000
0000
0000
0000
0020
3000
0000
0000
0000
0000
0000
0000
0000
0200
0030
0000
0000
0000
0000
0000
0000
0000
0000
0000
,  // measure 13
0000
0000
0000
0000
0000
0000
0020
0300
0000
0000
0000
0000
0000
0000
0000
0000
0000
0000
0000
0000
0000
0000
0000
0000
,  // measure 14
0000
0032
0000
0000
0000
0000
0000
0000
0000
0020
0003
0000
0000
0000
0000
0000
0000
0000
0000
0230
0000
0000
0000
0000
,  // measure 15
0000
0000
0000
0000
2300
0000
0000
0000
0000
0000
3000
0000
0000
0000
2000
0000
0000
0000
0000
0000
0000
0000
0000
3200
,  // measure 16
0000
0000
0000
0000
0000
0320
0000
0000
,  // measure 17
0000
0000
0000
0000
0000
0000
0000
0000
0000
0000
0000
0000
0000
0000
0000
0000
0000
0000
0000
0002
0030
0000
0000
0000
,  // measure 18
0000
0000
0000
0000
,  // measure 19
0000
0000
0000
0000
0000
0000
0000
0000
0000
0000
0000
0000
0000
0000
0000
0000
0000
0000
0000
0003
0000
0000
0000
0000
,  // measure 20
0000
0000
1000
0000
0000
0000
1000
0000
0000
0000
0000
0000
0000
0000
0000
0000
0000
0000
0000
0100
0000
0000
0000
0100
,  // measure 21
0000
0000
0000
0000
0000
0000
0000
0000
0000
0000
0000
0000
0000
0010
0000
0010
0000
0000
0000
0000
0000
0000
0000
0000
,  // measure 22
0000
0000
0000
0000
0000
0010
0000
0000
0000
0010
0000
0000
0000
0000
0000
0000
0000
0000
0000
0000
0000
0000
0000
0000
,  // measure 23
0010
0000
0000
0010
0000
0000
0000
0000
0000
0000
0000
0000
0000
0010
0000
0000
0010
0000
0000
0000
0000
0000
0000
0000
,  // measure 24
0000
0000
0000
0000
0000
0000
0000
0000
0000
0000
0000
0000
1000
0000
0000
0000
0100
0000
0000
0010
0000
0000
0000
0000
,  // measure 25
0001
0000
0010
0000
0100
0000
0010
0000
0100
0000
0010
0000
,  // measure 26
0100
0000
0000
0000
0000
0000
0020
0000
0000
0000
0000
0000
0000
0000
0000
0000
0000
2000
0000
0000
0000
0000
0000
0000
,  // measure 27
0000
0000
0000
0000
0030
3000
0000
0000
0000
0000
0000
0000
2000
0000
0000
0000
0000
0000
0000
0000
0000
0000
0000
0200
,  // measure 28
0000
0000
3000
0000
0000
0000
0000
0000
0020
0300
0000
0000
0000
0000
0000
0002
0030
0000
0000
0000
0000
0000
0020
0000
,  // measure 29
0003
0000
0000
0000
0000
0000
0000
0200
0030
0000
0000
0000
0000
0000
0000
0000
0000
2000
0300
0000
0000
0000
0000
0000
,  // measure 30
0000
0000
0100
3000
0000
0000
0000
0000
0000
0000
0000
0000
0000
1000
0000
0000
0000
1000
0000
0000
0000
0000
0010
0000
,  // measure 31
0000
0000
0000
0000
0000
0000
0000
0010
0000
0000
0000
0000
0000
0000
0000
0000
0001
0000
0000
0000
0000
0000
0000
0000
,  // measure 32
0010
0000
0000
0000
0000
0100
0000
0000
0000
1000
0000
0000
0000
0100
0000
0000
0000
0010
0000
0000
0100
0000
0000
0000
,  // measure 33
0000
0000
0010
0000
0000
0000
0100
0000
0000
0000
0000
0010
0000
0000
1000
0000
0000
0000
0000
0100
0000
0000
0000
0010
,  // measure 34
0000
0000
0000
0001
0000
0000
0000
0010
0000
0000
0000
0100
0000
0000
0000
0010
0000
0000
0000
0001
0000
0000
0000
0010
,  // measure 35
0000
0000
0000
0001
0000
0000
0000
0000
0010
0000
0000
0010
0000
0000
0010
0000
0000
0001
0000
0000
0010
0000
0000
0000
,  // measure 36
0010
0000
0000
0000
0000
1000
0000
0000
0100
0000
0000
0000
1000
0000
0000
0000
0000
0000
0000
0000
1000
0000
0000
0000
,  // measure 37
0100
0000
0000
0000
1000
0000
0000
1000
0000
0000
0000
0000
1000
0000
0000
0000
0000
0000
0000
0000
0000
0000
0000
0000
,  // measure 38
0000
1001
0000
0000
0000
0000
0000
0000
0000
0000
0110
0000
0000
0000
0000
0000
0000
0000
0000
0011
0000
0000
0000
0000
,  // measure 39
0000
0000
0000
0000
0000
1100
0000
0000
0000
0000
0000
0000
0000
1010
0000
0000
0000
0000
0000
0000
0000
0011
0000
0000
,  // measure 40
0000
0000
0000
0100
0000
0000
0000
0000
1000
0000
0000
0000
,  // measure 41
0000
2000
0000
0000
0000
0000
0000
0000
0000
0000
0000
0000
0000
0000
0000
0000
0000
0000
0000
0200
0000
0000
0000
0000
,  // measure 42
0000
0000
0000
0000
0000
0000
0000
0000
0000
0000
0000
3000
0302
0000
0000
0000
0000
0000
0000
0000
0000
0000
0000
0000
,  // measure 43
0000
0000
0000
0000
0000
0000
0000
0020
0000
0000
0000
0000
0000
0000
0000
0000
0000
0000
0000
0000
0030
0003
0000
0000
,  // measure 44
0000
1000
0000
0000
0000
0000
0100
0000
0000
0010
0000
0000
0000
0000
0001
0000
0000
0000
0010
0000
0000
0000
0100
0000
,  // measure 45
0000
0000
0010
0000
0000
0000
0100
0000
0000
0000
0010
0000
0000
0000
0100
0000
0000
0000
0000
0001
0000
0000
0000
0001
,  // measure 46
0000
0000
0000
0001
0000
0000
0000
0001
0000
0000
0000
0001
0000
0000
0000
0000
0000
0000
0000
0000
0000
0000
0000
0000
,  // measure 47
0000
0000
0000
0010
0000
0000
0000
0000
,  // measure 48
0000
0000
0010
0000
,  // measure 49
0000
0010
0000
0000
0000
0000
0000
0000
0000
0000
0000
0000
0000
0000
0000
0000
0000
0000
0000
0000
0000
0000
0000
0000
,  // measure 50
0010
0000
0000
0000
,  // measure 51
0000
0010
0000
0000
0000
0000
0000
0000
0000
0000
0000
0000
0010
0000
0000
0000
0000
0010
0000
0000
0000
0000
0000
0000
,  // measure 52
0000
0000
0000
0000
0000
0000
0000
2000
0000
0000
0000
0000
0000
0000
0000
0000
3200
0000
0000
0000
0000
0000
0000
0000
,  // measure 53
0320
0000
0000
0000
0000
0000
0000
0000
0000
0002
0030
0000
0000
0000
0000
0000
0000
0000
0020
0003
0000
0000
0000
0000
,  // measure 54
0000
0000
0000
0200
0030
0000
0000
0000
0000
0000
0000
0000
0000
2300
0000
0000
0000
0000
0000
0000
0000
0000
0000
0000
,  // measure 55
0000
0000
0000
0000
0000
0000
3000
0100
0000
0000
0000
0000
0000
0010
0000
0000
0000
0000
0001
0000
0000
0000
0010
0000
,  // measure 56
0000
0200
0000
0000
0000
0000
0000
0000
0000
0000
0000
0000
0000
0000
0000
0000
0000
0000
0300
2000
0000
0000
0000
0000
,  // measure 57
0000
0000
0000
3000
0000
0000
0000
0000
0000
0000
0000
0001
0000
0000
0000
0000
0000
0000
0000
0000
0010
0000
0000
0000
,  // measure 58
0000
0000
0000
0000
0000
0000
0000
0100
0000
0000
0000
0000
0000
0000
0000
0000
0000
0000
0000
0000
0000
0000
0000
0000
,  // measure 59
0000
1000
0000
0000
0000
0000
0000
0000
0000
0000
0000
0000
0000
0000
0000
0000
0000
0000
0000
1010
0000
0000
0000
0000
,  // measure 60
0000
0000
0000
0000
0000
0000
0000
0000
0000
0000
0000
0000
0000
0001
0000
0000
0000
0000
0000
0000
0000
0100
0000
0000
,  // measure 61
0000
0000
0000
0000
0000
0000
0000
0010
0000
0000
0000
0000
0000
0000
0000
0100
0000
0000
0000
0000
0000
0000
0000
0002
,  // measure 62
0000
0000
0000
0000
0000
0000
0000
0020
0000
0000
0000
0003
0000
0000
0000
0000
0000
0000
0200
0030
0000
0000
0000
0000
,  // measure 63
0000
0000
0000
0000
2000
0300
0000
0000
0000
0000
0000
0000
0200
3000
0000
0000
0000
0000
0000
0000
0020
0000
0300
0000
,  // measure 64
0000
0000
0000
0000
0000
0000
0002
0030
0000
0000
0000
0000
0000
0000
0000
0010
0000
0003
0000
0000
0000
0000
0000
0000
,  // measure 65
2000
0000
0000
0000
,  // measure 66
0000
0000
0000
0000
0000
0000
0000
0000
0000
0000
0000
0000
0000
3200
0000
0000
0000
0000
0000
0000
0000
0000
0000
0000
,  // measure 67
0000
0000
0000
0000
0000
0000
0000
0000
0000
0000
0000
0000
0000
0000
0000
0000
0000
0000
0000
0000
0000
0000
0000
0320
,  // measure 68
0000
0000
0000
0000
0000
0000
0000
0000
0000
0000
0000
0000
0000
0000
0000
0000
0000
0000
0000
0032
0000
0000
0000
0000
,  // measure 69
0000
0000
0000
0020
0003
0000
0000
0000
0000
0000
0000
0000
0200
0030
0000
0000
0000
0000
0000
0000
2000
0300
0000
0000
,  // measure 70
0000
0000
0000
0000
0000
3200
0000
0000
0000
0000
0000
0000
0000
0000
0000
0000
0000
0300
0000
0000
0000
0000
0000
0000
,  // measure 71
0000
2002
0000
0000
0000
0000
0000
0000
3020
0000
0000
0000
0000
0000
0000
0000
0030
0000
0000
0000
0100
0000
0000
0000
,  // measure 72
0000
0000
0000
0000
2000
0000
0000
0000
0000
0000
0000
0000
0000
3200
0000
0000
0000
0000
0000
0000
0000
0300
0000
0000
,  // measure 73
0000
0010
0000
0000
0000
0000
0000
0000
0000
0000
0000
0000
0200
0000
0000
0000
0000
0000
0000
0000
0000
0000
0000
0000
,  // measure 74
2300
0000
0000
0000
0000
0000
0000
0000
3000
0200
0000
0000
0000
0000
0000
0000
0000
0000
0000
0000
0320
0000
0000
0000
,  // measure 75
0000
0000
0000
0030
0200
0000
0000
0000
0000
0000
0000
0000
2000
0300
0000
0000
0000
0000
0000
0000
0000
0200
3000
0000
,  // measure 76
0000
0000
0000
0000
0300
1000
0003
0000
0000
0000
0000
0000
,  // measure 77
0000
1001
0000
0000
0000
0000
0000
0000
0000
0010
0000
0000
0000
0000
0000
0000
0000
0000
0000
1001
0000
0000
0000
0000
,  // measure 78
0000
0000
0000
0000
0010
0000
0000
0000
0000
0000
0000
0000
0000
0000
0000
1001
0000
0000
0010
0000
0000
0000
0000
0000
,  // measure 79
0000
1001
0010
0000
0000
0000
0000
0000
,  // measure 80
0000
0000
1001
0000
0000
0000
0000
1001
0000
0000
0000
0000
0010
0000
0000
0000
0000
0000
0010
0000
0000
0000
0000
0000
,  // measure 81
0010
0000
0000
0000
0000
0000
0010
0000
0000
0000
0000
0000
0000
1001
0000
0000
0000
0000
1001
0000
0000
0000
0000
0000
,  // measure 82
1001
0000
0000
0000
0000
0000
0010
0000
0000
0000
0000
0000
0010
0000
0000
0000
0000
0010
0000
0000
0000
0000
0000
0000
,  // measure 83
1001
0000
0000
0000
0000
0000
0000
1001
0000
0000
0000
0000
0000
0010
0000
0000
0000
0000
0010
0000
0000
0000
0000
0000
,  // measure 84
0010
0000
0000
0000
0000
0010
0000
0000
0000
0000
0000
0000
0000
0000
1001
0000
0000
0000
0000
0000
1000
0001
0000
0000
,  // measure 85
0000
0000
1001
0000
0000
0000
0000
0010
0000
0000
0000
0010
0000
0010
0000
0000
0000
0000
0000
0000
0000
0000
0000
0000
,  // measure 86
1001
0000
0000
0000
1001
0000
0000
0000
0000
0000
0000
0010
0000
0000
0010
0000
0000
0000
0000
0000
0000
0000
0000
0000
,  // measure 87
1001
0000
0000
0000
0000
0000
0000
0000
0000
0000
0000
2000
0000
0000
0000
0000
0000
0000
0200
3000
0000
0000
0000
0000
,  // measure 88
0000
0320
0000
0000
0000
0000
0000
0001
0030
0000
0000
0000
0000
0010
0000
0000
0000
0000
0000
0000
0000
0000
0000
0000
,  // measure 89
0000
2000
0000
0000
0000
0000
0000
0000
0000
0000
0000
0000
0000
0000
0000
0000
0000
0000
0000
0200
0000
0000
0000
0000
,  // measure 90
0000
0000
0000
0000
0000
0000
0000
0000
0000
0300
0000
0000
0000
3020
0000
0000
0000
0000
0000
0000
0000
0000
0000
0000
,  // measure 91
0000
0000
0000
0000
0000
0000
0000
0002
0000
0000
0000
0000
0000
0000
0000
0000
0000
0000
0000
0000
0033
0000
0000
0000
,  // measure 92
0000
2000
0000
0000
0000
0000
0000
0000
0200
3000
0000
0000
0000
0000
0000
0320
0000
0000
0000
0000
0000
0031
0000
0000
,  // measure 93
0000
0000
0010
0000
0000
0000
0000
0000
0100
0000
0000
0000
0000
1000
0000
0000
0000
0000
0200
0000
0000
0000
0000
0000
,  // measure 94
0020
0300
0000
0000
0000
0000
0001
0030
0000
0000
0000
0020
0000
0000
0000
0000
0000
0100
0030
0000
0000
0000
0000
2000
,  // measure 95
0000
0000
0000
0000
0000
0000
0000
0000
0000
0000
0000
0000
0000
0000
0000
0000
0000
0200
0000
0000
0000
0000
0000
0000
,  // measure 96
0000
0000
0000
0000
0000
0000
0000
0000
0000
0000
0000
3020
0000
0300
0000
0000
0000
0000
0000
0000
0000
0000
0000
0000
,  // measure 97
0000
0000
0000
0000
0000
0002
0000
0000
0000
0000
0030
0000
0000
0000
0000
0000
0003
0000
0000
0000
0000
0000
0000
2000
,  // measure 98
0000
0000
0000
0000
0000
0000
0000
0000
0000
0000
0000
0000
0000
0000
0200
0000
0000
0000
0000
0000
0000
3000
0000
0000
,  // measure 99
0000
0000
0000
0000
0000
0000
0000
0020
0000
0000
0000
0000
0000
0000
0000
0000
0000
0000
0300
0000
0000
0000
0000
0000
,  // measure 100
0000
0000
0000
0000
0000
0002
0000
0000
0000
0000
0000
0000
0000
0000
0000
0000
0000
0000
0000
0030
0000
0000
0000
0000
,  // measure 101
0000
0000
0000
0000
0000
0000
0000
0000
0003
0000
0000
0000
,  // measure 102
0000
0000
0000
0000
0000
2002
0000
0000
0000
0000
0000
0000
0000
0000
0000
0000
3000
0000
0000
0200
0000
0000
0000
0000
,  // measure 103
0000
0000
0000
0000
0000
0000
0000
0000
0000
0000
0000
0000
0000
0000
0000
0000
0300
0000
0000
0000
0000
0000
0000
0000
0000
0000
0000
0000
0000
0000
0000
0000
0020
0000
0000
0000
0000
0000
0000
0000
0000
0000
0000
0000
0000
0000
0000
0000
0000
0000
0000
0000
0000
0000
0000
0000
0000
0000
0000
0000
0000
0000
0000
0000
0000
0000
0000
0000
0000
0000
0000
0000
0030
0000
0000
0000
0000
0000
0000
0000
0000
0000
0000
0000
0000
0000
0000
0000
0000
0000
0000
0000
0000
0200
0000
0000
0000
0000
0000
0000
0000
0000
0000
0000
0000
0000
0000
0000
0000
0000
0000
0000
0000
0000
0000
0000
0000
0000
0000
0000
0300
0000
0000
0000
0000
0000
0000
0000
0000
0000
0000
0000
0000
0000
0000
0000
0000
0000
0020
0000
0000
0000
0000
0000
0000
0000
0000
0000
0000
0000
0000
0000
0000
0000
0000
0000
0000
0000
0000
0000
0000
0000
0030
0000
0000
0000
0000
0000
0000
0000
0000
0000
0000
0000
0000
0000
0000
0000
0000
0000
2000
0000
0000
0000
0000
0000
0000
0000
0000
0000
0000
0000
,  // measure 104
3000
0000
0000
0200
0000
0000
0000
0000
0000
0000
0000
0000
0000
0000
0000
0000
0000
0000
0300
0000
0000
0000
0000
0000
0020
0000
0000
0000
0000
0000
0000
0000
0000
0000
0000
0000
0030
0000
0000
0000
0000
0000
0000
0000
0000
0000
0000
0000
0000
0000
0000
0000
0000
0000
0000
0000
0000
0000
0000
0000
0000
0000
0000
0000
0003
0000
0000
0000
0000
0000
0000
0000
0000
0000
0000
0000
0000
0000
0000
0000
0000
0000
0000
0000
0000
0000
0000
0000
0000
0000
0000
0000
0000
2002
0000
0000
0000
0000
0000
0000
0000
0000
0000
0000
0000
0000
0000
0000
0000
0000
0000
0000
0000
0000
0000
0000
0000
0000
0000
0000
0000
0000
0000
3003
0000
0000
0000
0000
0000
0000
0000
0000
0000
0000
0000
0000
0000
0000
0000
0000
0000
0000
0000
0000
0000
0000
0000
0000
0000
0000
0000
0000
0000
0000
0000
0000
0000
0000
0000
0000
0000
0000
0000
0000
0000
0000
0000
0000
0000
0000
0000
0000
0000
0000
0000
0000
0000
0000
0000
0000
0000
0000
0000
0000
0000
0000
0000
0000
0000
0000
0000
0000
;
