#TITLE:KuRuKuRu Lab!;
#SUBTITLE:- Opioid Peptide Mix;
#ARTIST:dj TAKA/Tomosuke/Crimm;
#TITLETRANSLIT:;
#SUBTITLETRANSLIT:;
#ARTISTTRANSLIT:;
#CREDIT:;
#BANNER:bn.png;
#BACKGROUND:bg.png;
#LYRICSPATH:;
#CDTITLE:;
#MUSIC:KuRuKuRu Lab.mp3;
#OFFSET:-0.020;
#SAMPLESTART:34.730;
#SAMPLELENGTH:12.000;
#SELECTABLE:YES;
#BPMS:0.000=185.400,108.125=185.580;
#STOPS:108.125=1.140
;
#BGCHANGES:;

//---------------dance-single - ----------------
#NOTES:
     dance-single:
     :
     Beginner:
     3:
     0.398,0.598,0.387,0.346,0.000:
0000
0000
0000
0000
,
2000
0000
0000
3020
,
0000
0000
0230
0000
,
0000
0302
0000
0003
,
0000
1000
1000
1000
,
1010
0010
0010
0010
,
0100
0100
0100
0110
,
0100
0001
0010
0100
,
1001
1001
1001
0100
,
0000
0110
1000
0001
,
0010
0000
0010
0000
,
0110
1000
0001
0011
,
0100
0100
0100
0100
,
0010
0010
0010
0010
,
0001
0001
0001
1001
,
1001
1001
0100
0100
,
0001
0000
0010
0100
,
1000
0100
0010
0001
,
0010
0100
1000
0001
,
1000
0001
1001
0001
,
2000
0000
0000
0000
,
0000
0000
0000
0000
,
3200
0001
0000
0000
,
0001
0000
0000
0000
,
0320
1000
0000
0000
,
1000
0000
0000
0030
,
0001
0010
1000
0000
,
0010
1000
1000
1000
,
1000
0010
0010
0010
,
0010
0001
0001
0001
,
0001
0010
0100
1000
,
0100
0010
0001
0010
,
0100
0010
0100
0010
,
0001
1001
0011
1100
,
1010
0101
1010
0110
,
0110
1001
1001
0010
,
0100
0010
0200
0000
,
0300
0020
0000
0032
,
0000
2003
3200
0320
,
0032
0023
0230
0300
,
1000
0000
0100
0100
,
0000
1020
0000
2000
,
3000
0030
0100
0000
,
0000
1000
0100
0001
,
0010
0100
0000
0002
,
2003
3000
0010
0100
,
0010
0100
0000
1001
,
0011
0100
0010
0100
,
0010
0100
0000
0110
,
0110
0001
0010
0100
,
0010
0100
0000
1010
,
0101
0020
0000
0000
,
0000
1030
0001
1000
,
0001
1000
0001
1000
,
0001
1000
0001
1000
,
0001
1000
0001
0001
,
1001
0001
1000
0001
,
1000
0000
1001
0000
,
1001
0000
1000
1001
,
0000
0001
1001
1000
,
0000
2000
0000
0000
,
0000
3002
0000
0000
,
0000
1003
0100
0010
,
0000
0001
0010
0100
,
1000
0110
0000
0001
,
0010
0100
1000
1000
,
0100
0100
0010
0011
,
0100
2000
0200
3000
,
0320
0032
0023
0000
,
0000
0000
0000
0000
,
0000
0230
0000
0000
,
0000
0000
0000
0000
,
0300
0000
2002
0000
,
0000
3003
0022
0000
,
0033
2200
0000
3300
,
2020
3030
0202
0000
,
0303
1000
1000
0000
,
1000
1000
1000
1000
,
1000
1001
0000
0001
,
0001
0001
0001
0000
,
0001
0000
0000
0000
,
0001
0000
0000
0000
,
0001
0000
0000
0000
,
1000
0000
0000
0000
,
1000
0000
1000
0100
,
0010
0002
0023
0030
,
0100
2000
0000
3200
,
0000
0300
0011
0000
,
0100
1000
0100
0001
,
0010
0011
0011
1100
,
1010
0101
0010
0000
,
0010
0010
0010
0010
,
0010
0000
0000
1000
;

//---------------dance-single - ----------------
#NOTES:
     dance-single:
     :
     Easy:
     5:
     0.519,0.597,0.153,0.733,0.000:
0000
0000
0000
0000
,
2002
0000
0000
0000
,
0000
0000
0000
0000
,
0000
0000
0000
0000
0000
0000
0000
0003
,
3000
0000
1000
1000
0000
1000
0000
1000
,
0000
1000
0000
1000
0000
0010
0010
0000
,
0000
0100
0000
0100
0000
0001
0010
0100
,
1000
0100
0000
0010
0000
0001
0000
0010
,
0000
0010
0100
1000
0000
0100
0000
0010
,
0000
0001
0010
0100
1000
0100
0010
0001
,
0010
0100
0010
0000
0100
0010
0100
0000
,
0002
0000
2000
0003
0000
3020
0000
0130
,
0001
0000
0020
0000
0000
2030
0000
3200
,
0000
0320
0000
0032
0020
0003
0000
0032
,
0000
0023
0000
0230
0000
2300
0000
3200
,
0000
2300
0000
3020
0000
0032
0000
0203
,
0000
0320
0000
0230
0000
0320
0000
0032
,
0000
2003
0000
3002
0000
0023
0000
0130
,
0000
0020
0000
0130
0000
0010
0000
0000
,
2002
0000
0000
3010
0000
1103
0000
0000
,
0000
0010
0000
0010
0000
0100
0000
0100
,
0000
0001
0000
1000
0000
1000
0100
0010
,
0000
0001
0000
0010
0000
0100
0000
1000
,
0000
0110
0000
0011
0000
1100
0000
1010
,
0000
0101
0000
0010
0000
0010
0000
0010
,
0000
0001
0000
1000
0000
0000
0000
0000
,
0000
1001
0000
0000
0000
0110
0000
0000
,
2002
3003
0010
0000
,
0010
0000
0010
0000
,
0010
0000
0010
0000
,
0010
0000
0010
0000
,
0010
0000
0000
0010
0000
0000
0000
0000
,
0010
0010
0010
0010
,
0010
0010
0010
0010
,
0010
0000
0010
0010
0010
0010
0010
0010
,
0010
0010
1000
0000
1000
0000
1000
0000
,
1000
0000
1000
0100
0100
0010
0001
0000
,
0001
0000
0010
1000
1000
1000
0000
0100
,
0100
0100
0000
0010
0010
0010
0001
0001
,
0001
2000
3200
0320
,
0032
0023
0130
2000
,
3200
0320
0032
0023
,
0030
0000
2002
0000
3020
0000
0030
0003
,
0000
0000
0000
1000
0000
0100
0000
0010
,
0000
0001
0000
0010
0000
0100
0000
1100
,
1000
0010
0001
0010
,
0100
0000
0000
1000
0010
0000
0001
0000
,
0010
0001
0010
0000
0010
0000
0000
0100
,
0000
1000
0000
0100
0000
1100
0000
1100
,
1000
0100
0000
0000
0010
0001
0000
0010
,
0000
0000
0000
2000
0020
3000
0000
0230
,
0000
0302
0000
0023
0000
0230
0020
0300
,
0000
0130
0001
0000
1000
0000
0000
0001
,
0000
1000
0000
0001
0000
1000
0001
0001
,
1000
0000
0000
0001
0000
1000
0000
0010
,
0000
0100
0000
0010
0000
0100
0100
0100
,
0010
0010
0000
0001
0010
0000
0000
0100
,
0000
1000
0000
0100
0000
0001
0000
0010
,
0100
1000
0000
0001
0000
1000
0000
0001
,
0000
0000
0000
2002
0000
3010
0000
0100
,
0000
1000
0000
0013
0000
0010
0000
0010
,
0000
0010
0000
0010
0000
0010
0000
0010
,
0000
0010
0000
0010
0000
0010
0000
0010
,
0000
0010
0000
0100
0100
0100
0000
0100
,
0100
0100
0000
1000
1000
0000
0100
0100
,
0000
0010
0010
0000
0001
0001
0000
0010
,
0000
0000
0000
0100
1000
0000
0000
0200
,
0000
0000
0320
0000
0000
0032
0000
0013
,
0000
0000
0000
2002
0000
0000
0000
0000
,
0000
3003
0000
0020
0000
0000
0000
0000
,
0000
0030
0000
0200
0000
0000
0000
0000
,
0300
0000
0000
0002
0000
0023
0000
0230
,
0000
1300
0000
0200
0000
0000
0000
0000
,
0000
0002
0000
0000
,
0300
0000
0000
0020
0000
0000
0003
0200
,
0000
0000
0000
2330
0000
0000
0000
0000
,
0000
3000
0000
1000
0000
1000
0000
1000
,
0000
1000
0000
1000
0000
1000
0000
1000
,
0000
1000
1000
1000
0000
1000
0000
1000
,
0000
1000
0000
1000
0000
1000
0000
1000
,
0000
1000
1000
1000
0000
1000
0000
1000
,
0000
1000
1000
1000
,
1000
0000
1001
1000
0000
0000
1000
0001
,
1000
0000
1000
0001
1000
0000
0001
1000
,
0000
0000
0000
2000
0000
3020
0000
0200
,
0030
0301
0010
0100
,
1000
0000
0100
0000
0010
0001
0010
0200
,
0000
0000
0000
2300
0000
3200
0000
0320
,
0000
0032
0023
0000
0130
0000
2000
0000
,
3200
0000
0320
0000
0032
0020
0003
0000
,
0230
0000
2300
0000
3000
0000
0000
0020
,
0000
0000
0030
0002
0000
2003
0000
3002
,
0000
0003
2002
0000
0000
3003
0000
0000
;

//---------------dance-single - ----------------
#NOTES:
     dance-single:
     :
     Medium:
     7:
     0.506,0.634,0.282,0.532,0.000:
0000
0000
0000
0000
,
1000
0010
0100
0001
,
0000
0001
0010
0100
1000
0100
0010
0001
,
0010
0000
0100
1000
0001
0000
0000
0000
,
0000
1000
0010
0000
0000
0010
0000
0010
,
0000
0100
0100
0000
0000
0001
0010
1100
,
0100
0010
0001
0010
0000
0000
0100
0000
,
1100
0000
0010
0000
0000
0011
0010
0000
,
0000
0010
0000
0100
0000
0010
0000
0100
,
0000
1000
0010
0010
1000
0001
0001
0010
,
0100
0000
0010
0001
1000
0000
0000
0000
,
1001
0000
0011
0000
1100
0000
0000
1010
,
0000
0100
1100
0000
0000
0010
0010
1000
,
0000
0100
0000
1000
0000
0010
0010
1000
,
0000
0100
0000
0010
0000
0001
0010
0000
,
0000
0001
0000
0010
0000
0001
0010
1100
,
0100
1000
0010
0001
0000
0010
1000
0000
,
0000
0000
0000
0001
0000
0000
0000
0001
,
0000
0000
0001
0000
0000
0000
0000
0001
,
0000
0001
0000
0010
0000
0100
1100
0000
,
0000
0010
0001
0010
0100
0010
0100
0010
,
0100
0001
0001
0001
1000
0010
0010
0010
,
1000
0100
0100
0100
0010
0000
0000
0000
,
1001
0000
0010
0001
1000
0100
0010
0000
,
0000
0100
0100
1100
0000
0100
1000
0100
,
0100
0100
1000
0010
0000
1000
0000
0000
,
1000
0100
0000
0000
1100
0000
0000
0000
,
0021
0000
0000
0031
0000
0010
0000
0001
,
0000
0010
0000
0001
0000
0010
0000
0000
,
0001
0010
0001
0010
,
0001
0010
0001
0010
,
0100
1000
0100
1000
,
0100
0000
1000
0100
1000
0100
1000
0100
,
1000
1100
0000
1100
0000
1100
0000
1100
,
0100
1000
0100
1000
0000
1100
0000
0000
,
0000
1100
1100
1100
,
1100
0000
0100
1000
0100
1000
0100
1000
,
0000
1100
1100
0011
,
0011
0110
1001
1010
,
0100
0010
0100
0010
,
0100
0002
0010
0203
,
2300
0010
0002
0023
,
0130
0000
0002
0000
0000
0023
0000
3030
,
0000
1000
0100
0010
,
0001
0000
0010
0000
0000
0100
0000
2000
,
0002
0000
3003
0000
0010
0000
0000
0100
,
0000
0010
0100
0000
0000
0000
2000
0000
,
0002
0000
0000
3003
0010
0000
0000
0000
,
0010
0000
0010
0002
,
0020
0033
0000
0000
,
0000
0000
2000
0000
3020
0000
0200
0030
,
0000
0302
0000
0023
0000
0130
0000
2000
,
0000
3000
2000
0000
3200
0000
0320
0000
,
0032
0000
0020
0003
0200
0030
2000
0300
,
0200
3000
0000
0320
0032
0000
0000
0023
,
0000
0230
0000
2300
0000
3200
0000
0320
,
0000
0230
0000
0320
0000
0230
0000
0320
,
0000
0032
0000
0023
0000
0032
0000
0023
,
0000
0230
0000
1300
0200
0000
0000
0320
,
0000
0031
0000
0010
0000
0100
0000
1001
,
0000
0011
0000
0100
0100
0100
0000
0100
,
0100
0100
0000
0100
0100
0100
0000
1000
,
0100
0010
0001
0010
0000
0010
0000
0010
,
0000
0010
0000
0010
0000
0010
0000
0010
,
0000
0010
0000
0001
0010
0100
0000
1000
,
0000
1000
0000
0100
0100
0100
0000
0010
,
0000
0010
0000
0001
0010
0100
1000
0100
,
0010
0001
0010
0100
1000
0000
0100
0010
,
0001
0000
0000
0020
0000
0000
0000
0000
,
0000
0002
0000
0000
,
0003
0000
0000
0200
0000
0000
0000
0300
,
0000
0000
0000
2000
0000
0000
0000
3000
,
0000
0000
0000
0200
0000
0000
0000
0000
,
0000
0000
0300
0002
0000
0000
0000
0033
,
0000
0000
2000
0000
0000
3000
0000
0200
,
0000
0000
0300
0020
0000
0031
0000
0000
,
0000
0000
2000
0000
0000
0000
0000
3000
,
0000
2000
0000
0000
0000
0000
3000
0000
,
2000
0000
0000
0000
,
3200
0000
0000
0000
,
0020
0000
0300
0000
0000
0000
0000
0002
,
0000
0000
0000
0000
,
0000
0033
0000
2200
0000
0000
0000
0300
,
0020
0000
0032
0000
,
0000
0000
0000
3003
0000
0000
0000
0000
,
0000
0000
0100
0000
,
0000
0000
0000
0100
,
0000
0000
1000
0000
0100
0000
0000
0010
,
0000
0001
0000
0000
0010
0000
0100
0000
,
1000
0000
0000
0000
1000
0100
0011
0000
,
0010
0100
1000
0100
0010
0001
0010
0000
,
0100
1000
0100
1001
0000
0010
0000
0200
,
0000
0000
0300
0000
;

//---------------dance-single - ----------------
#NOTES:
     dance-single:
     :
     Hard:
     9:
     0.569,0.708,0.258,0.483,1.000: // measure 1
0000
0000
0000
0000
0000
0000
0000
0000
0020
0000
0000
0000
,  // measure 2
0000
0000
0000
0002
0000
0000
0003
0000
0200
0000
0000
0000
,  // measure 3
0000
2300
0000
0000
0000
3000
0000
0001
0030
0000
0000
0000
,  // measure 4
0100
0000
1000
0000
0000
0000
0001
0000
0000
0000
0000
0000
,  // measure 5
0000
1000
0000
0000
1000
0000
0000
0100
0000
0100
0100
0000
,  // measure 6
0000
0010
0000
0000
0001
0000
0000
0010
0010
0010
0000
0000
,  // measure 7
0000
0100
0100
0000
0100
0000
0000
1000
0000
1000
0000
0000
,  // measure 8
0000
1000
0100
0000
0010
0001
0000
0010
0100
0000
1000
0100
,  // measure 9
0000
0100
0100
0000
0010
0100
0000
0010
0000
0100
0001
0000
,  // measure 10
0010
0100
0000
0010
0000
0100
0000
1001
1001
0000
1001
0000
,  // measure 11
0000
0011
0011
0000
0011
0000
0000
0000
0000
0000
0000
0000
,  // measure 12
0011
0000
0000
0000
1100
0000
0000
1010
1010
0000
0101
0000
,  // measure 13
0000
0010
0000
0000
0010
0000
0000
0010
0000
0000
0010
0000
,  // measure 14
0000
0010
0000
0000
0010
0000
0000
0010
0010
0000
0100
0000
,  // measure 15
0000
0100
0000
0000
0100
0000
0000
0100
0000
0000
0100
0000
,  // measure 16
0000
0001
0000
0000
0001
0000
0000
0001
0000
0000
0001
0000
,  // measure 17
0000
1000
0000
0001
1000
0000
0001
0000
1000
0001
0000
1000
,  // measure 18
0000
0001
1000
0000
0001
1000
0000
0001
1000
0000
0001
1000
,  // measure 19
0000
0001
1000
0001
0000
1000
0000
0000
0001
0000
0000
0001
,  // measure 20
0000
1000
0000
0000
1001
0000
0000
1000
0000
0000
0000
0000
,  // measure 21
0000
0010
0000
0010
0000
0010
0000
1000
0100
0100
0100
0100
,  // measure 22
0000
1000
0100
0000
0100
1000
0000
0000
0000
0001
0000
1000
,  // measure 23
0001
0000
0001
0010
0100
0000
0100
0010
0000
0001
0001
0000
,  // measure 24
0000
2001
0000
0020
0000
0000
0030
0100
0000
0010
0000
0000
,  // measure 25
0001
3000
0001
1000
0010
0000
0010
1000
0001
0000
0001
0000
,  // measure 26
1000
0010
0010
0000
0010
0100
0001
0000
0001
1000
0000
0010
,  // measure 27
0010
0000
0100
0001
1000
0000
0000
0000
0000
0000
0000
0000
,  // measure 28
2001
0000
1000
0000
0010
0010
0000
0010
2000
0000
0000
0000
,  // measure 29
0000
3200
0000
0000
0020
0300
0000
0002
0030
0000
0000
0013
,  // measure 30
0000
0100
0000
0000
1000
0000
0010
1000
0200
0000
0000
0300
,  // measure 31
0000
2002
0000
0000
0000
0013
0000
0000
0200
0000
0000
0310
,  // measure 32
0000
3000
0001
0000
0010
0000
0010
0000
1000
0100
0000
0000
,  // measure 33
1000
0100
0000
1000
0100
0000
1000
0100
0000
1000
0000
0100
,  // measure 34
1000
0100
0000
0010
0001
0010
0000
0001
0010
0000
0001
0000
,  // measure 35
0010
0001
0020
0000
0000
0200
0030
0000
2000
0300
0000
0000
,  // measure 36
0000
0000
3002
0000
0000
0020
0003
0000
0000
0230
0000
2000
,  // measure 37
0300
3200
0320
0032
,  // measure 38
0023
0000
0000
0230
0000
0000
0320
0000
0000
0200
0030
0000
,  // measure 39
0320
0000
0000
0032
0000
0000
2000
0003
0000
0020
3000
0000
,  // measure 40
0000
0230
0000
0020
0300
0000
0000
0230
0000
0000
0302
0000
,  // measure 41
0000
2000
0000
0000
,  // measure 42
0000
0000
0000
0000
3023
0000
0000
0000
0000
2000
0000
0000
,  // measure 43
0000
0000
0000
0030
0020
0000
0000
0000
0000
3030
0000
0000
,  // measure 44
0000
0000
0000
0000
1000
0000
0000
1000
0000
0000
1000
0000
,  // measure 45
0000
1000
0000
0000
1000
0000
1000
0000
0000
0000
1000
0100
,  // measure 46
0010
0000
0001
0000
0000
0000
1000
0000
0000
0000
0000
0000
,  // measure 47
1000
0000
0000
0000
0000
0000
1000
0000
0000
0001
0000
0010
,  // measure 48
0100
0000
1000
0100
0000
0000
0000
0000
0000
0000
0000
0000
,  // measure 49
0000
0000
0000
0000
0000
0000
0000
0000
0000
0001
0000
0010
,  // measure 50
0100
0000
1000
0000
0000
0100
0000
0000
0010
0000
0000
0001
,  // measure 51
0000
0000
0000
0000
0001
0010
0000
0100
1000
0000
0100
0010
,  // measure 52
0000
0001
0000
0010
0000
0100
1000
0100
0000
0010
0000
0010
,  // measure 53
0000
0000
0000
1000
0001
0000
0000
1001
0000
0000
1001
0000
,  // measure 54
0000
1001
0000
0000
1001
0000
0000
1001
1001
0000
1001
0000
,  // measure 55
0000
0010
0000
0000
1100
0000
0000
1100
0000
0000
0010
0000
,  // measure 56
0000
0100
1000
0000
0010
0010
0000
1000
0100
0100
0010
0000
,  // measure 57
0001
0001
0000
1000
0001
0000
0010
0001
0010
0000
0100
1000
,  // measure 58
0000
0010
1000
0000
0100
0010
0000
0100
0010
0001
0000
0010
,  // measure 59
0100
0010
0000
0100
0010
0000
0100
0000
0100
0100
0010
0000
,  // measure 60
0001
0001
0000
1000
0010
0000
0100
0010
0100
0010
0100
0000
,  // measure 61
0010
0100
0000
0001
0001
1000
0000
0010
0010
0100
0000
0001
,  // measure 62
0001
0000
1000
0010
0000
0010
1000
0001
0000
0001
1000
0010
,  // measure 63
0000
1010
0010
0000
1010
0000
0010
0000
0010
0010
1000
0000
,  // measure 64
0001
0000
0001
1000
0001
0000
1001
1000
0001
1000
0000
0010
,  // measure 65
0000
0100
0000
0002
0000
0020
0003
0000
0230
0000
0000
1300
,  // measure 66
0000
0200
0000
0000
0320
0000
0000
0032
0000
0000
0023
0000
,  // measure 67
0000
0000
0030
0000
1001
0000
0000
0000
0000
0000
0011
0000
,  // measure 68
0000
0000
0000
0000
1100
0000
0000
0000
1010
0000
0000
0101
,  // measure 69
0000
0000
0000
0000
0000
2000
0000
0000
0000
0000
0000
0000
,  // measure 70
0000
0000
0000
0000
,  // measure 71
0000
0000
0000
0000
,  // measure 72
0000
0000
0000
0000
,  // measure 73
0000
0000
0000
0000
0020
3000
0000
0000
0000
0000
0000
0000
,  // measure 74
0000
0000
0000
0000
,  // measure 75
0030
0000
0000
0000
,  // measure 76
2000
0000
0000
0000
,  // measure 77
3000
0000
0000
0000
,  // measure 78
0020
0000
0000
0000
,  // measure 79
0030
0000
0000
0000
,  // measure 80
0200
0000
0000
0000
0000
0000
0000
0000
0000
0000
0000
0002
,  // measure 81
0000
0000
0000
0000
0000
0300
0000
0000
0020
0000
0000
0000
,  // measure 82
0003
0000
0200
0000
0000
0000
0000
0000
0000
0000
2300
0000
,  // measure 83
0030
0000
0000
0000
0000
0200
0000
3000
0000
0000
0020
0300
,  // measure 84
0000
0000
0000
0000
0000
0230
0000
0000
0302
0000
0000
0000
,  // measure 85
0013
0000
0000
0000
0000
1000
0010
0000
0100
0000
0100
0000
,  // measure 86
0000
0010
0000
0000
0001
0000
0000
0010
0000
0000
0000
0100
,  // measure 87
0000
1000
0000
0100
0000
0000
0010
0000
0001
0010
0000
0000
,  // measure 88
0000
0000
0100
0000
0000
1000
0000
0000
0000
0010
0000
0000
,  // measure 89
0100
0000
0000
0010
0000
0000
0001
0000
0010
0000
0000
0000
,  // measure 90
0100
0010
0100
0010
,  // measure 91
0100
0010
0100
0010
,  // measure 92
0100
0000
0000
0000
0000
0000
0100
0010
0100
0010
0100
0000
,  // measure 93
0010
0100
0000
0001
0000
0000
0010
0000
0000
0000
0000
0000
;
