#VERSION:0.81;
#TITLE:恋はどう?モロ◎波動OK☆方程式!!;
#SUBTITLE:;
#ARTIST:あべにゅうぷろじぇくと feat.佐倉沙織 produced by avenue;
#TITLETRANSLIT:Koi wa dou? Moro Hadou OK Houteishiki!!;
#SUBTITLETRANSLIT:;
#ARTISTTRANSLIT:;
#GENRE:;
#ORIGIN:;
#CREDIT:;
#BANNER:Koi wa dou Moro Hadou OK Houteishiki!!.png;
#BACKGROUND:Koi wa dou Moro Hadou OK Houteishiki!!-bg.png;
#PREVIEWVID:;
#JACKET:Koi wa dou Moro Hadou OK Houteishiki!!-jacket.png;
#CDIMAGE:;
#DISCIMAGE:;
#LYRICSPATH:;
#CDTITLE:./CDTitles/pop'n music 20 fantasia.png;
#MUSIC:Koi wa dou Moro Hadou OK Houteishiki!!.ogg;
#OFFSET:0.000;
#SAMPLESTART:72.656;
#SAMPLELENGTH:15.000;
#SELECTABLE:YES;
#DISPLAYBPM:128.000:256.000;
#BPMS:0.000=256.000,
236.000=128.000,
276.000=256.000;
#STOPS:;
#DELAYS:;
#WARPS:;
#TIMESIGNATURES:0.000=4=4;
#TICKCOUNTS:0.000=4;
#COMBOS:0.000=1;
#SPEEDS:0.000=1.000=0.000=0;
#SCROLLS:0.000=1.000;
#FAKES:;
#LABELS:0.000=Song Start;
#BGCHANGES:;
#KEYSOUNDS:;
#ATTACKS:
;

//---------------dance-single - ----------------
#NOTEDATA:;
#CHARTNAME:;
#STEPSTYPE:dance-single;
#DESCRIPTION:;
#CHARTSTYLE:;
#DIFFICULTY:Hard;
#METER:14;
#RADARVALUES:0.734,0.857,0.247,0.335,0.009,517.000,28.000,38.000,0.000,0.000,0.000,0.000,0.000,0.734,0.857,0.247,0.335,0.009,517.000,28.000,38.000,0.000,0.000,0.000,0.000,0.000;
#CREDIT:;
#DISPLAYBPM:128.000:256.000;
#NOTES:
0000
0000
0000
0000
,
0000
0000
0000
0000
,
0000
0000
0000
0000
,
0000
0000
0000
0000
,
0000
0000
0000
0000
,
0000
0000
0000
0000
,
0000
0000
0000
0000
,
0000
0000
1000
0000
,
0001
0000
1000
0000
,
0010
1000
0010
0000
1000
0100
0000
2000
,
0000
0001
0000
3001
0100
0000
0010
0000
,
0100
0001
0100
0000
0010
1000
0000
0002
,
0000
1000
0000
1003
0100
0000
0010
0000
,
0001
0010
0001
0000
0001
0100
0001
0000
,
1000
0010
1000
0000
0100
0000
0010
0000
,
0001
0010
0001
0010
0100
1000
0100
1000
,
0000
0110
0000
0001
0000
1000
0001
0000
,
1000
0100
1000
0000
0001
1000
0000
0020
,
0000
1000
0000
1030
0100
0000
0010
0000
,
0001
0100
0001
0000
1000
0100
0000
2000
,
0000
0001
0000
3100
0010
0000
0100
0000
,
1000
0000
0100
0000
0010
0001
1000
0100
,
0000
0100
0010
0100
0000
0010
0100
0000
,
0001
0000
0100
0000
0010
1000
0001
0100
,
0000
0100
0001
0100
0000
0010
0100
0000
,
0001
0010
0100
1000
0000
0000
1000
0010
,
0100
0001
0000
0000
2002
0000
3003
0000
,
0010
1000
0010
0000
1000
0000
0100
0000
,
0001
0100
0001
0000
0100
0000
0001
0000
,
0010
0001
0010
0000
0001
0000
0010
0000
,
1000
0010
1000
0000
0010
0000
1000
0000
,
0001
0100
0001
0000
0100
0000
0001
0000
,
0100
1000
0100
0000
1000
0000
0010
0000
,
0001
0010
0001
0000
0010
0000
0001
0000
,
0100
0001
0100
0001
0010
0100
1000
0000
,
0100
0100
1000
1000
,
0001
0100
0000
0100
0000
0000
0001
0000
,
1000
1000
0001
0001
,
1000
0100
0010
0000
0011
0000
0011
0000
,
0100
0100
0001
0001
,
1000
0100
0000
0100
0000
0000
1000
0000
,
0010
0010
0100
0100
,
0001
1000
0100
1000
0100
1000
0100
0000
,
0020
0032
0203
1300
,
0100
0000
0010
0100
0010
0000
1000
0000
,
0100
0001
0100
1000
,
1001
0000
0100
0001
1000
0001
1000
0000
,
0020
2030
3200
0301
,
0100
0000
0010
0100
0010
0000
0001
0000
,
0100
1000
0100
0010
,
1000
0010
0100
0010
0100
0010
0100
0000
,
0001
2100
0001
3001
,
1000
0001
0100
0000
0010
0000
0010
0000
,
1000
0102
1000
1003
,
0001
1000
0100
0000
0010
0001
1000
0000
,
0100
0021
0100
0130
,
0010
0001
0100
0000
0001
0000
0010
0000
,
0001
0010
0100
0010
0000
0100
1000
0100
,
0000
1000
0001
1000
0001
0000
0000
0000
,
0200
0000
1000
0310
0002
0000
0100
1003
,
0020
0000
0001
0130
1000
0000
0001
0000
,
0200
0000
0001
0310
2000
0000
0100
3001
,
0020
0000
0000
0000
1000
0000
0130
0000
0010
0000
0001
1000
0001
1000
0001
0000
,
0100
1000
0010
0001
1000
0100
0002
0000
,
0013
1000
0001
0100
1000
0010
0002
0000
,
0103
0001
0010
1000
0001
0100
2000
0000
,
3010
0001
1000
0100
0020
0000
0100
0130
,
0001
0010
0100
1000
0020
0000
0100
0100
,
0130
0001
1000
1001
,
0100
0001
0100
0000
0010
0100
0000
0001
,
0000
1000
0100
0010
0001
0000
1000
0000
,
0001
0100
0001
0000
1000
0100
0000
1000
,
0000
0001
0100
0010
1000
0000
0001
0000
,
0100
0001
0100
0000
0001
0010
0100
1000
,
0000
0001
0100
0000
0010
0000
1000
0000
,
0100
1000
0100
1000
0001
0100
0010
1000
,
0000
0110
0000
0001
0000
0100
0010
0000
,
0110
0000
1001
0000
1000
0000
0001
2000
,
0000
0100
0000
0010
0000
3100
0010
0001
,
0010
0000
0001
0000
1000
0010
1000
0002
,
0000
1003
0100
0000
0100
0000
0100
0000
,
0010
0000
0001
0000
1000
0100
0010
0001
,
0000
0100
0010
1000
0010
0000
1000
0000
,
0001
0000
1000
0000
0010
0100
0010
0100
,
0001
0010
0100
1000
0000
0001
1000
0000
,
0001
0100
1000
0100
0001
0000
1000
0100
,
0001
0100
0000
0000
0000
0000
0000
0000
,
0001
1000
1000
0001
0000
0000
0100
0010
,
0010
0100
0000
0000
0000
0000
0000
0000
,
0010
0000
0010
0200
0000
0001
0000
1000
,
0000
0301
1000
0001
1000
0000
0010
0000
,
1000
0000
1000
0002
0000
0010
0000
0100
,
0000
0013
0100
0010
0100
0000
1000
0000
,
0010
0000
0010
0200
0000
0001
0000
1000
,
0000
0301
1000
0001
1000
0000
0010
0000
,
0100
0000
0010
2000
0000
0100
0000
0010
,
0000
3100
0010
0100
0010
0100
0010
0000
,
0001
2100
3010
0102
,
0013
2100
3010
0101
,
0010
0100
0010
0200
0000
1000
0000
0001
,
0000
1300
0001
1000
0001
0000
0100
0000
,
0101
0110
1100
0110
,
0011
0110
1010
0110
,
0001
1000
0001
1000
0010
0100
0010
0100
,
0001
0010
0100
1000
0010
0100
0010
0000
,
1010
0000
0010
1000
0100
0000
0011
0000
,
0000
0000
0100
0100
0010
0000
0100
0000
,
2002
0000
0000
3003
,
0110
0000
0000
0000
;

//---------------dance-double - ----------------
#NOTEDATA:;
#CHARTNAME:;
#STEPSTYPE:dance-double;
#DESCRIPTION:;
#CHARTSTYLE:;
#DIFFICULTY:Hard;
#METER:14;
#RADARVALUES:0.715,0.952,0.291,0.212,0.000,511.000,33.000,24.000,0.000,0.000,0.000,0.000,0.000,0.715,0.952,0.291,0.212,0.000,511.000,33.000,24.000,0.000,0.000,0.000,0.000,0.000;
#CREDIT:;
#DISPLAYBPM:128.000:256.000;
#NOTES:
00000000
00000000
00000000
00000000
,
00000000
00000000
00000000
00000000
,
00000000
00000000
00000000
00000000
,
00000000
00000000
00000000
00000000
,
00000000
00000000
00000000
00000000
,
00000000
00000000
00000000
00000000
,
00000000
00000000
00000000
00000000
,
00000000
00000000
00100000
00000000
,
00011000
00000000
00000010
00000000
,
00000100
00000001
00000100
00000000
00000010
00001000
00000000
00010000
,
01000000
00100000
01000000
00000000
00100000
00000000
10000000
00000000
,
01000000
10000000
01000000
00000000
00100000
00010000
00000000
00001000
,
00000100
00000010
00000100
00000000
00001000
00000000
00001000
00000000
,
00000010
00001000
00000100
00000000
00000100
00010000
00000010
00000000
,
00001000
00000100
00000010
00000000
00000010
00000100
00010000
00000000
,
00010000
00000100
00010000
00001000
00010000
00001000
01000000
00100000
,
00000000
10000000
00000000
00010000
00000000
01000000
00100000
00000000
,
01000000
00000000
10100000
00000000
01000000
00000000
00100000
00020000
,
00000000
00100000
00000000
10030000
00000000
01000000
00100000
00001000
,
00010000
00000000
00001000
00000000
00010000
00001000
00010000
00000200
,
00000000
00001000
00000000
00000310
00000000
00001000
00000001
00000000
,
00000100
00000000
00000010
00000000
00001000
00000100
00010000
00000100
,
00000000
00001000
00000100
00010000
00000000
00001000
00010000
00000000
,
00001000
00000000
01000000
00000000
00010000
01000000
00010000
01000000
,
00000000
00100000
10000000
01000000
00000000
00100000
01000000
00000000
,
10000000
01000000
00100000
00010000
00000000
00000000
00001000
00010000
,
00100000
01000000
00000000
00000000
20020000
00000000
30030000
00000000
,
10000000
01000000
10000000
00000000
01000000
00000000
00010000
00000000
,
10000000
00100000
10000000
00000000
00100000
00000000
00010000
00000000
,
00100000
00001000
00100000
00000000
00001000
00000000
00010000
00000000
,
00000100
00010000
00000100
00000000
00001000
00000000
00000100
00000000
,
00001000
00000010
00001000
00000000
00000010
00000000
00000001
00000000
,
00001000
00000100
00001000
00000000
00000100
00000000
00000001
00000000
,
00001000
00000001
00001000
00000000
00000010
00000000
00000100
00000000
,
00000001
00000100
00000010
00001000
00000100
00010000
00001000
00000000
,
00010000
00010000
00001000
00001000
,
00100000
00010000
00000000
00010000
00000000
00010000
01000000
00000000
,
00100000
00100000
01000000
01000000
,
00100000
10000000
01000000
00000000
00100000
00000000
01000000
00000000
,
10000000
10000000
00010000
00010000
,
10000000
00100000
00000000
00100000
00000000
00100000
00010000
00000000
,
00001000
00001000
00010000
00010000
,
00000100
00010000
00001000
00010000
00001000
00010000
00001000
00010000
,
00000100
00000010
00000001
00000100
,
00000010
00000100
00002002
00003003
,
00000100
00001000
00010000
00100000
,
01000000
00000000
00010000
10000000
01000000
10000000
01000000
00000000
,
00010000
01000000
10000000
00100000
,
01000000
00000000
00100000
00010000
00001000
00000000
00010000
00000000
,
00001000
00000100
00000010
00001000
,
00000001
00000100
00000010
00000100
00000010
00000100
00000010
00000000
,
00001000
00010100
00001000
00110000
,
01000000
00011000
00100000
01010000
,
00001000
00010100
00001000
00000110
,
00000001
00001000
00000100
00000000
00000100
00001000
00000100
00000000
,
00010000
00101000
00010000
00001010
,
00000100
00011000
00100000
01010000
,
00010000
00100000
01000000
10000000
00000000
10000000
01000000
00010000
,
00000000
00001000
00010000
00001000
00010000
00000000
00000000
00000000
,
00020000
00000000
00100000
00001000
00030200
00000000
00001000
00010000
,
00002300
00000010
00003002
00000010
00000103
00001000
00010000
00000000
,
00200000
00010000
00010000
01000000
20300000
00010000
30200000
00010000
,
00302000
00010000
00003200
00010000
00000310
00001000
00001001
00000000
,
00000010
00000000
00000010
00001000
00010000
01000000
10000000
00000000
,
00100000
00000000
00100000
00010000
00001000
00000100
00000001
00000000
,
00000010
00000000
00000010
00000000
00010000
01000000
10000000
00000000
,
00100000
00000000
00100000
00010000
00001000
00000100
00000001
00000000
,
00000010
00000000
00000010
00001000
00020000
00000000
00031000
00000000
,
00011000
00000010
00011000
00100000
,
01000000
10000000
01000000
00000000
10000000
01000000
00000000
00010000
,
00001000
00010000
00000100
00000000
00000010
00000000
00000001
00000000
,
00000100
00000001
00000100
00000000
00000010
00001000
00000000
00010000
,
01000000
00100000
01000000
00000000
00010000
00000000
00010000
00000000
,
01000000
00010000
00100000
00000000
00001000
01000000
00010000
00000000
,
00100000
01000000
10000000
00000000
01000000
00010000
00001000
00000000
,
00001000
00100000
00001000
00000000
00010000
00000100
00001000
00000010
,
00000000
00000100
00000000
00000001
00000000
00001000
00000001
00000000
,
00000010
00000000
00000101
00000000
00001000
00000000
00000001
00002000
,
00000000
00000100
00000000
00003001
00000000
00000010
00000100
00010000
,
00001000
00000000
00010000
00000000
00001000
00010000
00001000
00200000
,
00000000
00010000
00000000
01300000
00000000
10000000
00010000
10000000
,
00100000
00000000
01000000
00000000
00010000
00100000
00001000
00100000
,
00000000
00010000
00100000
00001000
00000000
00010000
00001000
00000000
,
00010000
00000000
00000010
00000000
00001000
00000010
00001000
00000010
,
00001000
00000100
00000010
00000001
00000100
00000010
00000100
00000000
,
00000010
00001000
00000100
00010000
00001000
00000000
00010000
00001000
,
00000100
00000010
00000000
00000000
00000000
00000000
00000000
00000000
,
00001000
00010000
00001000
00010000
00000000
00000000
00000100
00001000
,
00010000
00100000
00000000
00000000
00000000
00000000
00000000
00000000
,
00100000
00000000
10000000
01000000
00000000
00010000
00000000
00001000
,
00000000
00010000
00001000
00010000
00001000
00000000
00011000
00000000
,
00000100
00000000
00000001
00000010
00000000
00001000
00000000
00010000
,
00000000
00001000
00010000
00001000
00010000
00000000
00011000
00000000
,
01000000
00000000
10000000
00100000
00000000
00010000
00000000
00001000
,
00000000
00010000
00001000
00010000
00001000
00000000
00011000
00000000
,
00000010
00000000
00000001
00000100
00000000
00001000
00000000
00010000
,
00000000
00001000
00010000
00001000
00010000
00000000
00011000
00000000
,
00010000
00102000
00013000
00020100
,
00031000
01002000
00013000
00020010
,
00031000
00000000
00010000
01000000
00000000
10000000
00000000
00010000
,
00000000
10000000
01000000
10000000
01000000
00000000
00010000
00000000
,
00001000
00010100
00001000
00010010
,
00001000
00101000
00010000
01001000
,
00010000
00001000
00010000
00001000
00000000
00000100
00000000
00000010
,
00000000
00001000
00000001
00000010
00000100
00001000
00000010
00000000
,
00000110
00000000
00000001
00000100
00001000
00000000
00011000
00000000
,
00000000
00000000
00100000
00010000
01000000
00000000
00100000
00000000
,
20020000
00000000
00000000
30030000
,
00001000
00000000
00000000
00000000
;

//---------------dance-single - ----------------
#NOTEDATA:;
#CHARTNAME:;
#STEPSTYPE:dance-single;
#DESCRIPTION:;
#CHARTSTYLE:;
#DIFFICULTY:Challenge;
#METER:16;
#RADARVALUES:1.000,1.000,0.811,0.282,0.163,684.000,92.000,32.000,0.000,0.000,0.000,0.000,0.000,1.000,1.000,0.811,0.282,0.163,684.000,92.000,32.000,0.000,0.000,0.000,0.000,0.000;
#CREDIT:;
#DISPLAYBPM:128.000:256.000;
#NOTES:
// measure 0
0000
0000
0000
0000
,  // measure 1
0000
0000
0000
0000
,  // measure 2
0000
0000
0000
0000
,  // measure 3
1000
0100
1000
0100
0010
0001
0010
0001
,  // measure 4
0100
0010
0100
0010
1000
0001
1000
0001
,  // measure 5
0010
0100
0010
0100
1000
0010
1000
0010
,  // measure 6
0100
0001
0100
0001
0010
0100
0010
0100
,  // measure 7
1000
0010
1000
0010
2000
0000
0000
0000
,  // measure 8
3002
0000
0203
0000
,  // measure 9
0310
1000
0001
1000
0010
0000
0100
0020
,  // measure 10
0000
1030
0100
0000
0010
0001
0100
0001
,  // measure 11
0020
0000
0130
1000
0001
1000
0010
0200
,  // measure 12
0000
0310
1000
0000
1100
0000
1001
0000
,  // measure 13
0011
0000
0010
0001
1000
0001
0010
0200
,  // measure 14
0000
1300
0010
0200
0000
0301
0100
0010
,  // measure 15
1000
0010
0100
0001
0010
0100
0010
0001
,  // measure 16
0000
1100
0000
0010
0000
0101
0100
0000
,  // measure 17
1010
0000
1001
0000
0010
1000
0001
0020
,  // measure 18
0000
0130
1000
0000
0010
0100
0001
0010
,  // measure 19
0001
0100
1000
0100
0010
1000
0100
2000
,  // measure 20
0000
3010
0100
0000
0001
0010
0001
0100
,  // measure 21
0010
1000
0100
1000
0010
0100
0001
0100
,  // measure 22
0000
0001
0100
1000
0000
0100
0001
0010
,  // measure 23
0100
1000
0010
0100
0001
0010
0001
0200
,  // measure 24
0000
0310
1000
0002
0000
0013
0200
0000
,  // measure 25
1300
1000
0010
1000
0000
0000
0001
0001
,  // measure 26
0100
0001
0000
1000
0001
0010
0100
1000
,  // measure 27
0010
0100
0010
0100
0001
1000
0001
1000
,  // measure 28
0010
0001
0010
0001
1000
0100
1000
0000
,  // measure 29
0100
0001
0100
0001
0010
1000
0010
1000
,  // measure 30
0001
0100
0001
0100
1000
0010
1000
0000
,  // measure 31
0010
0001
0010
0001
1000
0100
1000
0100
,  // measure 32
0010
1000
0010
1000
0001
0100
0001
0000
,  // measure 33
0010
0100
0010
0100
1000
0001
1000
0001
,  // measure 34
0100
0010
1000
0001
0010
0100
1000
0000
,  // measure 35
0010
0000
0100
0010
0100
0000
0010
2000
,  // measure 36
0000
3001
0100
0000
0010
1000
0001
1000
,  // measure 37
0100
0000
0010
0000
0001
0100
0000
0100
,  // measure 38
0010
1000
1100
0000
1001
0000
1001
0000
,  // measure 39
1000
0000
0010
1000
0001
1000
0000
0200
,  // measure 40
0000
0310
0110
0000
0100
0001
1000
0001
,  // measure 41
0010
0000
0100
0000
1000
0010
0001
0010
,  // measure 42
0100
1000
0100
0001
0100
1000
0100
0001
,  // measure 43
1000
0000
0100
0010
0100
2000
0000
3002
,  // measure 44
0000
0103
0010
0000
1001
0001
0100
0020
,  // measure 45
0000
1030
0100
0010
0001
1000
0010
0200
,  // measure 46
0000
0310
0100
0000
1000
0010
0100
0002
,  // measure 47
0000
1003
0010
0000
0100
0001
0010
0002
,  // measure 48
0000
1003
0010
0000
0100
0001
0010
0001
,  // measure 49
1000
0010
0100
0001
0010
0001
0100
0010
,  // measure 50
0000
1000
0010
0001
0010
0000
0100
0000
,  // measure 51
1000
0000
1010
0000
0010
0100
0001
0100
,  // measure 52
0000
0010
1000
0100
0000
1000
0010
0100
,  // measure 53
0001
0000
0010
0100
0000
1000
0000
0010
,  // measure 54
0000
0100
0002
0000
1000
0000
1003
0000
,  // measure 55
1010
0000
0100
0001
0010
0001
1000
0020
,  // measure 56
0000
0130
0001
2000
0000
3010
0100
0001
,  // measure 57
0011
0010
0100
1100
0000
1100
0100
0010
,  // measure 58
0000
0101
0100
0010
1001
0000
0000
0000
,  // measure 59
1000
0010
1000
0010
0100
0001
0100
0001
0010
0001
0010
0001
1000
0000
1001
0000
,  // measure 60
0001
0010
0001
0010
0100
1000
0100
1000
0010
1000
0010
0100
0001
0000
0110
0000
,  // measure 61
1000
0010
0100
1000
0100
0001
0010
0100
0001
0100
1000
0010
0100
0001
0100
0000
,  // measure 62
0010
1000
0100
0001
1000
0010
0001
0100
1000
0001
0010
1000
0100
0010
0001
0000
,  // measure 63
1000
0010
0001
0010
1000
0100
0010
0001
0100
0000
0110
0000
0110
0000
0010
1000
,  // measure 64
0001
0000
0001
0010
0100
0000
0100
1000
0010
0000
0110
0000
0110
0000
0000
0000
,  // measure 65
1100
0000
1100
0000
0101
0000
0101
0000
0001
0100
1000
0010
0001
0000
1000
0100
,  // measure 66
0001
0000
0010
0000
0100
0100
1000
0000
0020
0000
0000
0000
0100
0000
0130
0000
,  // measure 67
0001
0011
1000
1010
1002
0000
0103
0000
,  // measure 68
0010
1100
0101
1001
,  // measure 69
0001
0100
0010
0000
1000
0100
1000
0002
,  // measure 70
0000
0103
0010
0000
1000
0000
1100
0000
,  // measure 71
1001
0000
0010
0001
0100
1000
0100
0020
,  // measure 72
0000
1030
0100
0000
0010
0000
0110
0000
,  // measure 73
1001
0000
0001
0100
1000
0100
0001
0010
,  // measure 74
0000
0100
1000
0010
0000
0100
0001
0010
,  // measure 75
1000
0010
0001
0100
0010
1000
0100
0110
,  // measure 76
0000
0101
0000
0110
0000
0100
1000
0000
,  // measure 77
1100
0000
1000
0010
0100
0001
0010
2000
,  // measure 78
0000
3010
0001
0000
0100
1000
0100
0010
,  // measure 79
1010
0000
1000
0100
0001
0100
1000
0020
,  // measure 80
0000
0130
0001
0000
1000
0010
0100
0001
,  // measure 81
0010
0000
0100
1000
0001
0010
1000
0010
,  // measure 82
0000
0001
0100
1000
0000
0100
0010
1000
,  // measure 83
0010
0100
0001
0010
0001
1000
0010
0110
,  // measure 84
0000
0100
0001
1001
0000
1000
1100
0000
,  // measure 85
1010
0100
0001
0100
0010
0000
0011
0100
,  // measure 86
1000
0100
0000
0000
0010
1000
0010
0001
,  // measure 87
0010
0010
0100
0100
0000
0000
1000
1000
,  // measure 88
0001
0001
0000
1000
0001
0001
0010
0010
,  // measure 89
0110
0000
0100
1000
0000
1100
0000
0101
,  // measure 90
0000
0001
0010
0001
0100
0000
0110
0000
,  // measure 91
1001
0000
0001
0100
0000
0110
0000
0101
,  // measure 92
0000
1000
0010
0100
0001
0000
0101
0000
,  // measure 93
1001
0000
1000
0010
0000
1010
0000
0011
,  // measure 94
0000
0010
0100
1000
0010
0000
0110
0000
,  // measure 95
0101
0000
1000
0010
0000
0110
0000
0101
,  // measure 96
0000
0001
1000
0010
0100
0000
0110
0000
,  // measure 97
1100
0101
1100
0101
,  // measure 98
1010
0011
1010
0011
,  // measure 99
1100
0100
0010
0001
0000
0101
0000
1100
,  // measure 100
0000
0001
0100
1000
0100
0000
0101
0000
,  // measure 101
1010
0010
0100
1000
0000
1100
0100
0101
,  // measure 102
0000
0101
0001
0010
0110
0000
1100
0000
,  // measure 103
1001
1000
0010
0010
0000
1010
0000
0101
,  // measure 104
0000
0100
0010
1000
0100
0000
1100
0000
,  // measure 105
1001
0000
0010
0010
0010
0000
1001
0000
,  // measure 106
0000
0000
0100
0100
0110
0000
1000
0000
,  // measure 107
0202
0000
0000
0303
,  // measure 108
1001
0000
0000
0000
;
