#TITLE:Justify My Love;
#SUBTITLE:;
#ARTIST:Tess;
#TITLETRANSLIT:;
#SUBTITLETRANSLIT:;
#ARTISTTRANSLIT:;
#GENRE:;
#CREDIT:;
#BANNER:JUSTIFY MY LOVE.png;
#BACKGROUND:JUSTIFY MY LOVE-bg.png;
#LYRICSPATH:;
#CDTITLE:;
#MUSIC:JUSTIFY MY LOVE.ogg;
#OFFSET:-0.466;
#SAMPLESTART:35.140;
#SAMPLELENGTH:8.500;
#SELECTABLE:YES;
#DISPLAYBPM:140.000;
#BPMS:0.000=140.010,192.000=70.011;
#STOPS:;
#BGCHANGES:;
#KEYSOUNDS:;

//---------------dance-single - 370K----------------
#NOTES:
     dance-single:
     370K:
     Challenge:
     11:
     0.841,0.902,0.527,0.539,0.615:
0000
0000
0000
0000
0000
0010
1000
0000
,
0200
0000
0000
0000
0000
0300
0000
0000
,
0000
0000
0000
0000
0000
0001
0010
0000
,
0200
0300
0000
0010
0001
0100
1000
0010
,
0002
0000
0200
0010
0000
0303
0000
0000
,
1000
1000
2000
0100
3100
0100
1001
1001
,
0001
0001
0002
0010
0013
0110
0110
1001
,
1001
1000
2000
0100
3100
0010
0010
1000
,
1001
0000
0000
0000
1002
0000
0000
0000
1003
0100
0010
0001
0010
0100
1000
0000
,
1000
0000
0100
0000
1000
0000
0100
0010
0100
0000
0010
0000
0100
0000
0100
1000
,
0100
0000
1000
0000
0001
0000
1000
0100
1000
0000
0100
0000
2200
0000
0010
0000
,
3300
0000
0010
0000
0100
0000
0010
1000
0100
0000
1000
0000
2200
0000
0001
0010
,
0001
0010
3310
0001
0100
0110
0101
1010
,
0000
0000
1000
0000
0100
0000
0010
0100
1000
0000
0001
0000
1000
0000
0010
0100
,
0010
0000
1000
0000
1000
0000
0100
0010
0100
0000
0100
0000
0002
0000
0020
0000
,
0033
0000
0110
0000
0100
0000
0100
1000
0100
0000
0100
0000
0010
0000
0010
0100
,
0001
0000
0010
0000
1000
0100
1000
0000
0010
0000
0011
0000
0110
0000
1100
0000
,
0010
0001
0010
0000
0010
0100
0010
0000
0010
1000
0010
0000
0010
0100
0010
0000
,
0001
0010
0100
0000
0100
0010
0001
0000
0010
0100
0010
0000
1000
0100
1000
0000
,
0100
0010
0100
0000
0100
1000
0100
0000
0100
0010
0100
0000
0100
1000
0100
0000
,
0100
0000
1000
0000
0100
0000
0000
0010
0001
0000
0010
0000
0100
0000
1000
0000
,
2000
0000
3100
0010
0002
0000
1003
0100
,
2000
0000
3010
0001
0020
0000
0100
1030
,
0200
0000
0010
0301
0020
0000
0100
0130
,
0200
0000
1300
1000
0100
0100
0010
0010
,
1000
0010
1000
0010
1000
0001
1000
0001
1000
0100
1000
0100
1000
0010
1000
0010
,
1000
0001
0100
0001
0100
0010
0100
0010
0100
0001
0100
0001
0100
1000
0100
1000
,
0100
0010
0100
0010
0100
0010
0100
0001
0010
0001
0010
0001
0010
0100
0010
0100
,
0010
0100
0010
0001
0010
0001
0010
0001
0010
0100
0010
0100
0010
0100
0010
0000
,
2000
0100
3100
0100
0102
0100
0103
0100
,
1001
0000
4004
0000
0000
0000
0000
3003
,
1010
0000
1010
0010
0022
0000
1033
1100
,
0200
0000
0301
0011
0220
0000
1330
0110
,
0002
0000
0013
0110
0020
0000
0031
0010
,
0022
0000
0133
0011
0220
0000
1330
0100
,
2000
0000
3100
0101
2200
0000
3301
0010
,
0200
0000
1300
0001
2002
0000
3013
0110
,
0020
0000
1030
1100
0202
0000
1303
0100
,
0200
0000
1300
1001
2020
0000
3130
0000
,
1000
0100
1000
0100
0000
0000
0000
0000
0000
0000
0000
0000
0001
0010
0001
0010
0000
0000
0000
0000
0000
0000
0000
0000
,
1000
0010
1000
0010
0000
0000
0000
0000
0000
0000
0000
0000
0001
0100
0001
0100
0000
0000
0000
0000
0000
0000
0000
0000
,
1000
0001
1000
0001
0000
0000
0000
0000
0000
0000
0000
0000
0010
0100
0010
0100
0000
0000
0000
0000
0000
0000
0000
0000
,
1000
0100
0010
0001
0000
0000
0000
0000
0000
0000
0000
0000
0001
0010
0100
1000
0000
0000
0000
0000
0000
0000
0000
0000
,
1000
0100
0010
0001
0010
0100
1000
0100
0010
0001
0010
0100
1000
0100
0010
0001
,
0010
0100
0010
0001
0010
0100
0010
0001
0010
0100
1000
0100
0010
0100
1000
0100
,
0010
0100
1000
0100
0010
0100
0010
0100
0010
0001
1000
0001
1000
0001
1000
0100
,
1000
0100
1000
0100
1000
0100
0010
0001
0010
0001
0010
0001
0010
0001
0010
0000
,
0011
0010
0100
0101
0100
1100
0101
1001
,
0440
0330
0000
0000
0000
0000
0000
0000
;
