#TITLE:JANEJANA;
#SUBTITLE:;
#ARTIST:T.E.M.P.O. feat.Mohammed & Emi;
#TITLETRANSLIT:;
#SUBTITLETRANSLIT:;
#ARTISTTRANSLIT:;
#CREDIT:;
#BANNER:JANEJANA.png;
#BACKGROUND:JANEJANA-bg.png;
#LYRICSPATH:;
#CDTITLE:./CDTITLES/Song Pack 5.png;
#MUSIC:JANEJANA.mp3;
#OFFSET:-0.176;
#SAMPLESTART:15.490;
#SAMPLELENGTH:15.000;
#SELECTABLE:YES;
#DISPLAYBPM:125.000;
#BPMS:0.000=125.000;
#STOPS:;
#BGCHANGES:;

//---------------dance-double - ----------------
#NOTES:
     dance-double:
     :
     Easy:
     3:
     0.275,0.302,0.069,0.000,0.006:
00000000
00000000
00000000
00000000
,
00000000
00000000
00000000
00000000
,
00000001
00000100
00001000
00000100
,
00010000
00001000
00100000
00010000
,
01100000
01000000
00001000
00010000
,
00011000
00000010
00000001
00000001
,
00000110
00001000
00010000
00010000
,
00011000
00010000
00100000
01100000
,
10000000
00100000
00010000
00001000
,
00000010
00000001
00000100
00001000
,
00010000
01000000
10000000
00100000
,
00010000
00001000
00000010
00000001
,
00000001
00000100
00001000
00010000
,
01000000
10000000
00100000
00010000
,
00001000
00000100
00000001
00000010
,
00001000
00010000
00100000
10000000
,
10000000
01000000
00010000
00100000
,
00001000
00010000
00000010
00000100
,
00000001
00000010
00000100
00001000
,
00000100
00010000
00100000
10000000
,
01000000
00010000
00001000
00000100
,
00001000
00010000
00001000
00001000
,
00000100
00001000
00010000
00100000
,
00010000
00001000
00010000
01100000
,
10000000
01000000
00100000
00001000
,
00010000
00001000
00000010
00000010
,
00000001
00000100
00000010
00001000
,
00000100
00010000
00001000
00100000
,
00010000
10000000
00100000
00010000
,
00001000
00000010
00000001
00000001
,
00001000
00000001
00000010
00001000
,
00010000
00100000
10000000
10000000
,
01000000
00100000
00001000
00010000
,
00001000
00000100
00000001
00000010
,
00000100
00000010
00000001
00000100
,
00001000
00010000
01000000
10000000
,
00100000
10000000
00100000
10000000
,
01000000
00010000
00001000
00000010
,
00000001
00000100
00000001
00000100
,
00000001
00000010
00001000
00010000
,
00000100
00000000
00010000
00000000
,
00001000
00000000
00010000
00000000
,
00100000
00000000
10000000
00000000
,
01000000
00000000
00000000
00000000
00000000
00000000
00000000
00000000
00010000
00000000
00000000
00010000
00000000
00000000
00000000
00000000
;

//---------------dance-double - ----------------
#NOTES:
     dance-double:
     :
     Medium:
     5:
     0.302,0.353,0.115,0.000,0.029:
00000000
00000000
00000000
00000000
,
00000000
00000000
00000000
00000000
,
10000000
01000000
00010000
01000000
,
00001000
00010000
00001000
00000100
,
00000101
00000000
00000010
00000000
00001000
00001000
00001000
00000000
,
00011000
00000000
01000000
00000000
10000000
10000000
10000000
00000000
,
01100000
00000000
00010000
00000000
00001000
00001000
00001000
00000000
,
00011000
00010100
00000110
00000101
,
00000000
00000001
00000000
00000100
00000000
00001000
00000000
00010000
,
00000000
01000000
00000000
10000000
00000000
00100000
00000000
00010000
,
00000000
00001000
00000000
00000010
00000000
00000001
00000000
00000100
,
00000000
00001000
00000000
00010000
00000000
01000000
10000000
00000000
,
00000000
10000000
00000000
01000000
00000000
00010000
00000000
00001000
,
00000000
00000100
00000000
00000001
00000000
00000010
00000000
00001000
,
00000000
00010000
00000000
00100000
00000000
10000000
00000000
01000000
,
00000000
00010000
00000000
00001000
00000100
00000000
00000001
00000000
,
00000001
00000100
00001000
00000100
,
00001000
00000000
00010000
00000000
01000000
10000000
10000000
00000000
,
10000000
01000000
00010000
01000000
,
00010000
00000000
00001000
00000000
00000100
00000001
00000001
00000000
,
00000010
00001000
00010000
01000000
,
00010000
00000000
00001000
00000000
00010000
00010000
00010000
00000000
,
00100000
00010000
00001000
00000100
,
00001000
00010000
00001000
00000110
,
00000001
00000010
00000100
00001000
,
00010000
01000000
10000000
01000000
,
10000000
00100000
01000000
00010000
,
00001000
00000100
00000001
00000100
,
00001000
00000001
00000100
00001000
,
00010000
00000000
01000000
00000000
10000000
10000000
10000000
00000000
,
00010000
10000000
01000000
00010000
,
00001000
00000000
00000100
00000000
00000001
00000001
00000001
00000000
,
00000010
00000100
00010000
00001000
,
00010000
00100000
10000000
01000000
,
00010000
01000000
10000000
00100000
,
00010000
00001000
00000010
00000001
,
00000100
00001000
00000100
00000001
,
00000010
00001000
00010000
01000000
,
10000000
00100000
00010000
00100000
,
10000000
01000000
00010000
00001000
,
00000100
00000000
00000000
00000000
00000000
00000000
00000000
00000001
00000000
00000000
00000100
00000000
00000000
00000000
00000000
00000000
,
00001000
00000000
00000000
00000000
00000000
00000000
00000000
00000000
00010000
00000000
00000000
01000000
00000000
00000000
00000000
00000000
,
10000000
00000000
00000000
00000000
00000000
00000000
00000000
00100000
00000000
00000000
00100000
00000000
00000000
00010000
00000000
00000000
,
00001000
00000000
00000000
00000000
00000000
00000000
00000000
00000000
00011000
00000000
00000000
01001000
00000000
00000000
00000000
00000000
;

//---------------dance-double - ----------------
#NOTES:
     dance-double:
     :
     Hard:
     7:
     0.531,0.428,0.196,0.000,0.035:
00000000
00000000
00000000
00000000
,
00000000
00000000
00000000
00000000
,
00100000
10000000
01000000
00100000
00010000
01000000
00001000
00010000
,
00001000
00000010
00000001
00000100
00000001
00001000
00000100
00000000
,
00000101
00000000
00000010
00001000
00000100
00010000
00001000
00000000
,
00011000
00000000
01000000
00010000
00100000
01000000
10000000
00000000
,
01010000
00000000
00100000
00001000
00010000
00001000
00000100
00000000
,
00000001
00000010
00000001
00000100
00001000
00010000
01000000
10000000
,
00100000
10000000
00100000
10000000
00010000
01000000
00010000
01000000
,
00001000
00010000
00001000
00010000
00000010
00000100
00000010
00000100
,
00000001
00000100
00000001
00000100
00000010
00001000
00000010
00001000
,
00000100
00010000
00000100
00010000
00001000
00010000
01000000
00000000
,
01000000
10000000
01000000
10000000
00010000
00100000
00010000
00100000
,
00001000
00010000
00001000
00010000
00000100
00000010
00000100
00000010
,
00000001
00000010
00000001
00000010
00000100
00001000
00000100
00001000
,
00000010
00010000
00000010
00010000
00001000
00000000
00101000
00000000
,
00001000
00010000
01000000
10000000
00100000
00010000
00100000
10000000
,
01000000
00010000
00001000
00000010
00000001
00000100
00001000
00000100
,
00000001
00000010
00000001
00000100
00001000
00010000
01000000
10000000
,
00100000
00010000
00001000
00010000
01000000
10000000
00100000
00010000
,
00001000
00000010
00000001
00000100
00001000
00000100
00000001
00000010
,
00001000
00010000
00001000
00000100
00000001
00000010
00001000
00010000
,
00100000
10000000
01000000
00010000
00001000
00010000
01000000
10000000
,
00100000
00010000
00001000
00010000
00010100
00000000
00011000
00000000
,
00001000
00000010
00000001
00000100
00000001
00000100
00001000
00010000
,
01000000
10000000
01000000
10000000
00100000
00010000
00001000
00000000
,
00010000
01000000
10000000
00100000
10000000
00100000
00010000
00001000
,
00000010
00000001
00000010
00000001
00000100
00001000
00001000
00000000
,
00010000
00001000
00010000
00100000
10000000
01000000
00010000
01000000
,
00010000
00001000
00000100
00000001
00000010
00000100
00001000
00000000
,
00000100
00010000
00001000
00010000
01000000
10000000
00100000
00010000
,
00100000
00010000
00001000
00000010
00000001
00000100
00000100
00000000
,
00001000
00010000
00100000
10000000
00010000
00100000
01000000
10000000
,
00100000
00010000
00001000
00010000
00000010
00000100
00000001
00000010
,
00000100
00001000
00000010
00000100
00001000
00010000
01000000
10000000
,
00100000
01000000
00001000
00010000
01000000
00100000
00001000
00010000
,
00001000
00000100
00000001
00000010
00000100
00001000
00000010
00000001
,
00000010
00001000
00000100
00010000
00001000
00100000
00010000
10000000
,
01000000
00100000
00010000
10000000
01000000
00010000
00001000
00000100
,
00000001
00000010
00000100
00010000
00001000
00000100
00000001
00000000
,
00001100
00000000
00000000
00000000
00010100
00000000
00000000
00001000
00000000
00000000
00010000
00000000
00000000
01000000
00000000
00000000
,
01010000
00000000
00000000
00000000
10000000
00000000
00000000
00000000
01100000
00000000
00000000
00110000
00000000
00000000
00000000
00000000
,
00011000
00000000
00000000
00000000
00000100
00000000
00000000
00000110
00000000
00000000
00000101
00000000
00000000
00000010
00000000
00000000
,
00001010
00000000
00000000
00000000
00010000
00000000
00000000
00000000
00011000
00000000
00000000
01001000
00000000
00000000
00000000
00000000
;

//---------------dance-double - ----------------
#NOTES:
     dance-double:
     :
     Beginner:
     1:
     0.145,0.201,0.046,0.000,0.000:
00000000
00000000
00000000
00000000
,
00000000
00000000
00000000
00000000
,
00000001
00000000
00001000
00000000
,
00010000
00000000
00100000
00000000
,
01100000
00000000
00001000
00000000
,
00011000
00000000
00000001
00000000
,
00000110
00000000
00010000
00000000
,
00011000
00000000
00100000
00000000
,
10000000
00000000
00010000
00000000
,
00000010
00000000
00000100
00000000
,
00010000
00000000
10000000
00000000
,
00010000
00000000
00000010
00000000
,
00000001
00000000
00001000
00000000
,
01000000
00000000
00100000
00000000
,
00001000
00000000
00000001
00000000
,
00001000
00000000
00100000
00000000
,
10000000
00000000
00010000
00000000
,
00001000
00000000
00000010
00000000
,
00000001
00000000
00000100
00000000
,
00000100
00000000
00100000
00000000
,
01000000
00000000
00001000
00000000
,
00001000
00000000
00001000
00000000
,
00000100
00000000
00010000
00000000
,
00010000
00000000
00010000
00000000
,
10000000
00000000
00100000
00000000
,
00010000
00000000
00000010
00000000
,
00000001
00000000
00000010
00000000
,
00000100
00000000
00001000
00000000
,
00010000
00000000
00100000
00000000
,
00001000
00000000
00000001
00000000
,
00001000
00000000
00000010
00000000
,
00010000
00000000
10000000
00000000
,
01000000
00000000
00001000
00000000
,
00001000
00000000
00000001
00000000
,
00000100
00000000
00000001
00000000
,
00001000
00000000
01000000
00000000
,
00100000
00000000
00100000
00000000
,
01000000
00000000
00001000
00000000
,
00000001
00000000
00000001
00000000
,
00000001
00000000
00001000
00000000
,
00000100
00000000
00010000
00000000
,
00001000
00000000
00010000
00000000
,
00100000
00000000
10000000
00000000
,
01000000
00000000
00010000
00000000
;

//---------------dance-single - ----------------
#NOTES:
     dance-single:
     :
     Challenge:
     11:
     0.470,0.455,0.127,0.138,0.946: // measure 1
1000
0000
0000
0000
0000
0000
0100
0000
0000
0000
0000
0000
1000
0000
1000
0000
0000
0100
0000
0000
0000
0000
0000
1000
,  // measure 2
0000
0000
0000
0000
0000
0000
0100
0000
0000
0000
0000
0000
1000
0000
1000
0000
0000
0000
0100
0000
0000
0000
0000
0001
,  // measure 3
0000
0000
0010
0000
0000
0100
0000
0000
1000
0000
0000
0100
0000
0000
0010
0000
0000
0000
0001
0000
0000
0000
0000
0010
,  // measure 4
0000
0000
0000
0000
0000
0100
0000
0000
0000
0000
0000
0000
1000
0000
0000
1000
0000
0000
0100
0000
0000
0000
0000
1000
,  // measure 5
0000
0000
0100
0000
0000
0010
0000
0000
0001
0000
0000
0010
0000
0000
0100
0000
0000
0010
0000
0000
0100
0000
0000
1000
,  // measure 6
0000
0000
0100
0000
0000
0010
0000
0001
0000
0000
0000
1000
0000
0100
0000
0000
0000
0010
0000
0000
0001
0000
0000
0000
,  // measure 7
1000
0000
0000
0100
0000
0000
0010
0000
0001
0000
0000
0000
1000
0000
0000
0100
0000
0000
0010
0001
0000
0000
0000
1000
,  // measure 8
0000
0001
0000
0000
0000
1000
0000
0000
0001
0000
0000
0000
1000
0001
0000
1000
0000
0001
1000
0000
0000
0000
0000
0000
,  // measure 9
0010
0000
0000
0000
0000
0100
0000
0000
0000
0000
0000
0010
0000
0000
0000
0000
0000
0100
0000
0000
0100
0000
0000
0010
,  // measure 10
0000
0000
0000
0000
0000
0000
0100
0000
0000
0000
0000
0010
0000
0000
0000
0000
0000
0100
0000
0000
0100
0000
0000
0000
,  // measure 11
0000
0000
0010
0000
0000
0000
0000
0000
0000
0001
0000
0000
0000
0000
0000
1000
0000
0000
1000
0000
0010
0000
0000
0000
,  // measure 12
0000
0010
0000
0000
1000
1000
0100
0100
,  // measure 13
0000
0000
1000
0000
0000
0000
0000
0000
0100
0000
0000
0000
0000
0000
0000
1000
0000
0000
0100
0000
0000
0010
0000
0000
,  // measure 14
0000
1000
0000
1000
0000
0001
0100
0010
,  // measure 15
0000
0000
0000
0100
0000
0000
0000
0000
0000
0100
0000
0000
0000
0000
0000
0100
0000
0000
0000
0000
0010
0000
0000
0000
,  // measure 16
0100
0000
0000
0010
0000
0000
0000
0000
0000
0000
0000
2002
0000
0000
0000
0000
3003
0010
0000
0000
0000
0000
0000
0100
,  // measure 17
0000
0000
0010
0000
0000
0100
0000
0000
0001
0000
0000
1000
0000
0000
0000
0000
0001
0000
0000
0000
0000
1000
0000
0000
,  // measure 18
0001
0000
0000
0000
0000
1000
0000
0000
0000
0000
0000
0000
0010
0000
0010
0000
0000
0000
0100
0000
0000
0000
0000
0000
,  // measure 19
0000
0000
0001
0000
0000
0001
0000
0000
0010
0000
0000
0000
0100
0000
0000
0000
0000
0010
0000
0000
0000
0100
0000
0000
,  // measure 20
0010
0000
0000
0000
0000
0000
0000
0001
0000
0000
0000
1000
0000
0000
1000
0000
0000
0001
0000
0000
0000
0000
0000
0010
,  // measure 21
0000
0000
0010
0000
0000
0100
0000
0000
0100
0000
0000
1000
0000
0000
0000
0000
0001
0000
0000
0000
1000
0000
0000
0001
,  // measure 22
0000
0000
0001
0000
0000
1000
0000
0000
0001
0000
0020
0000
0000
0000
0000
0000
0000
0230
0000
0000
0000
0000
0000
0300
,  // measure 23
0001
0000
0000
0001
0000
0000
1000
0000
0000
0010
0000
0000
0100
0000
0000
0000
0000
0000
0000
0000
0000
0000
2000
0000
,  // measure 24
0000
0000
0000
0000
0000
3200
0000
0000
0000
0000
0000
0320
0000
0000
0000
0000
0000
0002
0030
0000
0000
0000
0000
0000
,  // measure 25
0003
0010
0000
0000
0010
0000
0000
0100
0000
0000
0100
0000
0000
1000
0000
0000
1000
0000
0000
0100
0000
0000
0000
0000
,  // measure 26
1000
0000
0100
0000
0000
0010
0000
0001
0000
0001
0000
0000
1000
0000
0000
1000
0000
0000
0100
0000
0000
0000
0000
0000
,  // measure 27
1000
0000
0100
0000
0000
0010
0000
0000
0001
0000
0000
0010
0000
0000
0000
0100
0000
0000
0010
0000
0000
0000
0000
0100
,  // measure 28
0000
0000
0100
0000
0000
0000
0010
0000
0000
0100
0000
0000
0010
0000
0000
0000
0010
0000
0010
0000
0000
0000
0000
0001
,  // measure 29
0000
0000
0000
1000
0000
0000
0100
0000
0000
0010
0000
0000
0100
0000
0000
0000
0010
0000
0010
0000
0000
0000
0000
0200
,  // measure 30
0000
0000
0000
0000
0000
0000
0000
0000
0000
0300
0020
0000
0000
0000
0000
0000
0000
0000
0000
0000
0030
0000
0000
1000
,  // measure 31
0000
0000
0100
0000
0000
0010
0000
0000
0001
0000
0000
0000
0010
0000
0000
0100
0000
0000
1000
0000
0000
0100
0000
0010
,  // measure 32
0000
0000
0001
0000
0000
0000
1000
0000
0000
0000
0000
0000
1001
0000
1001
0000
0000
0000
0110
0000
0000
0000
0000
0011
,  // measure 33
0000
0000
0000
0000
0000
1100
0000
0000
0000
0000
0000
1010
0000
0000
0000
0000
0000
0101
0000
0000
0000
0000
1010
0000
,  // measure 34
0000
0000
0000
0000
0000
1001
0000
0000
0000
0000
0000
0010
0000
0000
0100
0000
0000
0010
0000
0000
0000
0000
0000
0000
,  // measure 35
0100
1000
0000
0000
0000
0000
0010
0000
0000
0000
0000
0100
0000
0000
0000
1000
0000
0000
0010
0000
0100
0000
0000
0000
,  // measure 36
0000
0000
0001
0000
0000
1000
0000
0000
0100
0000
0000
0010
0000
0000
0100
0000
0000
0010
0000
0000
0000
0000
0000
0001
,  // measure 37
0000
0000
0001
0000
0000
1000
0000
0000
1000
0000
0000
0001
0000
0000
0001
0000
0000
0000
1000
0000
0000
1000
0000
0000
,  // measure 38
0010
0000
0000
0010
0000
0000
0100
0000
0000
0100
0000
0000
0000
0010
0000
0000
0010
0000
0000
0001
0000
0000
0001
0000
,  // measure 39
0000
1000
0000
0000
1000
0000
0000
0100
0000
0000
0100
0000
0000
0000
0010
0000
0000
0001
0000
0000
0000
0000
0000
1000
,  // measure 40
0000
0100
0000
0000
0010
0000
0000
0001
0000
0000
0000
1000
0000
0100
0000
0010
0000
0001
0000
0000
0000
0000
0000
2000
,  // measure 41
0000
0000
0000
0000
0000
0000
0000
0000
0000
0000
0000
0001
0000
0000
0000
0001
0000
0000
0000
0000
0000
0001
0000
0000
,  // measure 42
0010
0000
0000
0000
0000
0000
0000
0000
0000
0000
0000
0010
0000
0000
0000
0010
0000
0000
0000
0000
0010
3000
0000
0002
,  // measure 43
0000
0000
0000
0000
0000
0000
0100
0000
0000
0100
0000
0000
0100
0000
0000
0000
0000
1000
0003
0000
0000
0001
0000
0000
,  // measure 44
0000
0000
0000
0000
0000
0000
0000
0000
0000
0000
0000
1000
0000
1000
0010
0000
0100
0000
0101
0000
0001
0000
0000
0000
;
